osu file format v14

[General]
AudioFilename: audio.mp3
AudioLeadIn: 0
PreviewTime: 13773
Countdown: 0
SampleSet: Soft
StackLeniency: 0.3
Mode: 0
LetterboxInBreaks: 0
WidescreenStoryboard: 1

[Editor]
DistanceSpacing: 1
BeatDivisor: 4
GridSize: 8
TimelineZoom: 1.7

[Metadata]
Title:Sailor Moon Theme (TV Size)
TitleUnicode:Sailor Moon Theme (TV Size)
Artist:Nicole Price and Brynn Price
ArtistUnicode:Nicole Price and Brynn Price
Creator:Glaceon
Version:Hard
Source:Sailor Moon
Tags:anime female vocals english pop op opening pretty soldier guardian 美少女戦士セーラームーン moonlight densetsu legend ムーンライト伝説
BeatmapID:3078725
BeatmapSetID:1502714

[Difficulty]
HPDrainRate:4
CircleSize:3.5
OverallDifficulty:5.5
ApproachRate:7
SliderMultiplier:1.4
SliderTickRate:1

[Events]
//Background and Video events
0,0,"minako.jpg",0,0
//Break Periods
//Storyboard Layer 0 (Background)
//Storyboard Layer 1 (Fail)
//Storyboard Layer 2 (Pass)
//Storyboard Layer 3 (Foreground)
//Storyboard Layer 4 (Overlay)
//Storyboard Sound Samples

[TimingPoints]
9999,458.015267175573,4,2,22,50,1,0
9999,-142.857142857143,4,2,22,50,0,0
10342,-142.857142857143,4,2,22,5,0,0
10457,427.960057061341,4,2,22,50,1,0
10884,-100,4,2,22,30,0,0
10991,-100,4,2,22,35,0,0
11098,-100,4,2,22,40,0,0
11205,-100,4,2,22,45,0,0
11312,-100,4,2,22,50,0,0
11419,-100,4,2,22,5,0,0
11740,-111.111111111111,4,2,22,50,0,0
13238,-111.111111111111,4,2,22,35,0,0
13880,427.960057061341,4,2,22,65,1,0
13880,-99.9999999999999,4,2,22,65,0,1
14307,-99.9999999999999,4,2,22,65,0,1
17731,-99.9999999999999,4,2,22,65,0,1
21155,-99.9999999999999,4,2,22,65,0,1
24150,-99.9999999999999,4,2,22,65,0,1
26504,-99.9999999999999,4,2,22,40,0,1
26718,-99.9999999999999,4,2,22,65,0,1
27574,-99.9999999999999,4,2,22,65,0,1
39557,-142.857142857143,4,2,22,65,0,0
41269,-100,4,2,22,65,0,0
48009,-100,4,2,22,5,0,0
48116,-99.9999999999999,4,2,22,65,0,0
53893,-99.9999999999999,4,2,22,40,0,0
54107,-99.9999999999999,4,2,22,65,0,0
54963,-111.111111111111,4,2,22,60,0,0
63951,-111.111111111111,4,2,22,60,0,0
65983,-111.111111111111,4,2,22,5,0,0
66090,-111.111111111111,4,2,22,60,0,0
68658,-100,4,2,22,65,0,1
69086,-99.9999999999999,4,2,22,65,0,1
72510,-99.9999999999999,4,2,22,65,0,1
75933,-99.9999999999999,4,2,22,65,0,1
80427,-99.9999999999999,4,2,22,65,0,0
82353,-99.9999999999999,4,2,22,65,0,1
83851,-99.9999999999999,4,2,22,65,0,0
84707,-99.9999999999999,4,2,22,40,0,0
84921,-99.9999999999999,4,2,22,65,0,0
85777,-99.9999999999999,4,2,22,65,0,1
87917,-200,4,2,22,65,0,0

[Colours]
Combo1 : 255,119,119
Combo2 : 255,222,32
Combo3 : 165,157,208

[HitObjects]
85,47,9998,6,0,L|96:165,1,105,2|2,0:0|0:0,0:0:0:0:
87,169,10457,5,0,1:2:0:0:
55,261,10670,1,0,1:2:0:0:
139,310,10884,2,0,L|188:306,4,35,8|8|8|8|8,3:2|3:2|3:2|3:2|3:2,0:0:0:0:
315,294,11740,6,0,P|333:266|333:208,1,62.9999980773926,14|0,0:0|1:2,0:0:0:0:
287,164,12168,2,0,P|269:136|269:78,1,62.9999980773926,10|2,0:0|1:2,0:0:0:0:
326,44,12596,1,14,0:0:0:0:
407,77,12810,1,6,1:2:0:0:
407,77,13238,2,0,L|489:84,2,62.9999980773926,8|8|8,2:3|2:3|2:3,0:0:0:0:
316,37,13880,6,0,P|284:19|188:74,1,140,6|10,1:2|0:0,0:0:0:0:
171,150,14521,2,0,L|177:242,1,70,2|0,0:0|1:2,0:0:0:0:
222,306,14949,1,2,0:0:0:0:
141,361,15163,2,0,P|97:346|75:310,1,70,10|0,0:0|0:0,0:0:0:0:
55,234,15591,6,0,L|65:142,1,70,2|0,1:2|1:2,0:0:0:0:
93,70,16019,2,0,P|126:33|226:54,1,140,10|0,0:0|1:2,0:0:0:0:
276,111,16661,1,0,0:0:0:0:
367,75,16875,1,8,0:0:0:0:
367,75,17303,6,0,L|381:234,1,140,2|10,1:2|0:0,0:0:0:0:
314,288,17945,2,0,P|286:237|287:212,1,70,2|0,0:0|1:2,0:0:0:0:
287,128,18373,1,0,0:0:0:0:
209,68,18587,2,0,L|124:61,1,70,10|0,0:0|0:0,0:0:0:0:
54,112,19015,6,0,P|36:156|42:192,1,70,2|0,1:2|1:2,0:0:0:0:
133,155,19443,2,0,P|151:199|145:235,1,70,10|0,0:0|0:0,0:0:0:0:
86,296,19871,1,0,1:2:0:0:
86,296,20085,1,0,0:0:0:0:
152,368,20299,1,12,0:0:0:0:
152,368,20727,6,0,L|318:355,1,140,2|10,1:2|0:0,0:0:0:0:
373,303,21369,2,0,P|388:261|383:224,1,70,2|0,0:0|1:2,0:0:0:0:
350,144,21797,1,2,0:0:0:0:
256,158,22011,1,10,0:0:0:0:
256,158,22225,1,2,0:0:0:0:
216,68,22439,6,0,P|251:33|345:41,1,140,6|6,1:2|1:2,0:0:0:0:
452,355,23723,1,10,2:3:0:0:
452,355,24151,6,0,L|359:348,1,70,6|0,1:2|0:0,0:0:0:0:
307,285,24579,2,0,L|237:290,1,70,2|0,1:2|0:0,0:0:0:0:
156,346,25006,1,6,1:2:0:0:
80,283,25220,1,6,1:2:0:0:
80,283,25648,6,0,P|96:235|41:157,1,140,6|0,1:2|3:2,0:0:0:0:
53,162,26183,1,0,3:2:0:0:
53,162,26290,1,10,0:0:0:0:
68,65,26504,1,8,0:0:0:0:
68,65,26611,1,8,0:0:0:0:
68,65,26718,1,8,0:0:0:0:
155,21,26932,1,2,1:2:0:0:
233,79,27146,1,12,2:3:0:0:
233,79,27574,6,0,P|187:122|194:215,1,140,4|10,1:2|0:0,0:0:0:0:
241,274,28216,1,2,0:0:0:0:
326,226,28430,2,0,P|361:208|416:213,1,70,2|2,1:2|0:0,0:0:0:0:
471,262,28858,1,10,0:0:0:0:
458,359,29072,6,0,L|381:351,1,70,2|0,0:0|1:2,0:0:0:0:
290,360,29500,1,2,1:2:0:0:
241,274,29714,2,0,P|205:230|112:240,1,140,8|0,0:0|1:2,0:0:0:0:
47,287,30356,1,2,0:0:0:0:
25,191,30570,1,10,0:0:0:0:
105,134,30784,6,0,L|274:128,1,140,2|0,0:0|0:0,0:0:0:0:
321,66,31426,1,10,0:0:0:0:
407,111,31640,2,0,P|432:155|434:185,1,70,2|0,0:0|1:2,0:0:0:0:
364,241,32068,1,2,0:0:0:0:
267,221,32282,2,0,P|242:265|240:295,1,70,10|0,0:0|0:0,0:0:0:0:
136,357,32710,6,0,L|171:354,3,35,2|2|2|2,1:2|0:0|0:0|0:0,0:0:0:0:
125,333,33138,2,0,L|90:329,3,35,10|2|2|2,0:0|0:0|0:0|0:0,0:0:0:0:
130,300,33566,2,0,L|164:296,3,35,2|2|2|2,1:2|0:0|0:0|0:0,0:0:0:0:
119,275,33994,2,0,L|84:271,3,35,10|2|2|2,0:0|0:0|0:0|0:0,0:0:0:0:
56,230,34422,6,0,P|18:172|50:85,1,140,2|10,1:2|0:0,0:0:0:0:
114,53,35064,2,0,L|203:62,1,70,2|0,0:0|1:2,0:0:0:0:
262,119,35491,2,0,L|331:111,1,70,2|10,0:0|0:0,0:0:0:0:
412,56,35919,1,2,0:0:0:0:
482,124,36133,6,0,P|504:161|498:202,1,70,2|0,1:2|0:0,0:0:0:0:
432,255,36561,2,0,L|273:241,1,140,10|0,0:0|1:2,0:0:0:0:
205,196,37203,1,2,0:0:0:0:
123,250,37417,1,10,0:0:0:0:
123,250,37631,1,2,0:0:0:0:
38,200,37845,6,0,L|31:269,1,70,2|0,1:2|0:0,0:0:0:0:
100,339,38273,2,0,P|143:341|175:324,1,70,10|0,0:0|0:0,0:0:0:0:
246,271,38701,1,2,1:2:0:0:
246,271,38915,1,2,0:0:0:0:
337,305,39129,1,8,0:0:0:0:
412,241,39343,1,8,2:3:0:0:
412,241,39450,1,8,2:3:0:0:
412,241,39557,5,8,3:2:0:0:
256,192,39664,12,10,40841,0:0:0:0:
170,94,41269,6,0,L|162:173,1,70,6|2,1:2|0:0,0:0:0:0:
240,223,41697,2,0,L|248:302,1,70,10|2,0:0|1:2,0:0:0:0:
173,357,42125,2,0,P|116:346|94:313,1,70,2|2,1:2|0:0,0:0:0:0:
62,258,42553,1,10,0:0:0:0:
62,258,42767,1,2,0:0:0:0:
132,190,42981,6,0,L|126:107,1,70,2|2,1:2|0:0,0:0:0:0:
199,53,43409,2,0,B|285:54|236:89|338:86,2,140,10|0|10,0:0|1:2|0:0,0:0:0:0:
104,26,44479,1,2,0:0:0:0:
47,105,44693,6,0,P|33:144|41:187,1,70,2|0,1:2|0:0,0:0:0:0:
93,251,45121,2,0,P|132:265|175:257,1,70,10|0,0:0|0:0,0:0:0:0:
240,206,45549,2,0,L|325:201,1,70,2|0,1:2|0:0,0:0:0:0:
397,246,45977,1,10,0:0:0:0:
397,246,46190,1,2,0:0:0:0:
473,185,46404,6,0,L|465:100,1,70,2|2,1:2|0:0,0:0:0:0:
383,62,46832,2,0,L|376:131,1,70,10|0,0:0|0:0,0:0:0:0:
309,201,47260,1,0,1:2:0:0:
309,201,47367,1,8,0:0:0:0:
309,201,47474,1,0,1:2:0:0:
234,136,47688,2,0,P|198:100|132:98,1,105,12|0,0:0|0:0,0:0:0:0:
97,104,48116,6,0,L|109:263,1,140,2|10,1:2|0:0,0:0:0:0:
140,336,48758,2,0,P|197:328|239:240,1,140,2|2,0:0|0:0,0:0:0:0:
223,170,49400,1,10,0:0:0:0:
223,170,49614,1,2,0:0:0:0:
292,101,49828,6,0,L|377:97,1,70,2|2,1:2|0:0,0:0:0:0:
440,157,50256,2,0,B|404:188|404:188|415:291,1,140,10|0,0:0|1:2,0:0:0:0:
457,368,50898,1,10,2:3:0:0:
359,358,51112,1,10,0:0:0:0:
359,358,51326,1,10,2:3:0:0:
315,270,51540,6,0,L|218:260,1,70,6|0,1:2|0:0,0:0:0:0:
164,318,51968,2,0,L|94:325,1,70,14|0,3:2|0:0,0:0:0:0:
25,263,52396,1,6,3:2:0:0:
25,263,52610,1,6,3:2:0:0:
90,78,53038,5,14,1:2:0:0:
90,78,53466,2,0,L|86:30,2,35,8|8|10,2:3|2:3|0:0,0:0:0:0:
175,146,53894,1,8,0:0:0:0:
175,146,54001,1,8,0:0:0:0:
175,146,54108,1,8,0:0:0:0:
250,83,54322,2,0,L|257:7,2,70,8|8|8,2:3|2:3|2:3,0:0:0:0:
331,126,54964,6,0,B|407:113|382:159|463:139,2,125.999996154785,6|8|0,1:2|0:0|1:2,0:0:0:0:
250,83,56034,1,0,0:0:0:0:
182,139,56248,2,0,P|158:185|160:210,1,62.9999980773926,8|0,0:0|0:0,0:0:0:0:
236,235,56676,6,0,P|261:273|259:334,2,94.499997116089,2|2|2,1:2|0:0|0:0,0:0:0:0:
157,194,57531,2,0,L|4:204,1,125.999996154785,2|8,1:2|0:0,0:0:0:0:
8,116,58173,1,2,0:0:0:0:
74,57,58387,6,0,P|129:25|202:57,2,125.999996154785,2|8|0,1:2|0:0|1:2,0:0:0:0:
8,116,59457,1,0,0:0:0:0:
31,202,59671,2,0,L|26:282,1,62.9999980773926,8|0,0:0|0:0,0:0:0:0:
79,336,60099,5,0,1:2:0:0:
154,287,60313,2,0,P|197:261|289:288,1,125.999996154785,2|2,0:0|0:0,0:0:0:0:
349,329,60955,1,2,1:2:0:0:
349,329,61062,1,8,0:0:0:0:
349,329,61169,1,2,0:0:0:0:
419,275,61383,1,10,0:0:0:0:
372,200,61597,1,10,2:3:0:0:
438,142,61811,6,0,B|462:101|462:101|448:-5,2,125.999996154785,6|8|0,1:2|0:0|1:2,0:0:0:0:
352,117,62881,1,0,0:0:0:0:
267,142,63095,2,0,L|181:138,1,62.9999980773926,8|0,0:0|0:0,0:0:0:0:
129,90,63523,6,0,P|105:126|119:197,1,94.499997116089,2|2,1:2|0:0,0:0:0:0:
126,215,63951,1,6,1:2:0:0:
126,215,64379,2,0,L|115:317,2,83.9999974365235,10|8|8,2:3|2:3|2:3,0:0:0:0:
220,144,65235,6,0,L|227:220,1,62.9999980773926,6|2,1:2|0:0,0:0:0:0:
272,283,65663,2,0,P|303:259|371:255,1,94.499997116089,10|2,0:0|0:0,0:0:0:0:
394,274,66091,1,2,0:0:0:0:
462,217,66305,2,0,L|467:154,1,62.9999980773926,2|8,0:0|0:0,0:0:0:0:
508,75,66733,1,2,0:0:0:0:
446,11,66947,6,0,P|401:-2|360:6,1,62.9999980773926,2|2,0:0|0:0,0:0:0:0:
348,20,67268,1,2,1:2:0:0:
348,20,67375,1,10,0:0:0:0:
402,89,67588,1,10,0:0:0:0:
185,205,68230,1,8,2:3:0:0:
185,205,68658,6,0,P|217:165|208:73,1,140,6|10,1:2|0:0,0:0:0:0:
118,49,69300,2,0,L|123:136,1,70,2|0,0:0|1:2,0:0:0:0:
57,192,69728,1,2,0:0:0:0:
112,272,69942,2,0,P|148:302|181:304,1,70,10|0,0:0|0:0,0:0:0:0:
258,263,70370,6,0,L|336:258,1,70,2|0,1:2|0:0,0:0:0:0:
388,336,70798,2,0,P|417:301|395:194,1,140,10|0,0:0|1:2,0:0:0:0:
328,155,71440,1,0,0:0:0:0:
392,81,71654,1,8,0:0:0:0:
392,81,72082,6,0,L|234:67,1,140,2|10,1:2|0:0,0:0:0:0:
167,117,72724,2,0,P|147:156|154:195,1,70,2|0,0:0|1:2,0:0:0:0:
216,252,73152,1,0,0:0:0:0:
146,321,73366,2,0,L|58:314,1,70,10|0,0:0|0:0,0:0:0:0:
12,240,73794,6,0,P|41:192|40:155,1,70,2|0,1:2|1:2,0:0:0:0:
15,84,74222,2,0,B|53:47|53:47|145:43,1,140,10|0,0:0|1:2,0:0:0:0:
219,100,74864,1,0,0:0:0:0:
306,54,75078,1,8,0:0:0:0:
306,54,75292,1,0,0:0:0:0:
382,114,75506,6,0,P|422:153|413:258,1,140,6|10,1:2|0:0,0:0:0:0:
351,296,76148,2,0,L|260:288,1,70,2|0,0:0|1:2,0:0:0:0:
215,216,76576,1,2,0:0:0:0:
124,247,76790,1,10,0:0:0:0:
124,247,77004,1,2,0:0:0:0:
111,344,77218,6,0,L|202:336,1,70,2|0,1:2|0:0,0:0:0:0:
277,317,77646,2,0,L|346:323,1,70,10|0,0:0|0:0,0:0:0:0:
435,364,78074,1,0,1:2:0:0:
421,266,78287,1,10,2:3:0:0:
500,208,78501,1,10,0:0:0:0:
467,115,78715,1,10,2:3:0:0:
369,119,78929,6,0,P|316:135|278:124,1,70,6|0,1:2|0:0,0:0:0:0:
239,57,79357,2,0,P|186:41|148:52,1,70,14|0,1:2|0:0,0:0:0:0:
76,63,79785,1,6,1:2:0:0:
80,160,79999,1,6,1:2:0:0:
80,160,80427,6,0,P|133:195|141:274,1,140,6|8,1:2|0:0,0:0:0:0:
143,266,80962,1,8,0:0:0:0:
143,266,81069,1,8,0:0:0:0:
88,347,81283,1,8,2:3:0:0:
187,374,81497,1,8,0:0:0:0:
187,374,81711,1,2,1:2:0:0:
250,299,81925,1,10,0:0:0:0:
334,348,82139,1,10,2:3:0:0:
334,348,82246,1,8,2:3:0:0:
334,348,82353,6,0,L|432:342,1,70,6|0,1:2|0:0,0:0:0:0:
472,273,82781,2,0,P|460:226|433:197,1,70,14|0,1:2|0:0,0:0:0:0:
366,153,83209,1,6,1:2:0:0:
281,202,83423,1,6,1:2:0:0:
281,202,83851,6,0,B|246:172|246:172|144:187,1,140,6|8,1:2|2:3,0:0:0:0:
153,185,84386,1,8,2:3:0:0:
153,185,84493,1,10,0:0:0:0:
80,251,84707,1,8,0:0:0:0:
80,251,84814,1,8,0:0:0:0:
80,251,84921,1,8,0:0:0:0:
4,189,85135,1,2,1:2:0:0:
42,101,85349,1,10,2:3:0:0:
42,101,85563,1,10,2:3:0:0:
139,98,85777,6,0,L|228:89,1,70,14|8,0:0|2:3,0:0:0:0:
292,39,86205,1,8,0:0:0:0:
365,103,86419,1,8,2:3:0:0:
365,103,86847,1,10,3:2:0:0:
324,192,87061,1,10,3:2:0:0:
393,261,87275,1,14,3:2:0:0:
139,364,87917,5,2,0:0:0:0:
256,192,88024,12,8,90313,3:2:0:0:
