osu file format v14

[General]
AudioFilename: audio.mp3
AudioLeadIn: 0
PreviewTime: 3191
Countdown: 0
SampleSet: Soft
StackLeniency: 0.7
Mode: 0
LetterboxInBreaks: 0
WidescreenStoryboard: 0

[Editor]
DistanceSpacing: 1.3
BeatDivisor: 4
GridSize: 32
TimelineZoom: 1

[Metadata]
Title:Creer en mi
TitleUnicode:Creer en mí
Artist:Nicolas Silva y Ricardo Silva
ArtistUnicode:Nicolás Silva y Ricardo Silva
Creator:-Sh1n1-
Version:Normal
Source:Pokémon: La Búsqueda del Maestro
Tags:Believe in Me Pocket Monster ポケットモンスター Pokemon Master Quest busqueda Pikachu ピカチュウ Ash Ketchum Satoshi サトシ Brock Takeshi タケシ Misty Kasumi カスミ shini
BeatmapID:1303668
BeatmapSetID:618446

[Difficulty]
HPDrainRate:4
CircleSize:3
OverallDifficulty:4
ApproachRate:5
SliderMultiplier:1.3
SliderTickRate:1

[Events]
//Background and Video events
Video,1140,"video.AVI"
0,0,"PokeBG.jpg",0,0
//Break Periods
//Storyboard Layer 0 (Background)
//Storyboard Layer 1 (Fail)
//Storyboard Layer 2 (Pass)
//Storyboard Layer 3 (Foreground)
//Storyboard Sound Samples

[TimingPoints]
2993,397.350993377483,4,2,1,60,1,0
20873,-100,4,2,1,65,0,0
21072,-100,4,2,1,70,0,0
21271,-100,4,2,1,20,0,0
22065,-100,4,2,1,60,0,0
32595,-100,4,2,1,50,0,0
33191,-100,4,2,1,70,0,1
45112,-100,4,2,1,50,0,1
45906,-100,4,2,1,70,0,1
46105,-100,4,2,1,50,0,1
46304,-100,4,2,1,40,0,1
46502,-100,4,2,1,30,0,0

[Colours]
Combo1 : 173,209,186
Combo2 : 175,230,136
Combo3 : 255,255,168
Combo4 : 255,128,128

[HitObjects]
149,94,2992,6,0,B|195:104|195:104|278:93,1,130,4|8,0:0|0:0,0:0:0:0:
444,65,3787,2,0,P|437:137|443:207,1,130,2|8,0:0|0:0,0:0:0:0:
462,276,4383,1,0,0:0:0:0:
425,352,4582,2,0,P|365:342|290:353,1,130,4|8,0:3|0:0,0:0:0:0:
153,260,5377,2,0,P|118:257|79:261,2,65,2|4|8,0:0|0:3|0:0,0:0:0:0:
234,282,5973,1,2,0:0:0:0:
310,246,6171,6,0,P|332:181|310:125,1,130,4|8,0:3|0:0,0:0:0:0:
177,22,6966,2,0,P|155:82|177:141,1,130,2|8,0:0|0:0,0:0:0:0:
205,308,7761,2,0,B|158:317|158:317|60:307,1,130,4|8,0:3|0:0,0:0:0:0:
28,146,8555,2,0,L|20:81,1,65,4|0,0:3|0:0,0:0:0:0:
105,82,8953,2,0,L|112:17,1,65,8|0,0:0|0:0,0:0:0:0:
195,31,9350,6,0,B|240:37|240:37|330:31,1,130,6|8,0:0|0:0,0:0:0:0:
450,145,10145,2,0,P|471:210|446:270,1,130,2|8,0:0|0:0,0:0:0:0:
379,312,10741,1,0,0:0:0:0:
296,296,10940,2,0,B|245:291|245:291|156:298,1,130,4|8,0:3|0:0,0:0:0:0:
41,183,11734,2,0,L|31:116,2,65,2|4|8,0:0|0:3|0:0,0:0:0:0:
114,225,12330,1,2,0:0:0:0:
196,206,12529,6,0,L|342:197,1,130,4|8,0:3|0:0,0:0:0:0:
494,190,13324,2,0,P|501:261|499:345,1,130,2|8,0:0|0:0,0:0:0:0:
332,327,14118,2,0,P|325:262|325:197,1,130,4|8,0:3|0:0,0:0:0:0:
338,28,14913,2,0,L|258:42,1,65,8|0,0:0|0:0,0:0:0:0:
205,89,15310,2,0,L|125:75,1,65,4|4,0:3|0:3,0:0:0:0:
57,62,15708,6,0,P|48:126|58:201,1,130,4|8,0:0|0:0,0:0:0:0:
78,271,16304,1,0,0:0:0:0:
135,332,16502,2,0,L|273:317,1,130,2|8,0:0|0:0,0:0:0:0:
432,340,17297,2,0,B|439:297|439:297|433:210,1,130,4|8,0:3|0:0,0:0:0:0:
406,43,18092,2,0,L|276:57,1,130,2|8,0:0|0:0,0:0:0:0:
192,67,18688,1,0,0:0:0:0:
108,77,18887,6,0,P|93:145|106:211,1,130,4|8,0:3|0:0,0:0:0:0:
257,273,19681,2,0,P|271:210|261:146,1,130,2|8,0:0|0:0,0:0:0:0:
103,203,20476,2,0,L|31:194,1,65,8|4,0:0|0:3,0:0:0:0:
29,279,20873,1,8,0:0:0:0:
29,279,21072,2,0,L|93:287,1,65,8|8,0:0|0:0,0:0:0:0:
359,349,22065,6,0,B|367:303|367:303|358:204,1,130,4|8,0:0|0:0,0:0:0:0:
222,120,22860,2,0,B|214:166|214:166|223:265,1,130,2|8,0:0|0:0,0:0:0:0:
228,333,23456,1,0,0:0:0:0:
146,356,23655,2,0,P|83:368|16:339,1,130,4|8,0:3|0:0,0:0:0:0:
97,192,24450,2,0,L|90:109,1,65,2|0,0:0|0:0,0:0:0:0:
14,94,24847,2,0,L|21:11,1,65,8|0,0:0|0:0,0:0:0:0:
103,40,25244,6,0,P|167:43|231:31,1,130,4|8,0:3|0:0,0:0:0:0:
400,16,26039,2,0,B|411:107|411:107|402:161,1,130,2|8,0:0|0:0,0:0:0:0:
368,310,26834,2,0,P|302:297|240:311,1,130,4|8,0:3|0:0,0:0:0:0:
79,356,27628,2,0,P|47:361|14:356,2,65,2|0|8,0:0|0:0|0:0,0:0:0:0:
158,326,28224,1,0,0:0:0:0:
184,245,28423,6,0,L|164:107,1,130,4|8,0:0|0:0,0:0:0:0:
326,63,29218,2,0,L|307:191,1,130,2|8,0:0|0:0,0:0:0:0:
295,275,29814,2,0,B|346:269|346:269|430:279,1,130,4|0,0:0|0:0,0:0:0:0:
507,291,30410,1,8,0:0:0:0:
482,124,30807,2,0,L|496:35,2,65,2|0|8,0:0|0:0|0:0,0:0:0:0:
413,173,31403,6,0,L|280:157,1,130,4|0,0:0|0:0,0:0:0:0:
200,144,31999,1,8,0:0:0:0:
32,118,32397,2,0,L|17:181,1,65,2|4,0:0|0:3,0:0:0:0:
18,266,32794,2,0,L|32:329,1,65,4|4,0:3|0:3,0:0:0:0:
104,374,33191,6,0,L|235:365,1,130,4|8,0:0|0:0,0:0:0:0:
336,230,33986,2,0,L|205:221,1,130,2|8,0:0|0:0,0:0:0:0:
124,242,34582,1,0,0:0:0:0:
47,205,34781,2,0,P|28:145|53:74,1,130,4|8,0:3|0:0,0:0:0:0:
215,80,35576,2,0,L|231:14,2,65,2|0|8,0:0|0:1|0:0,0:0:0:0:
220,164,36171,6,0,P|267:221|330:222,1,130,4|2,0:3|0:0,0:0:0:0:
403,213,36767,1,8,0:0:0:0:
469,57,37165,2,0,P|405:45|341:57,1,130,2|8,0:0|0:0,0:0:0:0:
173,57,37959,2,0,P|109:44|45:56,1,130,4|8,0:3|0:0,0:0:0:0:
20,224,38754,2,0,P|16:267|31:298,1,65,4|2,0:3|0:0,0:0:0:0:
83,347,39152,2,0,L|160:339,1,65,8|8,0:0|0:0,0:0:0:0:
231,348,39549,6,0,P|291:363|356:348,1,130,4|8,0:0|0:0,0:0:0:0:
440,201,40344,2,0,B|448:116|448:116|438:63,1,130,2|8,0:0|0:0,0:0:0:0:
375,17,40940,1,0,0:0:0:0:
295,46,41139,2,0,L|161:37,1,130,4|8,0:3|0:0,0:0:0:0:
123,200,41933,2,0,L|58:195,2,65,2|0|8,0:0|0:0|0:0,0:0:0:0:
207,204,42529,1,0,0:0:0:0:
281,245,42728,6,0,P|294:314|280:382,1,130,4|8,0:0|0:0,0:0:0:0:
445,323,43522,2,0,P|434:259|447:196,1,130,2|8,0:0|0:0,0:0:0:0:
501,35,44317,2,0,L|361:53,1,130,2|8,0:0|0:0,0:0:0:0:
204,72,45112,2,0,P|197:103|204:134,1,65,4|4,0:3|0:3,0:0:0:0:
262,196,45509,2,0,P|269:227|262:258,1,65,4|4,0:3|0:3,0:0:0:0:
224,334,45906,1,8,0:0:0:0:
141,316,46105,6,0,B|109:313|109:313|76:316,2,65,4|4|4,0:0|0:0|0:0,0:0:0:0:
