osu file format v14

[General]
AudioFilename: audio.mp3
AudioLeadIn: 0
PreviewTime: 3191
Countdown: 0
SampleSet: Soft
StackLeniency: 0.7
Mode: 0
LetterboxInBreaks: 0
WidescreenStoryboard: 0

[Editor]
DistanceSpacing: 1.3
BeatDivisor: 4
GridSize: 32
TimelineZoom: 1.8

[Metadata]
Title:Creer en mi
TitleUnicode:Creer en mí
Artist:Nicolas Silva y Ricardo Silva
ArtistUnicode:Nicolás Silva y Ricardo Silva
Creator:-Sh1n1-
Version:Insane
Source:Pokémon: La Búsqueda del Maestro
Tags:Believe in Me Pocket Monster ポケットモンスター Pokemon Master Quest busqueda Pikachu ピカチュウ Ash Ketchum Satoshi サトシ Brock Takeshi タケシ Misty Kasumi カスミ shini
BeatmapID:1303667
BeatmapSetID:618446

[Difficulty]
HPDrainRate:6
CircleSize:4
OverallDifficulty:8
ApproachRate:9
SliderMultiplier:1.5
SliderTickRate:1

[Events]
//Background and Video events
Video,1140,"video.AVI"
0,0,"PokeBG.jpg",0,0
//Break Periods
//Storyboard Layer 0 (Background)
//Storyboard Layer 1 (Fail)
//Storyboard Layer 2 (Pass)
//Storyboard Layer 3 (Foreground)
//Storyboard Sound Samples

[TimingPoints]
2993,397.350993377483,4,2,1,60,1,0
20873,-100,4,2,1,65,0,0
21072,-100,4,2,1,70,0,0
21271,-100,4,2,1,20,0,0
22065,-100,4,2,1,60,0,0
32595,-100,4,2,1,50,0,0
33191,-100,4,2,1,70,0,1
45112,-100,4,2,1,50,0,1
45906,-100,4,2,1,70,0,1
46105,-100,4,2,1,50,0,1
46304,-100,4,2,1,40,0,1
46502,-100,4,2,1,30,0,0

[Colours]
Combo1 : 173,209,186
Combo2 : 175,230,136
Combo3 : 255,255,168
Combo4 : 255,128,128

[HitObjects]
43,75,2992,6,0,B|124:50|110:102|189:74,1,150,4|8,0:0|0:0,0:0:0:0:
278,32,3589,1,0,0:0:0:0:
362,80,3787,2,0,L|365:154,1,75,2|0,0:0|0:0,0:0:0:0:
372,252,4185,2,0,P|409:247|446:248,1,75,8|0,0:0|0:0,0:0:0:0:
284,207,4582,6,0,P|209:202|134:206,1,150,4|8,0:3|0:0,0:0:0:0:
38,216,5179,1,0,0:0:0:0:
150,296,5377,1,2,0:0:0:0:
130,112,5576,1,4,0:3:0:0:
16,221,5774,1,8,0:0:0:0:
132,89,5973,1,2,0:0:0:0:
162,314,6171,6,0,P|236:318|311:314,1,150,4|8,0:3|0:0,0:0:0:0:
429,301,6768,1,0,0:0:0:0:
367,149,6967,2,0,P|362:186|366:223,1,75,2|0,0:0|0:0,0:0:0:0:
401,59,7363,2,0,L|316:52,1,75,8|0,0:0|0:0,0:0:0:0:
193,138,7761,6,0,L|268:132,1,75,4|0,0:3|0:0,0:0:0:0:
222,34,8159,1,8,0:0:0:0:
222,34,8357,1,0,0:0:0:0:
164,242,8555,2,0,L|238:235,1,75,4|0,0:3|0:0,0:0:0:0:
396,205,8953,1,8,0:0:0:0:
193,138,9152,1,0,0:0:0:0:
315,271,9350,6,0,P|309:196|309:121,1,150,6|8,0:0|0:0,0:0:0:0:
328,25,9947,1,0,0:0:0:0:
470,89,10145,2,0,L|395:92,1,75,2|0,0:0|0:0,0:0:0:0:
311,222,10542,2,0,L|385:225,1,75,8|0,0:0|0:0,0:0:0:0:
244,148,10940,6,0,P|213:214|237:283,1,150,4|8,0:3|0:0,0:0:0:0:
318,339,11536,1,0,0:0:0:0:
144,283,11735,1,2,0:0:0:0:
311,222,11934,1,4,0:3:0:0:
133,303,12132,1,8,0:0:0:0:
262,135,12331,1,2,0:0:0:0:
326,359,12530,6,0,B|434:374|434:374|473:362,1,150,4|8,0:3|0:0,0:0:0:0:
426,277,13126,1,0,0:0:0:0:
326,359,13324,1,2,0:0:0:0:
338,172,13523,1,0,0:0:0:0:
231,329,13721,2,0,P|236:292|228:256,1,75,8|0,0:0|0:0,0:0:0:0:
154,75,14119,6,0,P|145:113|153:155,1,75,4|0,0:3|0:0,0:0:0:0:
226,210,14516,1,8,0:0:0:0:
226,210,14715,1,0,0:0:0:0:
320,114,14913,2,0,L|245:114,1,75,8|0,0:0|0:0,0:0:0:0:
383,188,15311,1,4,0:3:0:0:
411,94,15510,1,4,0:3:0:0:
308,250,15708,6,0,B|266:313|308:372|308:372|320:339,1,150,4|8,0:0|0:0,0:0:0:0:
405,319,16304,1,0,0:0:0:0:
212,351,16502,2,0,L|121:365,1,75,2|0,0:0|0:0,0:0:0:0:
92,214,16900,2,0,L|166:225,1,75,8|0,0:0|0:0,0:0:0:0:
314,202,17297,6,0,P|324:168|319:121,1,75,4|0,0:3|0:0,0:0:0:0:
167,67,17694,2,0,P|157:103|160:141,1,75,8|0,0:0|0:0,0:0:0:0:
182,295,18092,2,0,P|214:315|251:320,1,75,2|0,0:0|0:0,0:0:0:0:
84,301,18489,2,0,P|93:338|116:368,1,75,8|0,0:0|0:0,0:0:0:0:
123,211,18887,6,0,B|4:199|4:199|22:222,1,150,4|8,0:3|0:0,0:0:0:0:
84,301,19483,1,0,0:0:0:0:
220,215,19682,2,0,L|231:140,1,75,2|0,0:0|0:0,0:0:0:0:
113,47,20079,2,0,L|124:121,1,75,8|4,0:0|0:3,0:0:0:0:
152,254,20477,5,8,0:0:0:0:
39,170,20675,1,4,0:3:0:0:
156,275,20874,1,8,0:0:0:0:
248,135,21072,2,0,P|266:102|274:66,1,75,8|0,0:0|0:0,0:0:0:0:
274,66,22066,6,0,P|290:139|272:211,1,150,4|8,0:0|0:0,0:0:0:0:
211,288,22662,1,0,0:0:0:0:
86,198,22861,2,0,L|161:205,1,75,2|0,0:0|0:0,0:0:0:0:
304,294,23257,2,0,L|229:302,1,75,8|0,0:0|0:0,0:0:0:0:
386,347,23655,6,0,P|400:311|400:273,1,75,4|0,0:3|0:0,0:0:0:0:
330,99,24052,1,8,0:0:0:0:
304,294,24251,1,0,0:0:0:0:
387,178,24449,2,0,B|461:183,1,75,2|0,0:0|0:0,0:0:0:0:
307,99,24847,2,0,B|232:104,1,75,8|0,0:0|0:0,0:0:0:0:
41,189,25244,6,0,P|107:158|176:184,1,150,4|8,0:3|0:0,0:0:0:0:
221,270,25841,1,0,0:0:0:0:
399,203,26039,2,0,L|473:203,1,75,2|0,0:0|0:0,0:0:0:0:
318,267,26436,2,0,P|306:231|302:194,1,75,8|0,0:0|0:0,0:0:0:0:
211,20,26834,6,0,P|206:57|195:92,1,75,4|0,0:3|0:0,0:0:0:0:
39,32,27231,2,0,L|113:29,1,75,8|0,0:0|0:0,0:0:0:0:
211,20,27628,1,2,0:0:0:0:
344,104,27827,1,0,0:0:0:0:
183,114,28026,1,8,0:0:0:0:
309,15,28224,1,0,0:0:0:0:
419,164,28424,6,0,P|439:246|398:298,1,150,4|8,0:0|0:0,0:0:0:0:
307,311,29020,1,0,0:0:0:0:
155,255,29218,2,0,L|230:252,1,75,2|0,0:0|0:0,0:0:0:0:
199,345,29615,1,8,0:0:0:0:
105,164,29814,6,0,L|255:158,1,150,4|0,0:0|0:0,0:0:0:0:
352,154,30410,1,8,0:0:0:0:
330,312,30609,2,0,P|314:277|305:241,1,75,0|2,0:0|0:0,0:0:0:0:
352,154,31006,1,0,0:0:0:0:
410,240,31204,1,8,0:0:0:0:
254,373,31404,6,0,P|223:304|212:230,1,150,4|0,0:0|0:0,0:0:0:0:
155,87,32000,2,0,L|142:161,1,75,8|0,0:0|0:0,0:0:0:0:
121,256,32397,1,2,0:0:0:0:
237,141,32595,5,4,0:3:0:0:
266,129,32694,1,4,0:3:0:0:
297,126,32793,1,4,0:3:0:0:
326,136,32893,1,4,0:3:0:0:
355,147,32992,1,4,0:3:0:0:
386,148,33091,1,4,0:3:0:0:
415,138,33191,6,0,P|465:101|473:12,1,150,4|8,0:0|0:0,0:0:0:0:
381,45,33787,1,0,0:0:0:0:
428,234,33986,2,0,L|502:232,1,75,2|0,0:0|0:0,0:0:0:0:
387,328,34383,2,0,L|461:329,1,75,8|0,0:0|0:0,0:0:0:0:
339,246,34781,5,4,0:3:0:0:
256,384,34979,1,0,0:0:0:0:
133,288,35179,2,0,L|207:289,1,75,8|0,0:0|0:0,0:0:0:0:
339,246,35575,2,0,P|351:206|351:166,1,75,2|0,0:0|0:1,0:0:0:0:
341,75,35972,1,8,0:0:0:0:
206,141,36171,2,0,B|157:155|157:155|59:140,1,150,4|2,0:3|0:0,0:0:0:0:
152,58,36768,5,8,0:0:0:0:
49,237,36967,1,0,0:0:0:0:
206,141,37165,2,0,P|200:183|201:224,1,75,2|0,0:0|0:0,0:0:0:0:
252,357,37562,2,0,L|327:346,1,75,8|0,0:0|0:0,0:0:0:0:
488,329,37960,5,4,0:3:0:0:
289,263,38158,1,2,0:0:0:0:
490,231,38357,1,8,0:0:0:0:
327,346,38556,1,0,0:0:0:0:
375,150,38754,5,4,0:3:0:0:
158,132,38953,1,2,0:0:0:0:
361,52,39151,1,8,0:0:0:0:
208,208,39350,1,8,0:0:0:0:
444,219,39549,6,0,P|470:142|441:78,1,150,4|8,0:0|0:0,0:0:0:0:
361,52,40145,1,0,0:0:0:0:
262,190,40343,2,0,P|226:195|189:191,1,75,2|0,0:0|0:0,0:0:0:0:
223,99,40741,1,8,0:0:0:0:
342,143,40940,2,0,P|352:178|349:215,1,75,0|4,0:0|0:3,0:0:0:0:
260,374,41337,1,0,0:0:0:0:
333,312,41536,5,8,0:0:0:0:
163,285,41735,2,0,L|238:287,1,75,0|2,0:0|0:0,0:0:0:0:
423,330,42132,2,0,L|349:332,1,75,0|8,0:0|0:0,0:0:0:0:
256,299,42530,1,0,0:0:0:0:
332,99,42728,6,0,P|357:168|331:238,1,150,4|8,0:0|0:0,0:0:0:0:
263,169,43324,1,0,0:0:0:0:
354,91,43523,2,0,P|390:82|427:81,1,75,2|2,0:0|0:0,0:0:0:0:
240,171,43920,2,0,P|202:171|166:162,1,75,8|0,0:0|0:0,0:0:0:0:
78,120,44317,5,2,0:0:0:0:
217,79,44516,1,2,0:0:0:0:
144,258,44714,1,8,0:0:0:0:
220,55,44913,1,0,0:0:0:0:
289,256,45112,5,4,0:3:0:0:
311,274,45211,1,4,0:3:0:0:
336,287,45310,1,4,0:3:0:0:
363,295,45410,1,4,0:3:0:0:
391,297,45509,1,4,0:3:0:0:
419,294,45608,1,4,0:3:0:0:
445,286,45708,1,4,0:3:0:0:
470,272,45807,1,4,0:3:0:0:
491,254,45906,1,8,0:0:0:0:
498,351,46106,5,4,0:0:0:0:
389,181,46304,1,4,0:0:0:0:
281,351,46502,1,4,0:0:0:0:
