osu file format v14

[General]
AudioFilename: audio.mp3
AudioLeadIn: 0
PreviewTime: 3191
Countdown: 0
SampleSet: Soft
StackLeniency: 0.7
Mode: 0
LetterboxInBreaks: 0
WidescreenStoryboard: 0

[Editor]
DistanceSpacing: 1.2
BeatDivisor: 2
GridSize: 32
TimelineZoom: 0.9

[Metadata]
Title:Creer en mi
TitleUnicode:Creer en mí
Artist:Nicolas Silva y Ricardo Silva
ArtistUnicode:Nicolás Silva y Ricardo Silva
Creator:-Sh1n1-
Version:Easy
Source:Pokémon: La Búsqueda del Maestro
Tags:Believe in Me Pocket Monster ポケットモンスター Pokemon Master Quest busqueda Pikachu ピカチュウ Ash Ketchum Satoshi サトシ Brock Takeshi タケシ Misty Kasumi カスミ shini
BeatmapID:1303665
BeatmapSetID:618446

[Difficulty]
HPDrainRate:3
CircleSize:2
OverallDifficulty:2
ApproachRate:3
SliderMultiplier:0.9
SliderTickRate:1

[Events]
//Background and Video events
Video,1140,"video.AVI"
0,0,"PokeBG.jpg",0,0
//Break Periods
//Storyboard Layer 0 (Background)
//Storyboard Layer 1 (Fail)
//Storyboard Layer 2 (Pass)
//Storyboard Layer 3 (Foreground)
//Storyboard Sound Samples

[TimingPoints]
2993,397.350993377483,4,2,1,60,1,0
20873,-100,4,2,1,65,0,0
21072,-100,4,2,1,70,0,0
21271,-100,4,2,1,20,0,0
22065,-100,4,2,1,60,0,0
32595,-100,4,2,1,50,0,0
33191,-100,4,2,1,70,0,1
45112,-100,4,2,1,50,0,1
45906,-100,4,2,1,70,0,1
46105,-100,4,2,1,50,0,1
46304,-100,4,2,1,40,0,1
46502,-100,4,2,1,30,0,0

[Colours]
Combo1 : 173,209,186
Combo2 : 175,230,136
Combo3 : 255,255,168
Combo4 : 255,128,128

[HitObjects]
59,318,2992,6,0,B|114:307|114:307|242:320,1,180,4|2,0:0|0:0,0:0:0:0:
345,329,4185,1,8,0:0:0:0:
353,221,4582,2,0,L|363:127,1,90,4|8,0:3|0:0,0:0:0:0:
469,110,5377,2,0,L|480:11,1,90,2|8,0:0|0:0,0:0:0:0:
371,29,6171,6,0,B|322:48|281:29|281:29|240:12|194:29,1,180,4|2,0:3|0:0,0:0:0:0:
88,32,7363,1,8,0:0:0:0:
31,124,7761,2,0,L|39:231,2,90,4|8|4,0:3|0:0|0:3,0:0:0:0:
88,32,8953,1,8,0:0:0:0:
196,29,9350,6,0,B|204:162|204:162|196:208,1,180,6|2,0:0|0:0,0:0:0:0:
163,310,10542,1,8,0:0:0:0:
269,289,10940,2,0,B|313:283|313:283|360:290,1,90,4|8,0:3|0:0,0:0:0:0:
464,304,11734,2,0,L|461:213,1,90,2|8,0:0|0:0,0:0:0:0:
449,106,12529,6,0,B|386:113|386:113|268:105,1,180,4|2,0:3|0:0,0:0:0:0:
161,96,13721,1,8,0:0:0:0:
63,143,14118,2,0,P|55:98|62:54,2,90,4|8|8,0:3|0:0|0:0,0:0:0:0:
153,201,15310,1,4,0:3:0:0:
105,298,15708,6,0,B|146:311|146:311|291:296,2,180,4|2|4,0:0|0:0|0:3,0:0:0:0:
153,201,17694,1,8,0:0:0:0:
260,188,18092,2,0,L|366:178,1,90,2|8,0:0|0:0,0:0:0:0:
457,169,18887,6,0,P|484:255|457:337,1,180,4|2,0:3|0:0,0:0:0:0:
348,347,20079,1,8,0:0:0:0:
244,315,20476,2,0,P|192:308|144:317,2,90,8|8|0,0:0|0:0|0:0,0:0:0:0:
403,169,22065,6,0,B|340:180|340:180|221:167,1,180,4|2,0:0|0:0,0:0:0:0:
118,148,23257,1,8,0:0:0:0:
27,207,23655,2,0,B|32:263|32:263|27:303,1,90,4|8,0:3|0:0,0:0:0:0:
114,360,24449,2,0,L|220:353,1,90,2|8,0:0|0:0,0:0:0:0:
311,340,25244,6,0,P|333:246|281:179,1,180,4|2,0:3|0:0,0:0:0:0:
211,106,26436,1,8,0:0:0:0:
315,79,26834,2,0,P|360:82|404:69,1,90,4|8,0:3|0:0,0:0:0:0:
507,43,27628,2,0,L|504:142,1,90,2|8,0:0|0:0,0:0:0:0:
510,240,28423,6,0,B|449:226|449:226|332:239,1,180,4|2,0:0|0:0,0:0:0:0:
212,347,29814,2,0,B|163:361|163:361|68:345,1,135,4|8,0:0|0:0,0:0:0:0:
1,273,30807,1,2,0:0:0:0:
80,132,31403,6,0,B|129:118|129:118|224:134,1,135,4|8,0:0|0:0,0:0:0:0:
316,107,32396,1,2,0:0:0:0:
411,56,32794,1,4,0:3:0:0:
491,128,33191,6,0,P|512:229|493:319,1,180,4|2,0:0|0:0,0:0:0:0:
398,343,34383,1,8,0:0:0:0:
311,277,34781,2,0,L|218:269,1,90,4|8,0:3|0:0,0:0:0:0:
160,358,35575,2,0,L|67:366,1,90,2|8,0:0|0:0,0:0:0:0:
14,273,36370,6,0,L|8:79,1,180,2|2,0:0|0:0,0:0:0:0:
99,35,37562,1,8,0:0:0:0:
203,65,37959,2,0,L|307:53,1,90,4|8,0:3|0:0,0:0:0:0:
401,54,38754,2,0,L|491:64,1,90,4|8,0:3|0:0,0:0:0:0:
454,165,39549,6,0,B|444:226|444:226|458:345,1,180,4|2,0:0|0:0,0:0:0:0:
350,360,40741,1,8,0:0:0:0:
243,343,41138,2,0,B|233:298|233:298|244:255,1,90,4|8,0:3|0:0,0:0:0:0:
317,175,41933,2,0,B|328:132|328:132|318:87,1,90,2|8,0:0|0:0,0:0:0:0:
212,65,42728,6,0,L|115:50,1,90,4|8,0:0|0:0,0:0:0:0:
34,113,43522,2,0,L|44:209,1,90,2|8,0:0|0:0,0:0:0:0:
4,303,44317,2,0,B|94:321|91:274|183:292,2,180,2|4|8,0:0|0:3|0:0,0:0:0:0:
43,202,46304,2,0,L|40:151,1,45,4|4,0:0|0:0,0:0:0:0:
