osu file format v14

[General]
AudioFilename: audio.mp3
AudioLeadIn: 0
PreviewTime: 32039
Countdown: 0
SampleSet: Soft
StackLeniency: 0.7
Mode: 0
LetterboxInBreaks: 0
WidescreenStoryboard: 0

[Editor]
DistanceSpacing: 1.25
BeatDivisor: 4
GridSize: 4
TimelineZoom: 2.2

[Metadata]
Title:Friendship
TitleUnicode:Friendship
Artist:NicolArmarfi
ArtistUnicode:NicolArmarfi
Creator:Ovoui
Version:Krfawy's Challenging
Source:かたわ少女
Tags:Katawa Shoujo Yaleufeu Kyuukai Krfawy
BeatmapID:1396653
BeatmapSetID:642780

[Difficulty]
HPDrainRate:5.5
CircleSize:5.5
OverallDifficulty:7.5
ApproachRate:5.5
SliderMultiplier:1.3
SliderTickRate:2

[Events]
//Background and Video events
0,0,"lilly_bedroom_large.jpg",0,0
//Break Periods
2,51383,54343
//Storyboard Layer 0 (Background)
//Storyboard Layer 1 (Fail)
//Storyboard Layer 2 (Pass)
//Storyboard Layer 3 (Foreground)
//Storyboard Sound Samples

[TimingPoints]
39,666.666666666667,3,2,1,25,1,0
46705,705.882352941176,3,2,1,25,1,0
47762,794.701986754967,3,2,1,25,1,0
48160,821.917808219178,3,2,1,25,1,0
48160,-93.4579439252336,3,2,1,25,0,0
48570,845.070422535211,3,2,1,25,1,0
48994,937.5,3,2,1,25,1,0
49462,1000,3,2,1,25,1,0
49962,1111.11111111111,3,2,1,25,1,0
50517,1333.33333333333,3,2,1,25,1,0
51183,1428.57142857143,3,2,1,25,1,0
55468,-50,3,2,1,25,0,0
55825,-50,3,2,1,5,0,0
59754,-50,3,2,1,25,0,0
60111,-50,3,2,1,5,0,0
64040,-50,3,2,1,25,0,0
64754,-200,3,2,1,5,0,0

[Colours]
Combo1 : 64,0,128
Combo2 : 255,255,121
Combo3 : 0,64,128
Combo4 : 255,174,94

[HitObjects]
192,214,39,6,0,B|222:220|255:202|255:202|288:183|318:190,1,130,4|0,0:0|0:0,0:0:0:0:
377,245,1039,2,0,P|408:252|439:242,2,65,2|0|2,0:0|0:0|0:0,0:0:0:0:
301,269,2039,2,0,P|258:309|298:353,1,130,4|0,0:0|0:0,0:0:0:0:
377,334,3039,2,0,P|398:309|405:278,2,65,2|0|2,0:0|0:0|0:0,0:0:0:0:
297,353,4039,6,0,B|267:359|234:341|234:341|201:322|172:328,1,130,4|0,0:0|0:0,0:0:0:0:
95,357,5039,2,0,P|63:355|36:338,2,65,2|0|2,0:0|0:0|0:0,0:0:0:0:
172,328,6039,2,0,B|184:290|147:253|147:253|113:219,1,130,4|0,0:0|0:0,0:0:0:0:
71,150,7039,2,0,P|78:118|99:94,2,65,2|0|2,0:0|0:0|0:0,0:0:0:0:
114,220,8039,6,0,P|182:252|233:235,1,130,8|0,0:0|0:0,0:0:0:0:
244,152,9039,2,0,B|211:146|181:165,2,65,2|0|2,0:0|0:0|0:0,0:0:0:0:
324,177,10039,2,0,B|321:195|314:209|314:209|321:237|321:237|308:261|308:261|311:281|306:301,1,130,4|0,0:0|0:0,0:0:0:0:
256,364,11039,1,2,0:0:0:0:
177,383,11372,1,0,0:0:0:0:
103,349,11705,1,0,0:0:0:0:
89,268,12039,6,0,B|84:232|94:204|94:204|125:186|128:151,1,130,4|0,0:0|0:0,0:0:0:0:
116,70,13039,2,0,P|175:94|234:71,1,130,2|0,0:0|0:0,0:0:0:0:
276,141,14039,2,0,P|225:179|216:242,1,130,2|0,0:0|0:0,0:0:0:0:
235,321,15039,1,2,0:0:0:0:
314,340,15372,1,2,0:0:0:0:
393,359,15705,1,0,0:0:0:0:
474,359,16039,6,0,B|490:319|490:319|479:233,1,130,4|0,0:0|0:0,0:0:0:0:
474,151,17039,2,0,P|533:67|548:63,2,65,2|0|2,0:0|0:0|0:0,0:0:0:0:
480,233,18039,2,0,B|503:283|464:322|464:322|409:327|385:276,1,195,4|2,0:0|0:0,0:0:0:0:
276,59,20039,6,0,B|252:27|200:36|200:36|153:45,1,130,8|0,0:0|0:0,0:0:0:0:
83,73,21039,1,2,0:0:0:0:
86,151,21373,1,0,0:0:0:0:
162,171,21706,1,2,0:0:0:0:
242,183,22039,2,0,P|274:186|305:178,2,65,4|0|0,0:0|0:0|0:0,0:0:0:0:
162,171,23039,1,2,0:0:0:0:
162,171,24039,6,0,P|224:184|224:256,1,130,4|0,0:0|0:0,0:0:0:0:
190,311,25039,1,2,0:0:0:0:
111,329,25372,1,2,0:0:0:0:
31,346,25705,1,0,0:0:0:0:
21,265,26039,2,0,P|45:206|22:147,1,130,2|0,0:0|0:0,0:0:0:0:
2,68,27039,1,2,0:0:0:0:
53,5,27372,1,0,0:0:0:0:
134,1,27705,1,2,0:0:0:0:
199,49,28039,6,0,P|258:73|317:50,1,130,8|0,0:0|0:0,0:0:0:0:
391,19,29039,2,0,P|423:13|452:27,1,65,2|2,0:0|0:0,0:0:0:0:
496,95,29705,1,0,0:0:0:0:
461,168,30039,2,0,B|445:176|445:176|333:162,1,130,2|0,0:0|0:0,0:0:0:0:
254,139,31039,2,0,P|236:113|223:83,2,65,2|2|2,0:0|0:0|0:0,0:0:0:0:
276,219,32039,6,0,B|276:275|224:293|224:293|172:275|172:219,1,195,4|2,0:0|0:0,0:0:0:0:
187,139,33372,1,2,0:0:0:0:
256,96,33705,1,2,0:0:0:0:
299,27,34039,2,0,B|260:8|260:8|238:8,1,65,4|0,0:0|0:0,0:0:0:0:
157,16,34705,1,0,0:0:0:0:
85,55,35039,2,0,B|72:67|72:67|51:178,1,130,2|2,0:0|0:0,0:0:0:0:
36,257,36039,6,0,B|25:306|25:306|66:308|89:346,1,130,8|2,0:0|0:0,0:0:0:0:
166,375,37039,2,0,P|193:359|214:334,1,65,2|2,0:0|0:0,0:0:0:0:
256,264,37705,1,2,0:0:0:0:
296,193,38039,2,0,B|310:147|310:147|325:97|297:69,1,130,4|0,0:0|0:0,0:0:0:0:
222,45,39039,1,2,0:0:0:0:
177,109,39372,1,0,0:0:0:0:
222,172,39705,1,2,0:0:0:0:
246,247,40039,6,0,P|251:279|250:311,2,65,4|2|2,0:0|0:0|0:0,0:0:0:0:
222,172,41039,1,8,0:0:0:0:
177,109,41372,1,2,0:0:0:0:
117,60,41705,1,0,0:0:0:0:
49,14,42039,2,0,P|38:47|38:79,1,65,4|0,0:0|0:0,0:0:0:0:
55,156,42705,1,2,0:0:0:0:
37,235,43039,1,8,0:0:0:0:
55,314,43372,1,2,0:0:0:0:
134,332,43705,1,0,0:0:0:0:
213,314,44039,6,0,B|226:294|223:261|223:261|216:224|233:205|263:198|290:212|301:235|286:269|286:269|275:300|283:322,1,260,4|2,0:0|0:0,0:0:0:0:
340,381,45705,1,0,0:0:0:0:
421,377,46039,2,0,P|459:321|444:264,1,130,4|0,0:0|0:0,0:0:0:0:
399,196,47057,2,0,P|407:162|400:128,2,65,2|0|2,0:0|0:0|0:0,0:0:0:0:
362,269,48160,6,0,P|328:277|295:268,1,69.5,4|0,0:0|0:0,0:0:0:0:
241,218,48994,5,0,0:0:0:0:
215,146,49462,5,4,0:0:0:0:
223,73,49962,5,0,0:0:0:0:
256,14,50517,6,0,P|282:8|319:13,1,65,0|4,0:0|0:0,0:0:0:0:
443,231,55468,6,0,B|407:247|375:227|375:227|331:271|180:271|104:172|160:108|256:-27|351:108|407:172|331:271|180:271|136:227|136:227|104:247|68:231,2,780,8|4|8,0:0|0:0|0:0,0:0:0:0:
256,192,64754,12,4,68325,0:0:0:0:
