osu file format v14

[General]
AudioFilename: audio.mp3
AudioLeadIn: 0
PreviewTime: 55371
Countdown: 0
SampleSet: Normal
StackLeniency: 0.7
Mode: 3
LetterboxInBreaks: 0
SpecialStyle: 1
WidescreenStoryboard: 0

[Editor]
DistanceSpacing: 0.8
BeatDivisor: 4
GridSize: 4
TimelineZoom: 1

[Metadata]
Title:Raindrops and Puddles
TitleUnicode:Raindrops and Puddles
Artist:NicolArmarfi
ArtistUnicode:NicolArmarfi
Creator:developedby
Version:Easy
Source:Katawa Shoujo
Tags:four leaf studios visual novel hanako
BeatmapID:1166567
BeatmapSetID:550647

[Difficulty]
HPDrainRate:9
CircleSize:4
OverallDifficulty:8
ApproachRate:5
SliderMultiplier:1.4
SliderTickRate:1

[Events]
//Background and Video events
0,0,"sd_wp_2560x1600.jpg",0,0
//Break Periods
//Storyboard Layer 0 (Background)
//Storyboard Layer 1 (Fail)
//Storyboard Layer 2 (Pass)
//Storyboard Layer 3 (Foreground)
//Storyboard Sound Samples

[TimingPoints]
-12.3589911969264,769.230769230769,4,1,0,100,1,0
12295,769.230769230769,4,1,0,100,1,0
36910,769.230769230769,4,1,0,100,1,0
55371,769.230769230769,4,1,0,100,1,0
79986,769.230769230769,4,1,0,100,1,0
121526,769.230769230769,4,1,0,100,1,0

[HitObjects]
320,192,372,5,0,2:2:0:0:
448,192,756,1,0,2:2:0:0:
320,192,756,1,0,2:2:0:0:
192,192,1141,1,0,2:2:0:0:
320,192,1526,1,0,2:2:0:0:
192,192,1910,1,0,2:2:0:0:
320,192,2295,1,0,2:2:0:0:
448,192,2679,1,0,2:2:0:0:
64,192,3064,128,0,4987:2:2:0:0:
192,192,3064,128,0,4987:2:2:0:0:
320,192,4987,1,0,2:2:0:0:
192,192,5372,1,0,2:2:0:0:
320,192,5756,1,0,2:2:0:0:
64,192,6141,1,0,2:2:0:0:
192,192,6526,1,0,2:2:0:0:
448,192,6910,1,0,2:2:0:0:
320,192,6910,1,0,2:2:0:0:
192,192,7295,1,0,2:2:0:0:
320,192,7679,1,0,2:2:0:0:
448,192,7679,1,0,2:2:0:0:
192,192,8064,1,0,2:2:0:0:
320,192,8449,1,0,2:2:0:0:
192,192,8833,1,0,2:2:0:0:
320,192,9218,128,0,11141:2:2:0:0:
64,192,9218,128,0,11141:2:2:0:0:
448,192,11141,1,0,2:2:0:0:
192,192,11526,1,0,2:2:0:0:
448,192,11910,1,0,2:2:0:0:
64,192,12295,128,0,13064:2:2:0:0:
192,192,13064,128,0,13448:2:2:0:0:
448,192,13448,128,0,13833:2:2:0:0:
320,192,13833,128,0,14218:2:2:0:0:
192,192,14218,128,0,14602:2:2:0:0:
64,192,14602,128,0,14987:2:2:0:0:
192,192,14987,128,0,15371:2:2:0:0:
320,192,15371,128,0,16141:2:2:0:0:
64,192,16141,128,0,18256:2:2:0:0:
192,192,18448,128,0,19218:2:2:0:0:
320,192,19218,128,0,19602:2:2:0:0:
448,192,19602,128,0,19987:2:2:0:0:
320,192,19987,128,0,20371:2:2:0:0:
64,192,20371,128,0,20756:2:2:0:0:
192,192,20756,128,0,21141:2:2:0:0:
320,192,21141,128,0,21525:2:2:0:0:
448,192,21525,128,0,22295:2:2:0:0:
64,192,22295,128,0,23064:2:2:0:0:
320,192,23064,128,0,24410:2:2:0:0:
64,192,24602,128,0,25371:2:2:0:0:
192,192,25371,128,0,25756:2:2:0:0:
448,192,25756,128,0,26141:2:2:0:0:
320,192,26141,128,0,26525:2:2:0:0:
192,192,26525,128,0,26910:2:2:0:0:
64,192,26910,128,0,27294:2:2:0:0:
192,192,27294,128,0,27679:2:2:0:0:
320,192,27679,128,0,28448:2:2:0:0:
64,192,28448,128,0,30564:2:2:0:0:
192,192,30756,128,0,31525:2:2:0:0:
320,192,31525,128,0,31910:2:2:0:0:
448,192,31910,128,0,32294:2:2:0:0:
320,192,32294,128,0,33064:2:2:0:0:
192,192,33064,128,0,33448:2:2:0:0:
64,192,33448,128,0,33833:2:2:0:0:
320,192,33833,128,0,36141:2:2:0:0:
64,192,36910,1,0,2:2:0:0:
192,192,37294,1,0,2:2:0:0:
448,192,37679,1,0,2:2:0:0:
192,192,37679,1,0,2:2:0:0:
64,192,38063,1,0,2:2:0:0:
192,192,38448,1,0,2:2:0:0:
64,192,38833,1,0,2:2:0:0:
192,192,39217,1,0,2:2:0:0:
320,192,39602,1,0,2:2:0:0:
64,192,39986,128,0,41525:2:2:0:0:
192,192,39986,128,0,41525:2:2:0:0:
448,192,41910,1,0,2:2:0:0:
320,192,41910,1,0,2:2:0:0:
192,192,42294,1,0,2:2:0:0:
320,192,42679,1,0,2:2:0:0:
64,192,43063,1,0,2:2:0:0:
192,192,43448,1,0,2:2:0:0:
448,192,43833,1,0,2:2:0:0:
320,192,43833,1,0,2:2:0:0:
192,192,44217,1,0,2:2:0:0:
320,192,44602,1,0,2:2:0:0:
448,192,44602,1,0,2:2:0:0:
192,192,44986,1,0,2:2:0:0:
320,192,45371,1,0,2:2:0:0:
192,192,45756,1,0,2:2:0:0:
320,192,46140,128,0,47871:2:2:0:0:
64,192,46140,128,0,47871:2:2:0:0:
448,192,48063,1,0,2:2:0:0:
320,192,48448,1,0,2:2:0:0:
448,192,48833,1,0,2:2:0:0:
192,192,49217,1,0,2:2:0:0:
64,192,49602,1,0,2:2:0:0:
320,192,49986,1,0,2:2:0:0:
192,192,50371,1,0,2:2:0:0:
64,192,50756,1,0,2:2:0:0:
320,192,50756,1,0,2:2:0:0:
192,192,51140,1,0,2:2:0:0:
320,192,51525,1,0,2:2:0:0:
448,192,51910,1,0,2:2:0:0:
320,192,52294,1,0,2:2:0:0:
64,192,52294,128,0,53448:2:2:0:0:
320,192,53833,128,0,55179:2:2:0:0:
192,192,53833,128,0,55179:2:2:0:0:
448,192,55371,128,0,56140:2:2:0:0:
192,192,56140,128,0,56524:2:2:0:0:
320,192,56524,128,0,56909:2:2:0:0:
192,192,56909,128,0,57294:2:2:0:0:
64,192,57294,128,0,57678:2:2:0:0:
320,192,57678,128,0,58063:2:2:0:0:
448,192,58063,128,0,58447:2:2:0:0:
192,192,58447,128,0,59217:2:2:0:0:
64,192,59217,128,0,61332:2:2:0:0:
320,192,59217,1,0,2:2:0:0:
320,192,59986,1,0,2:2:0:0:
320,192,60755,1,0,2:2:0:0:
192,192,61524,128,0,62294:2:2:0:0:
320,192,62294,128,0,62678:2:2:0:0:
448,192,62678,128,0,63063:2:2:0:0:
320,192,63063,128,0,63447:2:2:0:0:
64,192,63447,128,0,63832:2:2:0:0:
192,192,63832,128,0,64217:2:2:0:0:
320,192,64217,128,0,64601:2:2:0:0:
448,192,64601,128,0,65371:2:2:0:0:
64,192,65371,128,0,66140:2:2:0:0:
192,192,65371,1,0,2:2:0:0:
192,192,66140,1,0,2:2:0:0:
320,192,66140,128,0,67486:2:2:0:0:
192,192,66909,1,0,2:2:0:0:
64,192,67678,128,0,68447:2:2:0:0:
192,192,68447,128,0,68832:2:2:0:0:
448,192,68832,128,0,69217:2:2:0:0:
320,192,69217,128,0,69601:2:2:0:0:
192,192,69601,128,0,69986:2:2:0:0:
64,192,69986,128,0,70371:2:2:0:0:
192,192,70371,128,0,70755:2:2:0:0:
448,192,70755,128,0,71524:2:2:0:0:
320,192,70755,128,0,71524:2:2:0:0:
64,192,71524,1,0,2:2:0:0:
192,192,71524,128,0,73832:2:2:0:0:
64,192,72294,1,0,2:2:0:0:
448,192,72294,1,0,2:2:0:0:
64,192,73063,1,0,2:2:0:0:
320,192,73063,1,0,2:2:0:0:
448,192,73832,128,0,74601:2:2:0:0:
320,192,74601,128,0,74986:2:2:0:0:
192,192,74986,128,0,75371:2:2:0:0:
64,192,75371,128,0,75947:2:2:0:0:
64,192,76140,128,0,76524:2:2:0:0:
192,192,76524,128,0,76717:2:2:0:0:
192,192,76909,128,0,79024:2:2:0:0:
448,192,79986,1,0,2:2:0:0:
192,192,80178,1,0,2:2:0:0:
320,192,80370,1,0,2:2:0:0:
192,192,80562,1,0,2:2:0:0:
64,192,80755,128,0,81332:2:2:0:0:
192,192,81524,1,0,2:2:0:0:
64,192,81716,1,0,2:2:0:0:
192,192,81909,1,0,2:2:0:0:
448,192,82101,1,0,2:2:0:0:
192,192,82293,128,0,82870:2:2:0:0:
320,192,83062,1,0,2:2:0:0:
64,192,83062,1,0,2:2:0:0:
448,192,83447,1,0,2:2:0:0:
320,192,83639,1,0,2:2:0:0:
192,192,83832,1,0,2:2:0:0:
64,192,84216,1,0,2:2:0:0:
64,192,84601,128,0,85370:2:2:0:0:
448,192,87678,1,0,2:2:0:0:
320,192,87870,1,0,2:2:0:0:
448,192,88062,1,0,2:2:0:0:
320,192,88255,1,0,2:2:0:0:
192,192,88447,128,0,89024:2:2:0:0:
192,192,89216,1,0,2:2:0:0:
64,192,89409,1,0,2:2:0:0:
192,192,89601,1,0,2:2:0:0:
448,192,89793,1,0,2:2:0:0:
192,192,89986,128,0,90562:2:2:0:0:
320,192,90755,1,0,2:2:0:0:
192,192,91011,1,0,2:2:0:0:
64,192,91268,1,0,2:2:0:0:
192,192,91524,1,0,2:2:0:0:
320,192,91780,1,0,2:2:0:0:
448,192,92037,1,0,2:2:0:0:
192,192,92293,128,0,93255:2:2:0:0:
64,192,96139,1,0,2:2:0:0:
192,192,96524,1,0,2:2:0:0:
320,192,96909,128,0,97678:2:2:0:0:
192,192,98062,1,0,2:2:0:0:
192,192,98447,128,0,99216:2:2:0:0:
320,192,99986,128,0,100370:2:2:0:0:
192,192,100755,1,0,2:2:0:0:
64,192,101139,1,0,2:2:0:0:
192,192,101332,1,0,2:2:0:0:
192,192,101524,128,0,102293:2:2:0:0:
320,192,102678,1,0,2:2:0:0:
320,192,103062,1,0,2:2:0:0:
448,192,103447,1,0,2:2:0:0:
192,192,103639,128,0,104409:2:2:0:0:
320,192,104601,1,0,2:2:0:0:
448,192,104601,1,0,2:2:0:0:
192,192,104986,1,0,2:2:0:0:
64,192,105370,1,0,2:2:0:0:
192,192,105755,1,0,2:2:0:0:
64,192,105947,128,0,107486:2:2:0:0:
192,192,109216,128,0,109986:2:2:0:0:
320,192,110370,1,0,2:2:0:0:
448,192,110562,1,0,2:2:0:0:
320,192,110755,128,0,111332:2:2:0:0:
64,192,111524,1,0,2:2:0:0:
320,192,112293,1,0,2:2:0:0:
192,192,112293,1,0,2:2:0:0:
448,192,112678,1,0,2:2:0:0:
448,192,113062,1,0,2:2:0:0:
320,192,113447,1,0,2:2:0:0:
64,192,113832,128,0,114601:2:2:0:0:
192,192,113832,128,0,114601:2:2:0:0:
320,192,114986,1,0,2:2:0:0:
320,192,115370,128,0,116139:2:2:0:0:
192,192,116524,1,0,2:2:0:0:
320,192,116716,1,0,2:2:0:0:
192,192,116909,128,0,117678:2:2:0:0:
448,192,118062,1,0,2:2:0:0:
448,192,118447,128,0,120755:2:2:0:0:
192,192,121526,128,0,122295:2:2:0:0:
320,192,122295,128,0,122679:2:2:0:0:
448,192,122679,128,0,123064:2:2:0:0:
320,192,123064,128,0,123449:2:2:0:0:
192,192,123449,128,0,123833:2:2:0:0:
64,192,123833,128,0,124218:2:2:0:0:
192,192,124218,128,0,124602:2:2:0:0:
448,192,124602,128,0,125372:2:2:0:0:
64,192,124602,1,0,2:2:0:0:
192,192,124987,1,0,2:2:0:0:
64,192,125372,128,0,127487:2:2:0:0:
192,192,125372,1,0,2:2:0:0:
320,192,125372,1,0,2:2:0:0:
192,192,125756,1,0,2:2:0:0:
448,192,126141,1,0,2:2:0:0:
320,192,126141,1,0,2:2:0:0:
192,192,126526,1,0,2:2:0:0:
320,192,126910,1,0,2:2:0:0:
448,192,126910,1,0,2:2:0:0:
192,192,127295,1,0,2:2:0:0:
192,192,127679,128,0,128449:2:2:0:0:
320,192,128449,128,0,128833:2:2:0:0:
448,192,128833,128,0,129218:2:2:0:0:
320,192,129218,128,0,129602:2:2:0:0:
64,192,129602,128,0,129987:2:2:0:0:
192,192,129987,128,0,130372:2:2:0:0:
320,192,130372,128,0,130756:2:2:0:0:
448,192,130756,128,0,131526:2:2:0:0:
64,192,130756,1,0,2:2:0:0:
192,192,131141,1,0,2:2:0:0:
192,192,131526,128,0,132295:2:2:0:0:
320,192,131526,1,0,2:2:0:0:
64,192,131526,1,0,2:2:0:0:
320,192,131910,1,0,2:2:0:0:
64,192,132295,128,0,133641:2:2:0:0:
320,192,132295,1,0,2:2:0:0:
448,192,132295,1,0,2:2:0:0:
192,192,132679,1,0,2:2:0:0:
320,192,133064,1,0,2:2:0:0:
448,192,133064,1,0,2:2:0:0:
192,192,133449,1,0,2:2:0:0:
192,192,133833,128,0,134602:2:2:0:0:
320,192,134602,128,0,134987:2:2:0:0:
448,192,134987,128,0,135372:2:2:0:0:
320,192,135372,128,0,135756:2:2:0:0:
192,192,135756,128,0,136141:2:2:0:0:
64,192,136141,128,0,136526:2:2:0:0:
192,192,136526,128,0,136910:2:2:0:0:
320,192,136910,128,0,137679:2:2:0:0:
64,192,136910,1,0,2:2:0:0:
192,192,137295,1,0,2:2:0:0:
192,192,137679,128,0,139795:2:2:0:0:
448,192,137679,1,0,2:2:0:0:
64,192,137679,1,0,2:2:0:0:
64,192,138064,1,0,2:2:0:0:
320,192,138449,1,0,2:2:0:0:
448,192,138449,1,0,2:2:0:0:
64,192,138833,1,0,2:2:0:0:
320,192,139218,1,0,2:2:0:0:
448,192,139218,1,0,2:2:0:0:
64,192,139602,1,0,2:2:0:0:
64,192,139987,128,0,140756:2:2:0:0:
192,192,140756,128,0,141141:2:2:0:0:
448,192,141141,128,0,141718:2:2:0:0:
320,192,141718,128,0,142679:2:2:0:0:
192,192,142679,128,0,143449:2:2:0:0:
64,192,143449,128,0,144218:2:2:0:0:
192,192,144218,128,0,148449:2:2:0:0:
448,192,144218,1,0,2:2:0:0:
64,192,144987,1,0,2:2:0:0:
448,192,145756,1,0,2:2:0:0:
320,192,146526,1,0,2:2:0:0:
64,192,147295,1,0,2:2:0:0:
320,192,147423,1,0,2:2:0:0:
448,192,147551,1,0,2:2:0:0:
