osu file format v14

[General]
AudioFilename: Painful History.mp3
AudioLeadIn: 0
PreviewTime: 13691
Countdown: 0
SampleSet: Soft
StackLeniency: 0.7
Mode: 2
LetterboxInBreaks: 0
WidescreenStoryboard: 1

[Editor]
DistanceSpacing: 1.3
BeatDivisor: 8
GridSize: 4
TimelineZoom: 2

[Metadata]
Title:Painful History
TitleUnicode:Painful History
Artist:NicolArmarfi
ArtistUnicode:NicolArmarfi
Creator:Hareimu
Version:Distress
Source:かたわ少女
Tags:hanako ikezawa 池沢華子 theme piano sad katawa shoujo scars enigmatic box of sound four leaf studios bgm background music krfawy ascendance
BeatmapID:1552091
BeatmapSetID:563322

[Difficulty]
HPDrainRate:5
CircleSize:4.5
OverallDifficulty:7.5
ApproachRate:7.5
SliderMultiplier:3.59999990463257
SliderTickRate:2

[Events]
//Background and Video events
0,0,"BG2.png",0,0
//Break Periods
2,2969,6215
2,9834,13080
//Storyboard Layer 0 (Background)
//Storyboard Layer 1 (Fail)
//Storyboard Layer 2 (Pass)
//Storyboard Layer 3 (Foreground)
//Storyboard Sound Samples

[TimingPoints]
175,952.380952380952,4,2,1,5,1,0
651,857.142857142857,4,2,1,10,1,0
1079,857.142857142857,4,2,1,15,1,0
1936,833.333333333333,4,2,1,10,1,0
2769,854.214123006834,4,2,1,15,1,0
7040,952.380952380952,4,2,1,10,1,0
7516,857.142857142857,4,2,1,15,1,0
7944,-100,4,2,1,15,0,0
8373,-100,4,2,1,10,0,0
8801,833.333333333333,4,2,1,15,1,0
9217,-100,4,2,1,10,0,0
9634,854.214123006834,4,2,1,20,1,0
13905,952.380952380952,4,2,1,30,1,0
14381,800,4,2,1,10,1,0
14581,882.352941176471,4,2,1,15,1,0
14801,-100,4,2,1,20,0,0
15022,779.220779220779,4,2,1,20,1,0
15216,-100,4,2,1,10,0,0
15411,967.741935483871,4,2,1,10,1,0
15652,851.063829787234,4,2,1,20,1,0
16078,779.220779220779,4,2,1,10,1,0
16272,882.352941176471,4,2,1,10,1,0
16492,833.333333333333,4,2,1,20,1,0
17325,967.741935483871,4,2,1,15,1,0
17808,833.333333333333,4,2,1,5,1,0
18224,833.333333333333,4,2,1,10,1,0
18640,882.352941176471,4,2,1,5,1,0
19080,833.333333333333,4,2,1,10,1,0
20746,983.606557377049,4,2,1,30,1,0
21237,810.810810810811,4,2,1,15,1,0
21439,882.352941176471,4,2,1,15,1,0
21659,909.090909090909,4,2,1,25,1,0
21886,769.230769230769,4,2,1,20,1,0
22078,882.352941176471,4,2,1,10,1,0
22298,833.333333333333,4,2,1,5,1,0
22506,857.142857142857,4,2,1,20,1,0
22934,810.810810810811,4,2,1,10,1,0
23136,857.142857142857,4,2,1,20,1,0
23350,810.810810810811,4,2,1,20,1,0
23755,869.565217391304,4,2,1,20,1,0
24189,857.142857142857,4,2,1,15,1,0
24403,1090.90909090909,4,2,1,5,1,0
24675,821.917808219178,4,2,1,10,1,0
24880,810.810810810811,4,2,1,10,1,0
25085,833.333333333333,4,2,1,10,1,0
25501,869.565217391304,4,2,1,20,1,0
25937,833.333333333333,4,2,1,10,1,0
26353,857.142857142857,4,2,1,10,1,0
26781,821.917808219178,4,2,1,10,1,0
27191,769.230769230769,4,2,1,15,1,0
27287,810.810810810811,4,2,1,15,1,0
27388,857.142857142857,4,2,1,15,1,0
27493,967.741935483871,4,2,1,15,1,0
27495,983.606557377049,4,2,1,10,1,0
27618,967.741935483871,4,2,1,30,1,0
28101,779.220779220779,4,2,1,10,1,0
28295,842.105263157895,4,2,1,15,1,0
28505,909.090909090909,4,2,1,20,1,0
28731,810.810810810811,4,2,1,20,1,0
28933,759.493670886076,4,2,1,10,1,0
29122,952.380952380952,4,2,1,15,1,0
29360,869.565217391304,4,2,1,20,1,0
29794,779.220779220779,4,2,1,10,1,0
29988,857.142857142857,4,2,1,15,1,0
30202,845.070422535211,4,2,1,15,1,0
30624,833.333333333333,4,2,1,10,1,0
31040,983.606557377049,4,2,1,15,1,0
31531,821.917808219178,4,2,1,10,1,0
32352,882.352941176471,4,2,1,10,1,0
32793,869.565217391304,4,2,1,5,1,0
33227,821.917808219178,4,2,1,5,1,0
33637,909.090909090909,4,2,1,40,1,0
33788,-100,4,2,1,30,0,0
33940,720.720720720721,4,2,1,20,1,0
34060,857.142857142857,4,2,1,30,1,0
34202,909.090909090909,4,2,1,20,1,0
34353,705.882352941176,4,2,1,15,1,0
34470,1016.94915254237,4,2,1,40,1,1
34978,802.675585284281,4,2,1,10,1,1
35379,833.333333333333,4,2,1,15,1,1
35795,857.142857142857,4,2,1,25,1,1
36223,869.565217391304,4,2,1,20,1,1
36657,789.473684210526,4,2,1,10,1,1
36920,800,4,2,1,15,1,1
37055,857.142857142857,4,2,1,20,1,1
37483,833.333333333333,4,2,1,10,1,1
37899,1034.48275862069,4,2,1,25,1,1
38416,1016.94915254237,4,2,1,20,1,1
38922,1153.84615384615,4,2,1,15,1,1
39498,1463.41463414634,4,2,1,10,1,1
40229,1678.32167832168,4,2,1,10,1,0
43166,-100,4,2,1,5,0,0
43585,983.606557377049,4,2,1,20,1,0
44076,857.142857142857,4,2,1,10,1,0
44504,821.917808219178,4,2,1,15,1,0
44914,882.352941176471,4,2,1,10,1,0
45355,857.142857142857,4,2,1,20,1,0
45783,821.917808219178,4,2,1,10,1,0
46194,833.333333333333,4,2,1,15,1,0
46610,-100,4,2,1,5,0,0
47027,967.741935483871,4,2,1,20,1,0
47510,833.333333333333,4,2,1,10,1,0
47926,857.142857142857,4,2,1,15,1,0
48354,821.917808219178,4,2,1,15,1,0
48764,845.070422535211,4,2,1,10,1,0
49187,857.142857142857,4,2,1,15,1,0
49615,882.352941176471,4,2,1,15,1,0
50056,810.810810810811,4,2,1,5,1,0
50460,952.380952380952,4,2,1,20,1,0
50936,833.333333333333,4,2,1,10,1,0
51352,845.070422535211,4,2,1,15,1,0
51774,882.352941176471,4,2,1,10,1,0
52215,833.333333333333,4,2,1,20,1,0
52631,821.917808219178,4,2,1,10,1,0
53041,845.070422535211,4,2,1,15,1,0
53463,-100,4,2,1,5,0,0
53886,967.741935483871,4,2,1,20,1,0
54369,833.333333333333,4,2,1,10,1,0
54785,857.142857142857,4,2,1,15,1,0
55213,833.333333333333,4,2,1,15,1,0
55629,857.142857142857,4,2,1,10,1,0
56057,845.070422535211,4,2,1,15,1,0
56479,857.142857142857,4,2,1,15,1,0
56908,882.352941176471,4,2,1,5,1,0
57349,952.380952380952,4,2,1,20,1,0
57825,851.063829787234,4,2,1,10,1,0
58251,833.333333333333,4,2,1,15,1,0
58667,857.142857142857,4,2,1,15,1,0
59095,857.142857142857,4,2,1,20,1,0
59523,810.810810810811,4,2,1,15,1,0
59928,857.142857142857,4,2,1,10,1,0
60356,845.070422535211,4,2,1,15,1,0
60778,895.522388059701,4,2,1,20,1,0
61225,888.888888888889,4,2,1,10,1,0
61670,833.333333333333,4,2,1,15,1,0
62086,-100,4,2,1,10,0,0
62503,845.070422535211,4,2,1,20,1,0
62925,827.586206896552,4,2,1,10,1,0
63338,857.142857142857,4,2,1,15,1,0
63766,-100,4,2,1,5,0,0
64195,909.090909090909,4,2,1,20,1,0
64649,-100,4,2,1,10,0,0
65104,833.333333333333,4,2,1,15,1,0
65520,857.142857142857,4,2,1,15,1,0
65948,810.810810810811,4,2,1,20,1,0
66353,869.565217391304,4,2,1,15,1,0
66787,821.917808219178,4,2,1,20,1,0
67197,857.142857142857,4,2,1,10,1,0
67627,895.522388059701,4,2,1,20,1,0
68522,857.142857142857,4,2,1,25,1,0
68950,-100,4,2,1,20,0,0
69379,810.810810810811,4,2,1,20,1,0
69784,-100,4,2,1,15,0,0
70189,857.142857142857,4,2,1,10,1,0
70617,-100,4,2,1,5,0,0
71046,983.606557377049,4,2,1,20,1,0
71537,839.160839160839,4,2,1,10,1,0
71955,833.333333333333,4,2,1,15,1,0
72371,857.142857142857,4,2,1,15,1,0
72799,882.352941176471,4,2,1,20,1,0
73240,821.917808219178,4,2,1,15,1,0
73650,845.070422535211,4,2,1,15,1,0
74072,833.333333333333,4,2,1,15,1,0
74490,909.090909090909,4,2,1,20,1,0
74944,857.142857142857,4,2,1,10,1,0
75372,833.333333333333,4,2,1,15,1,0
75788,-100,4,2,1,10,0,0
76205,882.352941176471,4,2,1,20,1,0
76646,833.333333333333,4,2,1,10,1,0
77062,821.917808219178,4,2,1,15,1,0
77472,882.352941176471,4,2,1,15,1,0
77913,923.076923076923,4,2,1,20,1,0
78373,909.090909090909,4,2,1,10,1,0
78827,833.333333333333,4,2,1,15,1,0
79243,857.142857142857,4,2,1,17,1,0
79671,800,4,2,1,20,1,0
80071,875.912408759124,4,2,1,10,1,0
80509,827.586206896552,4,2,1,15,1,0
80715,-100,4,2,1,10,0,0
80922,-100,4,2,1,15,0,0
81337,909.090909090909,4,2,1,20,1,0
81791,857.142857142857,4,2,1,10,1,0
82219,845.070422535211,4,2,1,15,1,0
82640,875.912408759124,4,2,1,10,1,0
83076,857.142857142857,4,2,1,20,1,0
83504,833.333333333333,4,2,1,10,1,0
83920,845.070422535211,4,2,1,15,1,0
84342,800,4,2,1,10,1,0
84742,967.741935483871,4,2,1,20,1,0
85225,833.333333333333,4,2,1,10,1,0
85641,833.333333333333,4,2,1,10,1,0
86057,914.634146341464,4,2,1,15,1,0
86513,821.917808219178,4,2,1,20,1,0
86924,857.142857142857,4,2,1,15,1,0
87352,810.810810810811,4,2,1,10,1,0
87757,810.810810810811,4,2,1,15,1,0
88162,952.380952380952,4,2,1,20,1,0
88638,882.352941176471,4,2,1,10,1,0
89079,833.333333333333,4,2,1,15,1,0
89497,851.063829787234,4,2,1,10,1,0
89923,882.352941176471,4,2,1,20,1,0
90364,810.810810810811,4,2,1,15,1,0
90769,857.142857142857,4,2,1,10,1,0
91197,789.473684210526,4,2,1,5,1,0
91590,952.380952380952,4,2,1,20,1,0
92066,882.352941176471,4,2,1,10,1,0
92507,857.142857142857,4,2,1,15,1,0
92935,833.333333333333,4,2,1,15,1,0
93351,937.5,4,2,1,20,1,0
93819,800,4,2,1,10,1,0
94218,863.309352517986,4,2,1,15,1,0
94649,740.740740740741,4,2,1,10,1,0
95018,983.606557377049,4,2,1,20,1,0
95509,857.142857142857,4,2,1,10,1,0
95937,833.333333333333,4,2,1,20,1,0
96353,869.565217391304,4,2,1,15,1,0
96786,882.352941176471,4,2,1,20,1,0
97227,789.473684210526,4,2,1,15,1,0
97621,857.142857142857,4,2,1,10,1,0
98049,810.810810810811,4,2,1,5,1,0
98454,1000,4,2,1,20,1,0
98954,810.810810810811,4,2,1,15,1,0
99359,845.070422535211,4,2,1,15,1,0
99781,909.090909090909,4,2,1,15,1,0
100233,800,4,2,1,15,1,0
100633,909.090909090909,4,2,1,10,1,0
101087,882.352941176471,4,2,1,15,1,0
101528,714.285714285714,4,2,1,15,1,0
101884,967.741935483871,4,2,1,20,1,0
102367,879.120879120879,4,2,1,15,1,0
102806,805.369127516779,4,2,1,15,1,0
103209,857.142857142857,4,2,1,15,1,0
103637,-100,4,2,1,20,0,0
104066,833.333333333333,4,2,1,10,1,0
104482,-100,4,2,1,15,0,0
104899,833.333333333333,4,2,1,15,1,0
105315,967.741935483871,4,2,1,20,1,0
105798,854.092526690391,4,2,1,10,1,0
106224,833.333333333333,4,2,1,15,1,0
106640,909.090909090909,4,2,1,15,1,0
107094,869.565217391304,4,2,1,20,1,0
107528,774.193548387097,4,2,1,10,1,0
107915,857.142857142857,4,2,1,15,1,0
108129,-100,4,2,1,10,0,0
108342,833.333333333333,4,2,1,15,1,0
108758,937.5,4,2,1,20,1,0
109226,-100,4,2,1,10,0,0
109695,779.220779220779,4,2,1,15,1,0
110084,845.070422535211,4,2,1,10,1,0
110505,857.142857142857,4,2,1,20,1,0
110933,833.333333333333,4,2,1,15,1,0
111349,845.070422535211,4,2,1,15,1,0
111771,-100,4,2,1,5,0,0
112195,937.5,4,2,1,20,1,0
112663,882.352941176471,4,2,1,20,1,0
113104,769.230769230769,4,2,1,15,1,0
113488,833.333333333333,4,2,1,10,1,0
113904,857.142857142857,4,2,1,20,1,0
114332,882.352941176471,4,2,1,20,1,0
114773,821.917808219178,4,2,1,20,1,0
115183,845.070422535211,4,2,1,10,1,0
115606,967.741935483871,4,2,1,20,1,0
116089,833.333333333333,4,2,1,20,1,0
116505,882.352941176471,4,2,1,10,1,0
116946,833.333333333333,4,2,1,15,1,0
117362,810.810810810811,4,2,1,15,1,0
117767,769.230769230769,4,2,1,15,1,0
117960,857.142857142857,4,2,1,10,1,0
118175,857.142857142857,4,2,1,20,1,0
118603,-100,4,2,1,15,0,0
119032,937.5,4,2,1,20,1,0
119500,895.522388059701,4,2,1,15,1,0
119947,833.333333333333,4,2,1,10,1,0
120363,857.142857142857,4,2,1,15,1,0
120791,845.070422535211,4,2,1,20,1,0
121212,857.142857142857,4,2,1,10,1,0
121640,800,4,2,1,15,1,0
122040,845.070422535211,4,2,1,10,1,0
122462,937.5,4,2,1,20,1,0
122930,854.092526690391,4,2,1,20,1,0
123357,-100,4,2,1,15,0,0
123785,857.142857142857,4,2,1,15,1,0
124213,833.333333333333,4,2,1,20,1,0
124629,882.352941176471,4,2,1,15,1,0
125070,857.142857142857,4,2,1,15,1,0
125498,810.810810810811,4,2,1,5,1,0
125904,909.090909090909,4,2,1,15,1,0
126358,857.142857142857,4,2,1,10,1,0
126786,833.333333333333,4,2,1,15,1,0
127202,888.888888888889,4,2,1,20,1,0
127646,810.810810810811,4,2,1,15,1,0
128051,857.142857142857,4,2,1,15,1,0
128479,833.333333333333,4,2,1,10,1,0
129313,937.5,4,2,1,15,1,0
130016,821.917808219178,4,2,1,10,1,0
130632,869.565217391304,4,2,1,15,1,0
131066,833.333333333333,4,2,1,15,1,0
131482,869.565217391304,4,2,1,10,1,0
131916,833.333333333333,4,2,1,15,1,0
132334,833.333333333333,4,2,1,10,1,0
132750,909.090909090909,4,2,1,15,1,0
133204,-100,4,2,1,10,0,0
133659,833.333333333333,4,2,1,15,1,0
134075,-100,4,2,1,10,0,0
134492,833.333333333333,4,2,1,15,1,0
134908,816.326530612245,4,2,1,10,1,0
135316,888.888888888889,4,2,1,15,1,0
135760,821.917808219178,4,2,1,10,1,0
136170,983.606557377049,4,2,1,20,1,0
136661,952.380952380952,4,2,1,10,1,0
137137,1000,4,2,1,15,1,0
137637,1182.26600985222,4,2,1,10,1,0
138229,1276.59574468085,4,2,1,20,1,0
138867,1428.57142857143,4,2,1,15,1,0
139581,1721.66427546628,4,2,1,15,1,0
140440,1066.66666666667,4,2,1,10,1,0
144173,-100,4,2,1,5,0,0
144706,-100,4,2,1,20,0,0
144973,705.882352941176,4,2,1,15,1,0
145149,779.220779220779,4,2,1,20,1,0
145343,882.352941176471,4,2,1,20,1,0
145563,937.5,4,2,1,25,1,1
146031,833.333333333333,4,2,1,15,1,1
146447,-100,4,2,1,25,0,1
146864,-100,4,2,1,15,0,1
147281,937.5,4,2,1,25,1,1
147749,857.142857142857,4,2,1,15,1,1
148177,810.810810810811,4,2,1,20,1,1
148582,810.810810810811,4,2,1,15,1,1
148987,967.741935483871,4,2,1,25,1,1
149470,833.333333333333,4,2,1,15,1,1
149886,810.810810810811,4,2,1,15,1,1
150291,833.333333333333,4,2,1,20,1,1
150707,937.5,4,2,1,25,1,1
151175,833.333333333333,4,2,1,15,1,1
152008,857.142857142857,4,2,1,15,1,1
152436,909.090909090909,4,2,1,25,1,1
152890,857.142857142857,4,2,1,15,1,1
153318,810.810810810811,4,2,1,20,1,1
153723,833.333333333333,4,2,1,15,1,1
154139,967.741935483871,4,2,1,20,1,1
154622,638.297872340426,4,2,1,15,1,1
154941,705.882352941176,4,2,1,20,1,1
155117,-100,4,2,1,25,0,0
158117,-100,4,2,1,5,0,0

[Colours]
Combo1 : 71,71,141
Combo2 : 141,71,71
Combo3 : 128,128,128

[HitObjects]
386,282,175,6,0,L|397:90,1,179.999995231629,6|0,0:0|0:0,0:0:0:0:
126,98,1079,1,2,0:0:0:0:
422,99,1936,1,2,0:0:0:0:
35,101,2769,1,2,0:0:0:0:
476,79,7040,6,0,L|290:78,1,179.999995231629,6|0,0:0|0:0,0:0:0:0:
27,91,7944,2,0,L|25:277,1,179.999995231629,2|0,0:0|0:0,0:0:0:0:
210,270,8801,2,0,L|211:90,1,179.999995231629,2|0,0:0|0:0,0:0:0:0:
475,91,9634,1,2,0:0:0:0:
91,98,13905,5,6,0:0:0:0:
305,98,14381,2,0,L|400:98,1,89.9999976158143,0|0,0:0|0:0,0:0:0:0:
215,99,14801,1,2,0:0:0:0:
419,98,15022,2,0,L|439:189,2,89.9999976158143,2|0|0,0:0|0:0|0:0,0:0:0:0:
113,98,15652,5,2,0:0:0:0:
292,99,16078,2,0,L|298:198,1,89.9999976158143,0|0,0:0|0:0,0:0:0:0:
154,188,16492,1,2,0:0:0:0:
358,188,16908,1,2,0:0:0:0:
125,188,17325,6,0,L|117:2,1,179.999995231629,2|0,0:0|0:0,0:0:0:0:
342,281,18224,2,0,L|350:95,1,179.999995231629,2|0,0:0|0:0,0:0:0:0:
159,93,19080,1,2,0:0:0:0:
421,98,20746,5,6,0:0:0:0:
207,98,21237,2,0,L|112:98,1,89.9999976158143,0|0,0:0|0:0,0:0:0:0:
291,98,21659,1,2,0:0:0:0:
78,96,21886,2,0,L|58:187,1,89.9999976158143,2|0,0:0|0:0,0:0:0:0:
78,96,22298,1,0,0:0:0:0:
399,98,22506,5,2,0:0:0:0:
209,97,22934,1,0,0:0:0:0:
378,97,23136,1,2,0:0:0:0:
187,99,23350,1,2,0:0:0:0:
438,94,23755,1,2,0:0:0:0:
74,94,24189,5,2,0:0:0:0:
179,91,24403,2,0,L|185:185,1,89.9999976158143,2|0,0:0|0:0,0:0:0:0:
321,182,24880,2,0,L|327:88,1,89.9999976158143,2|0,0:0|0:0,0:0:0:0:
66,92,25501,5,2,0:0:0:0:
188,217,25937,1,0,0:0:0:0:
225,48,26353,1,0,0:0:0:0:
188,217,26781,1,0,0:0:0:0:
66,92,27191,1,2,0:0:0:0:
76,133,27287,1,2,0:0:0:0:
111,155,27388,1,2,0:0:0:0:
169,156,27495,1,0,0:0:0:0:
302,158,27617,5,6,0:0:0:0:
78,170,28101,2,0,L|179:170,1,89.9999976158143,0|0,0:0|0:0,0:0:0:0:
334,169,28505,1,2,0:0:0:0:
132,170,28732,2,0,L|121:74,1,89.9999976158143,2|0,0:0|0:0,0:0:0:0:
132,170,29122,1,0,0:0:0:0:
427,172,29360,5,2,0:0:0:0:
226,185,29794,2,0,L|220:95,1,89.9999976158143,2|0,0:0|0:0,0:0:0:0:
358,188,30202,1,2,0:0:0:0:
149,188,30624,1,2,0:0:0:0:
378,188,31040,6,0,L|385:8,1,179.999995231629,2|0,0:0|0:0,0:0:0:0:
161,281,31941,2,0,L|153:101,1,179.999995231629,2|0,0:0|0:0,0:0:0:0:
336,102,32793,1,2,0:0:0:0:
59,105,33637,5,2,0:0:0:0:
136,104,33788,1,0,0:0:0:0:
59,105,33940,1,0,0:0:0:0:
142,278,34060,1,2,0:0:0:0:
215,277,34202,1,0,0:0:0:0:
142,278,34353,1,0,0:0:0:0:
294,108,34470,6,0,P|363:149|297:341,1,322,6|2,0:0|0:0,0:0:0:0:
38,163,35795,1,2,0:0:0:0:
392,147,36223,2,0,L|398:332,1,179.999995231629,2|0,0:0|0:0,0:0:0:0:
161,338,36920,2,0,L|121:337,1,29.9999992052714,0|0,0:0|0:0,0:0:0:0:
161,338,37055,2,0,L|342:338,1,179.999995231629,2|0,0:0|0:0,0:0:0:0:
51,352,37899,6,0,L|42:164,1,179.999995231629,6|0,0:0|0:0,0:0:0:0:
200,169,38922,2,0,L|209:357,1,179.999995231629,2|0,0:0|0:0,0:0:0:0:
470,172,40229,1,2,0:0:0:0:
256,192,40648,12,0,43166,0:0:0:0:
156,77,43585,6,0,L|147:276,1,179.999995231629,4|0,0:0|0:0,0:0:0:0:
335,256,44504,1,2,0:0:0:0:
167,256,44914,1,0,0:0:0:0:
444,258,45355,2,0,L|452:53,1,179.999995231629,2|0,0:0|0:0,0:0:0:0:
273,83,46194,2,0,L|455:83,1,179.999995231629,2|0,0:0|0:0,0:0:0:0:
142,83,47027,6,0,L|134:262,1,179.999995231629,0|0,0:0|0:0,0:0:0:0:
309,264,47926,2,0,L|489:264,1,179.999995231629,2|0,0:0|0:0,0:0:0:0:
314,264,48764,1,2,0:0:0:0:
47,264,49187,1,0,0:0:0:0:
221,277,49615,2,0,L|227:97,1,179.999995231629,2|0,0:0|0:0,0:0:0:0:
457,100,50460,6,0,L|277:100,1,179.999995231629,4|0,0:0|0:0,0:0:0:0:
99,99,51352,1,2,0:0:0:0:
314,159,51774,1,0,0:0:0:0:
28,165,52215,2,0,L|208:165,1,179.999995231629,2|0,0:0|0:0,0:0:0:0:
382,165,53041,2,0,L|202:165,1,179.999995231629,2|0,0:0|0:0,0:0:0:0:
438,163,53886,6,0,L|448:359,1,179.999995231629,0|0,0:0|0:0,0:0:0:0:
272,343,54785,1,2,0:0:0:0:
87,343,55213,1,0,0:0:0:0:
261,343,55629,1,2,0:0:0:0:
36,186,56057,1,2,0:0:0:0:
213,185,56479,2,0,L|32:184,1,179.999995231629,2|0,0:0|0:0,0:0:0:0:
367,346,57349,6,0,P|456:214|359:88,1,341,6|2,0:0|0:0,0:0:0:0:
97,84,58667,1,2,0:0:0:0:
276,96,59095,2,0,L|457:95,1,179.999995231629,0|2,0:0|0:0,0:0:0:0:
244,158,59928,2,0,L|427:157,1,179.999995231629,0|2,0:0|0:0,0:0:0:0:
144,346,60778,6,0,P|55:204|170:83,1,359,2|2,0:0|0:0,0:0:0:0:
403,83,62086,1,0,0:0:0:0:
136,88,62503,2,0,L|127:287,1,179.999995231629,2|0,0:0|0:0,0:0:0:0:
301,268,63338,2,0,L|310:69,1,179.999995231629,2|0,0:0|0:0,0:0:0:0:
54,82,64195,6,0,L|418:82,1,359.999990463257,6|2,0:0|0:0,0:0:0:0:
151,80,65520,1,2,0:0:0:0:
389,146,65948,2,0,L|395:340,1,179.999995231629,2|0,0:0|0:0,0:0:0:0:
109,326,66787,1,2,0:0:0:0:
446,147,67627,6,0,L|439:331,1,179.999995231629,2|0,0:0|0:0,0:0:0:0:
110,244,68522,1,2,0:0:0:0:
379,255,68950,1,2,0:0:0:0:
140,189,69379,1,2,0:0:0:0:
32,45,69784,1,0,0:0:0:0:
49,214,70189,1,0,0:0:0:0:
184,96,70617,1,0,0:0:0:0:
419,94,71046,6,0,L|86:94,1,333,6|2,0:0|0:0,0:0:0:0:
348,94,72371,1,2,0:0:0:0:
173,104,72799,2,0,L|164:290,1,179.999995231629,0|2,0:0|0:0,0:0:0:0:
339,289,73650,1,0,0:0:0:0:
350,107,74072,1,2,0:0:0:0:
101,114,74490,6,0,L|450:113,1,349.5,2|2,0:0|0:0,0:0:0:0:
270,114,75788,1,0,0:0:0:0:
57,255,76205,2,0,L|53:62,1,179.999995231629,2|0,0:0|0:0,0:0:0:0:
280,116,77062,1,2,0:0:0:0:
29,112,77472,1,2,0:0:0:0:
330,337,77913,6,0,P|437:214|334:87,1,356.5,6|2,0:0|0:0,0:0:0:0:
72,88,79243,1,0,0:0:0:0:
313,246,79671,2,0,L|323:55,1,179.999995231629,2|0,0:0|0:0,0:0:0:0:
36,74,80509,1,2,0:0:0:0:
193,108,80715,1,0,0:0:0:0:
36,74,80922,1,2,0:0:0:0:
396,81,81337,6,0,L|408:280,1,179.999995231629,2|0,0:0|0:0,0:0:0:0:
271,227,82219,2,0,L|365:51,1,179.999995231629,2|0,0:0|0:0,0:0:0:0:
174,68,83076,2,0,L|334:186,1,179.999995231629,2|0,0:0|0:0,0:0:0:0:
53,253,83920,2,0,L|248:213,1,179.999995231629,2|0,0:0|0:0,0:0:0:0:
452,344,84742,6,0,P|339:240|430:118,1,334.5,6|2,0:0|0:0,0:0:0:0:
184,118,86057,1,0,0:0:0:0:
383,122,86513,2,0,L|392:304,1,179.999995231629,2|0,0:0|0:0,0:0:0:0:
201,303,87352,1,0,0:0:0:0:
426,144,87757,1,2,0:0:0:0:
158,76,88162,6,0,P|313:143|377:300,1,347,2|2,0:0|0:0,0:0:0:0:
200,300,89497,1,0,0:0:0:0:
469,317,89923,2,0,L|477:129,1,179.999995231629,2|0,0:0|0:0,0:0:0:0:
255,72,90769,2,0,L|439:72,1,179.999995231629,2|0,0:0|0:0,0:0:0:0:
212,94,91590,6,0,P|181:101|223:334,1,347,6|2,0:0|0:0,0:0:0:0:
387,335,92935,1,0,0:0:0:0:
107,116,93351,2,0,L|467:116,1,333,2|2,0:0|0:0,0:0:0:0:
147,266,95018,6,0,L|336:266,1,179.999995231629,2|0,0:0|0:0,0:0:0:0:
49,247,95937,2,0,L|63:67,1,179.999995231629,2|0,0:0|0:0,0:0:0:0:
372,189,96786,1,2,0:0:0:0:
480,45,97227,1,0,0:0:0:0:
463,214,97621,1,0,0:0:0:0:
328,96,98049,1,0,0:0:0:0:
110,40,98454,6,0,P|117:147|317:285,1,326,6|2,0:0|0:0,0:0:0:0:
107,280,99781,1,0,0:0:0:0:
411,294,100233,2,0,L|222:294,1,179.999995231629,2|0,0:0|0:0,0:0:0:0:
462,134,101087,2,0,L|273:134,1,179.999995231629,2|0,0:0|0:0,0:0:0:0:
84,71,101884,6,0,P|208:181|125:325,1,343,2|2,0:0|0:0,0:0:0:0:
309,321,103209,1,0,0:0:0:0:
39,334,103637,2,0,L|51:140,1,179.999995231629,2|0,0:0|0:0,0:0:0:0:
319,173,104482,2,0,L|131:172,1,179.999995231629,2|0,0:0|0:0,0:0:0:0:
410,107,105315,6,0,L|45:106,1,338.5,6|2,0:0|0:0,0:0:0:0:
359,177,106640,1,0,0:0:0:0:
77,156,107094,2,0,L|198:301,1,179.999995231629,2|0,0:0|0:0,0:0:0:0:
476,74,107915,1,2,0:0:0:0:
319,108,108129,1,0,0:0:0:0:
476,74,108342,1,2,0:0:0:0:
133,246,108758,6,0,L|121:47,1,179.999995231629,2|0,0:0|0:0,0:0:0:0:
258,100,109695,2,0,L|164:276,1,179.999995231629,2|0,0:0|0:0,0:0:0:0:
355,259,110505,2,0,L|195:141,1,179.999995231629,2|0,0:0|0:0,0:0:0:0:
476,74,111349,2,0,L|281:114,1,179.999995231629,2|0,0:0|0:0,0:0:0:0:
54,113,112195,6,0,P|97:278|247:359,1,349.25,6|2,0:0|0:0,0:0:0:0:
413,26,113488,1,0,0:0:0:0:
195,93,113904,2,0,L|186:287,1,179.999995231629,2|0,0:0|0:0,0:0:0:0:
379,272,114773,2,0,L|171:271,1,179.999995231629,2|0,0:0|0:0,0:0:0:0:
434,95,115605,5,2,0:0:0:0:
68,183,116089,1,2,0:0:0:0:
237,190,116505,2,0,L|248:1,1,179.999995231629,0|0,0:0|0:0,0:0:0:0:
63,28,117362,1,2,0:0:0:0:
300,95,117767,1,2,0:0:0:0:
210,96,117959,1,0,0:0:0:0:
436,96,118175,1,2,0:0:0:0:
166,93,118603,1,2,0:0:0:0:
455,158,119032,6,0,L|274:157,1,179.999995231629,6|0,0:0|0:0,0:0:0:0:
468,156,119947,1,0,0:0:0:0:
150,237,120363,1,2,0:0:0:0:
423,249,120791,2,0,L|226:247,1,179.999995231629,2|0,0:0|0:0,0:0:0:0:
50,245,121640,2,0,L|39:52,1,179.999995231629,2|0,0:0|0:0,0:0:0:0:
445,74,122462,5,6,0:0:0:0:
126,266,122930,1,2,0:0:0:0:
396,120,123357,1,2,0:0:0:0:
171,183,123785,1,0,0:0:0:0:
457,108,124213,1,2,0:0:0:0:
245,171,124629,2,0,L|236:370,1,179.999995231629,0|2,0:0|0:0,0:0:0:0:
426,348,125498,1,0,0:0:0:0:
184,343,125904,5,6,0:0:0:0:
423,277,126358,2,0,L|230:276,1,179.999995231629,0|0,0:0|0:0,0:0:0:0:
453,167,127202,1,2,0:0:0:0:
207,93,127646,2,0,L|404:93,1,179.999995231629,0|2,0:0|0:0,0:0:0:0:
109,89,128479,2,0,L|98:273,1,179.999995231629,2|0,0:0|0:0,0:0:0:0:
323,182,129313,5,2,0:0:0:0:
53,180,129781,2,0,L|62:84,1,89.9999976158143,2|0,0:0|0:0,0:0:0:0:
196,92,130221,2,0,L|384:91,1,179.999995231629,0|2,0:0|0:0,0:0:0:0:
94,291,131066,2,0,L|103:103,1,179.999995231629,2|0,0:0|0:0,0:0:0:0:
383,111,131916,2,0,L|391:290,1,179.999995231629,2|0,0:0|0:0,0:0:0:0:
226,303,132750,6,0,P|180:292|21:47,1,359.999990463257,6|2,0:0|0:0,0:0:0:0:
200,49,134075,1,2,0:0:0:0:
380,49,134492,2,0,L|373:228,1,179.999995231629
125,232,135316,2,0,L|320:232,1,179.999995231629,2|2,0:0|0:0,0:0:0:0:
42,169,136170,6,0,L|49:357,1,179.999995231629,6|0,0:0|0:0,0:0:0:0:
220,348,137137,2,0,L|226:168,1,179.999995231629,2|0,0:0|0:0,0:0:0:0:
496,93,138228,1,6,0:0:0:0:
334,94,138867,1,2,0:0:0:0:
184,94,139581,1,2,0:0:0:0:
473,91,140440,1,2,0:0:0:0:
256,192,140706,12,0,144173,0:0:0:0:
182,306,144706,5,2,0:0:0:0:
45,301,144973,1,0,0:0:0:0:
126,85,145149,1,2,0:0:0:0:
45,83,145343,1,0,0:0:0:0:
213,87,145563,6,0,L|398:88,1,179.999995231629,6|0,0:0|0:0,0:0:0:0:
34,107,146447,2,0,P|36:139|145:226,1,179.999995231629,2|0,0:0|0:0,0:0:0:0:
423,290,147281,2,0,L|437:104,1,179.999995231629,2|0,0:0|0:0,0:0:0:0:
151,112,148177,2,0,L|135:306,1,179.999995231629,2|0,0:0|0:0,0:0:0:0:
400,230,148987,6,0,L|383:43,1,179.999995231629,6|0,0:0|0:0,0:0:0:0:
106,63,149886,1,2,0:0:0:0:
280,65,150291,1,0,0:0:0:0:
40,81,150707,2,0,L|49:282,1,179.999995231629,2|0,0:0|0:0,0:0:0:0:
272,195,151591,2,0,L|76:196,1,179.999995231629,2|0,0:0|0:0,0:0:0:0:
305,253,152436,6,0,L|484:251,1,179.999995231629,6|0,0:0|0:0,0:0:0:0:
207,253,153318,2,0,L|28:251,1,179.999995231629,2|0,0:0|0:0,0:0:0:0:
298,187,154139,2,0,L|488:188,1,179.999995231629,2|2,0:0|0:0,0:0:0:0:
87,87,154941,2,0,L|68:130,1,44.9999988079071,2|0,0:0|0:0,0:0:0:0:
113,128,155117,1,2,0:0:0:0:
256,192,155293,12,0,158293,0:0:0:0:
