osu file format v14

[General]
AudioFilename: audio.mp3
AudioLeadIn: 0
PreviewTime: 44158
Countdown: 0
SampleSet: Soft
StackLeniency: 0.6
Mode: 0
LetterboxInBreaks: 0
WidescreenStoryboard: 0

[Editor]
DistanceSpacing: 1.2
BeatDivisor: 4
GridSize: 4
TimelineZoom: 1

[Metadata]
Title:Generic Happy Music
TitleUnicode:Generic Happy Music
Artist:NicolArmarfi
ArtistUnicode:NicolArmarfi
Creator:Reazen
Version:Noz's Happy Insane
Source:かたわ少女
Tags:hakamichi shizune shiina mikado misha hisao nakai visual novel eroge four leaf studios katawa shoujo lily satou emi ibarazaki hanako nozhomi krfawy
BeatmapID:1251100
BeatmapSetID:556443

[Difficulty]
HPDrainRate:5
CircleSize:4.5
OverallDifficulty:7.5
ApproachRate:7.5
SliderMultiplier:1.60000000596046
SliderTickRate:1

[Events]
//Background and Video events
0,0,"21994_katawa_shoujo.jpg",0,0
//Break Periods
//Storyboard Layer 0 (Background)
//Storyboard Layer 1 (Fail)
//Storyboard Layer 2 (Pass)
//Storyboard Layer 3 (Foreground)
//Storyboard Sound Samples

[TimingPoints]
2158,500,4,2,0,20,1,0
6158,-83.3333333333333,4,2,0,20,0,0
44158,-71.4285714285714,4,2,0,20,0,1
60158,-83.3333333333333,4,2,0,20,0,0

[Colours]
Combo1 : 0,65,130
Combo2 : 254,129,182
Combo3 : 255,255,66
Combo4 : 100,100,100
Combo5 : 153,44,6
Combo6 : 248,172,71

[HitObjects]
328,168,158,5,4,0:3:0:0:
392,76,408,2,0,L|400:12,2,40.0000001490115,0|0|4,0:0|0:0|0:3,0:0:0:0:
432,180,908,1,2,0:0:0:0:
432,180,1033,1,0,0:0:0:0:
432,180,1158,2,0,L|444:244,3,40.0000001490115,4|0|0|0,0:3|0:0|0:0|0:0,0:0:0:0:
416,284,1658,1,4,0:3:0:0:
136,348,2158,5,4,0:0:0:0:
64,264,2408,2,0,L|24:268,2,40.0000001490115,0|0|4,0:0|0:0|0:3,0:0:0:0:
160,208,2908,1,2,0:0:0:0:
160,208,3033,1,0,0:0:0:0:
160,208,3158,2,0,L|200:212,3,40.0000001490115,4|0|0|0,0:3|0:0|0:0|0:0,0:0:0:0:
256,172,3658,2,0,L|252:84,1,80.000000298023,4|0,0:3|0:0,0:0:0:0:
200,212,4158,5,4,0:3:0:0:
232,320,4408,2,0,L|220:372,2,40.0000001490115,0|0|4,0:0|0:0|0:3,0:0:0:0:
324,256,4908,1,2,0:0:0:0:
324,256,5033,1,0,0:0:0:0:
324,256,5158,2,0,L|375:240,3,40.0000001490115,4|0|0|0,0:3|0:0|0:0|0:0,0:0:0:0:
432,252,5658,1,4,0:3:0:0:
176,60,6158,6,0,L|164:176,1,95.9999974279402,4|0,0:0|0:0,0:0:0:0:
148,268,6658,1,8,0:3:0:0:
256,228,6908,1,2,0:0:0:0:
100,116,7158,2,0,L|88:240,1,95.9999974279402,4|0,0:3|0:0,0:0:0:0:
72,324,7658,1,4,0:3:0:0:
200,272,7908,1,0,0:0:0:0:
200,272,8033,1,0,0:0:0:0:
200,272,8158,6,0,B|260:252|260:252|420:273,1,191.99999485588,4|4,0:3|0:3,0:0:0:0:
304,348,8908,1,2,0:0:0:0:
260,184,9158,2,0,L|356:197,1,95.9999974279402,8|0,0:3|0:0,0:0:0:0:
436,276,9658,1,4,0:3:0:0:
460,132,9908,1,0,0:0:0:0:
460,132,10033,1,0,0:0:0:0:
460,132,10158,6,0,P|390:85|281:111,1,191.99999485588,4|4,0:0|0:3,0:0:0:0:
220,244,10908,2,0,L|216:196,1,47.9999987139701,2|0,0:0|0:0,0:0:0:0:
152,220,11158,2,0,L|156:268,3,47.9999987139701,4|0|0|0,0:3|0:0|0:0|0:0,0:0:0:0:
92,292,11658,2,0,L|88:244,3,47.9999987139701,4|0|0|0,0:3|0:0|0:0|0:0,0:0:0:0:
32,204,12158,5,4,0:0:0:0:
152,220,12408,1,0,0:0:0:0:
164,108,12658,1,4,0:3:0:0:
228,180,12908,1,2,0:0:0:0:
252,99,13158,2,0,P|306:148|272:252,1,191.99999485588,8|4,0:3|0:3,0:0:0:0:
164,292,13908,1,0,0:0:0:0:
276,364,14158,5,8,0:3:0:0:
273,250,14408,1,0,0:0:0:0:
376,304,14658,2,0,L|496:292,1,95.9999974279402,8|2,0:3|0:0,0:0:0:0:
408,184,15158,1,4,0:3:0:0:
376,304,15408,1,0,0:0:0:0:
273,250,15658,1,8,0:3:0:0:
308,116,15908,1,2,0:0:0:0:
308,116,16033,1,0,0:0:0:0:
308,116,16158,6,0,B|316:88|316:88|216:116|136:80,1,191.99999485588,4|4,0:0|0:3,0:0:0:0:
160,212,16908,2,0,P|128:209|106:203,1,47.9999987139701,2|0,0:0|0:0,0:0:0:0:
142,280,17158,2,0,P|166:279|190:274,3,47.9999987139701,4|0|0|0,0:3|0:0|0:0|0:0,0:0:0:0:
241,322,17658,6,0,P|221:336|156:336,2,63.9999982852935,4|0|0,0:3|0:0|0:0,0:0:0:0:
312,240,18158,5,8,0:3:0:0:
336,116,18408,1,0,0:0:0:0:
336,116,18533,1,0,0:0:0:0:
336,116,18658,2,0,P|324:49|290:19,1,95.9999974279402,4|2,0:3|0:0,0:0:0:0:
256,16,19033,1,0,0:0:0:0:
206,29,19158,2,0,P|185:90|221:180,2,143.99999614191,8|2|2,0:3|0:0|0:0,0:0:0:0:
297,102,20158,6,0,L|93:90,1,191.99999485588,4|4,0:0|0:3,0:0:0:0:
48,191,20908,2,0,P|71:203|99:205,1,47.9999987139701,2|0,0:0|0:0,0:0:0:0:
141,248,21158,2,0,L|141:318,3,47.9999987139701,4|0|0|0,0:3|0:0|0:0|0:0,0:0:0:0:
207,293,21658,6,0,L|206:229,2,63.9999982852935,4|0|0,0:3|0:0|0:0,0:0:0:0:
158,182,22158,5,8,0:3:0:0:
261,82,22408,1,0,0:0:0:0:
261,82,22533,1,0,0:0:0:0:
261,82,22658,1,4,0:3:0:0:
368,192,22908,1,2,0:0:0:0:
368,192,23033,1,0,0:0:0:0:
368,192,23158,2,0,L|524:200,2,143.99999614191,8|2|2,0:3|0:0|0:0,0:0:0:0:
264,280,24158,6,0,P|338:328|450:295,1,191.99999485588,4|4,0:0|0:3,0:0:0:0:
511,199,24908,1,2,0:0:0:0:
408,144,25158,2,0,P|394:197|406:248,1,95.9999974279402,8|0,0:3|0:0,0:0:0:0:
328,148,25658,2,0,P|275:162|236:198,1,95.9999974279402,4|0,0:3|0:0,0:0:0:0:
364,80,26158,6,0,L|168:72,1,191.99999485588,8|4,0:3|0:3,0:0:0:0:
68,124,26908,1,2,0:0:0:0:
164,188,27158,2,0,P|180:232|160:304,1,95.9999974279402,8|0,0:3|0:0,0:0:0:0:
120,380,27658,1,4,0:3:0:0:
28,312,27908,1,2,0:0:0:0:
174,280,28158,6,0,L|284:288,1,95.9999974279402,4|0,0:0|0:0,0:0:0:0:
164,188,28658,2,0,L|54:196,1,95.9999974279402,4|2,0:3|0:0,0:0:0:0:
240,207,29158,2,0,P|275:121|239:35,1,191.99999485588,8|4,0:3|0:3,0:0:0:0:
150,122,29908,1,0,0:0:0:0:
240,207,30158,5,4,0:3:0:0:
330,122,30408,1,0,0:0:0:0:
320,236,30658,2,0,L|328:332,1,95.9999974279402,8|2,0:3|0:0,0:0:0:0:
184,332,31158,2,0,L|192:236,1,95.9999974279402,8|2,0:3|0:0,0:0:0:0:
256,140,31658,1,4,0:3:0:0:
124,184,31908,1,2,0:0:0:0:
124,184,32033,1,0,0:0:0:0:
124,184,32158,6,0,P|55:144|123:104,1,191.99999485588,4|4,0:0|0:3,0:0:0:0:
236,136,32908,2,0,L|240:68,1,47.9999987139701,2|0,0:0|0:0,0:0:0:0:
308,116,33158,2,0,L|358:70,3,47.9999987139701,4|0|0|0,0:3|0:0|0:0|0:0,0:0:0:0:
372,156,33658,6,0,L|439:160,2,63.9999982852935,4|0|0,0:3|0:0|0:0,0:0:0:0:
236,136,34158,5,8,0:3:0:0:
296,264,34408,1,0,0:0:0:0:
296,264,34533,1,0,0:0:0:0:
296,264,34658,1,4,0:3:0:0:
379,163,34908,1,2,0:0:0:0:
379,163,35033,1,0,0:0:0:0:
379,163,35158,2,0,P|392:80|372:24,2,143.99999614191,8|2|2,0:3|0:0|0:0,0:0:0:0:
304,252,36158,6,0,P|224:284|112:240,1,191.99999485588,4|8,0:0|0:3,0:0:0:0:
80,148,36908,2,0,L|84:84,1,47.9999987139701
150,76,37158,2,0,L|148:124,3,47.9999987139701,4|0|0|0,0:3|0:0|0:0|0:0,0:0:0:0:
216,100,37658,6,0,L|220:36,2,63.9999982852935,4|0|0,0:3|0:0|0:0,0:0:0:0:
80,148,38158,5,8,0:3:0:0:
140,268,38408,1,0,0:0:0:0:
140,268,38533,1,0,0:0:0:0:
140,268,38658,1,8,0:3:0:0:
260,328,38908,1,2,0:0:0:0:
260,328,39033,1,0,0:0:0:0:
260,328,39158,2,0,L|88:336,2,143.99999614191,8|2|2,0:3|0:0|0:0,0:0:0:0:
372,300,40158,6,0,B|360:252|320:228|320:228|364:188|348:108,1,191.99999485588,4|4,0:0|0:3,0:0:0:0:
308,28,40908,1,2,0:0:0:0:
236,120,41158,2,0,P|204:120|164:128,2,47.9999987139701,8|0|0,0:3|0:0|0:0,0:0:0:0:
352,136,41658,2,0,P|400:146|448:135,1,95.9999974279402,4|0,0:3|0:0,0:0:0:0:
496,84,42033,1,0,0:0:0:0:
496,84,42158,6,0,L|492:296,1,191.99999485588,4|8,0:3|0:3,0:0:0:0:
428,372,42908,1,2,0:0:0:0:
420,256,43158,2,0,L|421:208,2,47.9999987139701,8|0|0,0:3|0:0|0:0,0:0:0:0:
324,320,43658,1,4,0:3:0:0:
220,236,43908,1,0,0:0:0:0:
220,236,44033,1,0,0:0:0:0:
220,236,44158,6,0,P|166:221|113:236,1,111.999996999264,2|2,0:0|0:0,0:0:0:0:
113,315,44533,2,0,P|166:330|220:316,1,111.999996999264,2|0,0:0|0:0,0:0:0:0:
288,276,44908,1,2,0:0:0:0:
268,132,45158,1,8,0:3:0:0:
264,112,45283,1,0,0:0:0:0:
260,92,45408,1,2,0:0:0:0:
256,72,45533,1,2,0:0:0:0:
251,51,45658,2,0,P|302:75|357:78,1,111.999996999264,4|2,0:3|0:0,0:0:0:0:
492,20,46158,6,0,L|495:131,1,111.999996999264,8|2,0:3|0:0,0:0:0:0:
428,172,46533,2,0,L|424:60,1,111.999996999264,2|0,0:0|0:0,0:0:0:0:
368,8,46908,1,2,0:0:0:0:
256,100,47158,1,4,0:3:0:0:
116,56,47408,2,0,P|79:48|24:60,2,74.6666646661757,2|0|0,0:0|0:0|0:0,0:0:0:0:
4,120,47908,1,2,0:0:0:0:
4,120,48033,1,0,0:0:0:0:
4,120,48158,6,0,L|7:231,1,111.999996999264,4|2,0:3|0:0,0:0:0:0:
76,192,48533,2,0,L|80:312,1,111.999996999264,2|0,0:0|0:0,0:0:0:0:
148,264,48908,1,2,0:0:0:0:
272,340,49158,1,8,0:3:0:0:
292,336,49283,1,0,0:0:0:0:
312,332,49408,1,2,0:0:0:0:
332,328,49533,1,2,0:0:0:0:
352,324,49658,2,0,L|508:336,1,111.999996999264,4|2,0:3|0:0,0:0:0:0:
420,192,50158,6,0,P|403:139|420:86,1,111.999996999264,8|2,0:3|0:0,0:0:0:0:
340,88,50533,2,0,P|330:133|346:207,1,111.999996999264,0|0,0:0|0:0,0:0:0:0:
384,264,50908,1,2,0:0:0:0:
256,196,51158,1,4,0:3:0:0:
128,263,51408,2,0,P|91:271|55:263,2,74.6666646661757,2|0|0,0:0|0:0|0:0,0:0:0:0:
4,212,51908,1,2,0:0:0:0:
4,212,52033,1,0,0:0:0:0:
4,212,52158,6,0,L|8:88,1,111.999996999264,4|2,0:3|0:0,0:0:0:0:
80,56,52533,2,0,L|83:167,1,111.999996999264,2|2,0:0|0:0,0:0:0:0:
128,240,52908,1,2,0:0:0:0:
224,132,53158,1,8,0:3:0:0:
244,124,53283,1,2,0:0:0:0:
264,120,53408,1,2,0:0:0:0:
284,124,53533,1,2,0:0:0:0:
304,132,53658,1,4,0:3:0:0:
416,224,53908,1,2,0:0:0:0:
298,310,54158,6,0,L|298:190,1,111.999996999264,4|0,0:3|0:0,0:0:0:0:
214,198,54533,2,0,L|214:310,1,111.999996999264,0|2,0:0|0:0,0:0:0:0:
256,384,54908,1,2,0:0:0:0:
298,198,55158,1,4,0:3:0:0:
144,176,55408,6,0,L|144:260,2,74.6666646661757,2|0|0,0:0|0:0|0:0,0:0:0:0:
244,92,55908,1,2,0:0:0:0:
244,92,56033,1,0,0:0:0:0:
244,92,56158,6,0,L|360:96,1,111.999996999264,4|2,0:3|0:0,0:0:0:0:
392,172,56533,2,0,L|280:168,1,111.999996999264,0|0,0:0|0:0,0:0:0:0:
196,164,56908,1,2,0:0:0:0:
268,292,57158,1,8,0:3:0:0:
288,304,57283,1,0,0:0:0:0:
312,308,57408,1,2,0:0:0:0:
336,304,57533,1,2,0:0:0:0:
356,291,57658,2,0,P|407:272|460:286,1,111.999996999264,4|2,0:3|0:0,0:0:0:0:
308,236,58158,6,0,P|312:180|288:116,1,111.999996999264,8|2,0:3|0:0,0:0:0:0:
216,127,58533,2,0,P|199:180|204:236,1,111.999996999264,0|2,0:0|0:0,0:0:0:0:
256,300,58908,1,2,0:0:0:0:
380,224,59158,1,4,0:3:0:0:
261,71,59408,6,0,L|365:77,2,74.6666646661757,2|0|0,0:0|0:0|0:0,0:0:0:0:
138,152,59908,1,2,0:0:0:0:
138,152,60033,1,0,0:0:0:0:
138,152,60158,6,0,P|142:200|138:248,1,95.9999974279402,4|2,0:3|0:0,0:0:0:0:
66,248,60533,2,0,P|62:200|66:152,1,95.9999974279402,2|2,0:0|0:0,0:0:0:0:
86,88,60908,1,2,0:0:0:0:
206,128,61158,2,0,L|282:132,4,47.9999987139701,8|0|2|0|4,0:3|0:0|0:0|0:0|0:3,0:0:0:0:
138,247,61908,1,2,0:0:0:0:
274,200,62158,6,0,L|414:208,1,95.9999974279402,4|2,0:3|0:0,0:0:0:0:
438,208,62533,2,0,P|486:164|486:120,1,95.9999974279402,0|2,0:0|0:0,0:0:0:0:
466,72,62908,1,2,0:0:0:0:
370,205,63158,1,8,0:3:0:0:
330,48,63408,1,2,0:0:0:0:
274,200,63658,1,4,0:3:0:0:
438,208,63908,1,0,0:0:0:0:
294,288,64158,6,0,P|236:281|189:231,1,95.9999974279402,8|0,0:3|0:0,0:0:0:0:
190,192,64533,2,0,P|214:137|280:118,1,95.9999974279402,2|2,0:0|0:0,0:0:0:0:
310,128,64908,1,2,0:0:0:0:
294,288,65158,2,0,L|302:348,4,47.9999987139701,8|0|2|0|8,0:3|0:0|0:0|0:0|0:3,0:0:0:0:
190,192,65908,1,2,0:0:0:0:
74,237,66158,6,0,P|57:192|73:148,1,95.9999974279402,4|0,0:3|0:0,0:0:0:0:
126,104,66533,2,0,L|242:112,1,95.9999974279402,2|2,0:0|0:0,0:0:0:0:
270,158,66908,1,2,0:0:0:0:
182,272,67158,1,4,0:3:0:0:
322,240,67408,1,2,0:0:0:0:
234,354,67658,1,4,0:3:0:0:
374,320,67908,1,2,0:0:0:0:
182,272,68158,5,4,0:3:0:0:
256,192,68283,12,4,70158,0:0:0:0:
