osu file format v14

[General]
AudioFilename: audio.mp3
AudioLeadIn: 0
PreviewTime: 44158
Countdown: 0
SampleSet: Soft
StackLeniency: 0.4
Mode: 0
LetterboxInBreaks: 0
WidescreenStoryboard: 1

[Editor]
Bookmarks: 70158
DistanceSpacing: 1.2
BeatDivisor: 4
GridSize: 4
TimelineZoom: 1.7

[Metadata]
Title:Generic Happy Music
TitleUnicode:Generic Happy Music
Artist:NicolArmarfi
ArtistUnicode:NicolArmarfi
Creator:Reazen
Version:Krfawy's Hard
Source:かたわ少女
Tags:hakamichi shizune shiina mikado misha hisao nakai visual novel eroge four leaf studios katawa shoujo lily satou emi ibarazaki hanako nozhomi krfawy
BeatmapID:1240998
BeatmapSetID:556443

[Difficulty]
HPDrainRate:4
CircleSize:4
OverallDifficulty:6
ApproachRate:6
SliderMultiplier:1.4
SliderTickRate:1

[Events]
//Background and Video events
0,0,"21994_katawa_shoujo.jpg",0,0
//Break Periods
//Storyboard Layer 0 (Background)
//Storyboard Layer 1 (Fail)
//Storyboard Layer 2 (Pass)
//Storyboard Layer 3 (Foreground)
//Storyboard Sound Samples

[TimingPoints]
2158,500,4,2,0,20,1,0
44158,-76.9230769230769,4,2,0,20,0,1
60158,-100,4,2,0,20,0,0
70283,-100,4,2,0,5,0,0

[Colours]
Combo1 : 0,65,130
Combo2 : 254,129,182
Combo3 : 255,255,66
Combo4 : 100,100,100
Combo5 : 153,44,6
Combo6 : 248,172,71

[HitObjects]
221,17,158,6,0,B|217:33|217:33|223:156,1,140,4|4,0:3|0:3,0:0:0:0:
265,229,908,1,2,0:0:0:0:
341,263,1158,2,0,L|375:268,2,35,4|0|0,0:3|0:0|0:0,0:0:0:0:
332,180,1658,1,4,0:3:0:0:
332,180,2158,6,0,B|391:187|391:187|444:193|465:169,1,140,4|4,0:0|0:3,0:0:0:0:
510,96,2908,1,2,0:0:0:0:
465,23,3158,2,0,L|430:17,2,35,4|0|0,0:3|0:0|0:0,0:0:0:0:
431,99,3658,2,0,L|396:93,2,35,4|0|0,0:3|0:0|0:0,0:0:0:0:
397,175,4158,6,0,B|375:199|389:250|389:250|404:308,1,140,4|4,0:3|0:3,0:0:0:0:
447,382,4908,1,2,0:0:0:0:
363,381,5158,2,0,L|328:383,2,35,4|0|0,0:3|0:0|0:0,0:0:0:0:
321,308,5658,1,4,0:3:0:0:
321,308,6158,6,0,B|256:283|256:283|191:308,1,140,4|8,0:0|0:3,0:0:0:0:
110,334,6908,1,2,0:0:0:0:
30,309,7158,2,0,L|11:279,2,35,4|0|0,0:3|0:0|0:0,0:0:0:0:
92,253,7658,2,0,L|73:223,2,35,4|0|0,0:3|0:0|0:0,0:0:0:0:
154,197,8158,6,0,B|163:227|215:241|215:241|273:256,1,140,4|4,0:3|0:3,0:0:0:0:
358,255,8908,1,2,0:0:0:0:
414,192,9158,1,8,0:3:0:0:
256,133,9658,1,4,0:3:0:0:
98,192,10158,6,0,B|115:219|169:219|169:219|229:219,1,140,4|4,0:0|0:3,0:0:0:0:
309,192,10908,1,2,0:0:0:0:
298,108,11158,2,0,L|303:50,2,35,8|0|0,0:3|0:0|0:0,0:0:0:0:
214,108,11658,2,0,L|209:50,2,35,4|0|0,0:3|0:0|0:0,0:0:0:0:
256,180,12158,5,4,0:0:0:0:
293,255,12408,1,0,0:0:0:0:
273,336,12658,1,4,0:3:0:0:
192,359,12908,1,2,0:0:0:0:
113,330,13158,2,0,B|97:245|129:277|113:192,1,140,8|4,0:3|0:3,0:0:0:0:
113,192,14158,5,8,0:3:0:0:
101,108,14408,1,0,0:0:0:0:
118,25,14658,2,0,P|79:26|46:44,1,70,8|2,0:3|0:0,0:0:0:0:
101,108,15158,1,4,0:3:0:0:
183,121,15408,1,0,0:0:0:0:
257,81,15658,1,8,0:3:0:0:
329,121,15908,2,0,L|387:116,2,35,2|0|4,0:0|0:0|0:0,0:0:0:0:
329,121,16658,5,4,0:3:0:0:
278,188,16908,1,2,0:0:0:0:
256,269,17158,2,0,B|224:267|193:311|193:311|158:360,2,140,8|4|8,0:3|0:3|0:3,0:3:0:0:
381,284,18533,5,0,0:0:0:0:
381,284,18658,2,0,L|478:272,1,70,4|2,0:3|0:0,0:0:0:0:
469,266,19033,1,0,0:0:0:0:
487,255,19158,2,0,B|477:227|477:227|497:154,1,105,8|2,0:3|0:0,0:0:0:0:
503,133,19658,2,0,P|468:134|438:116,1,70,4|2,0:3|0:0,0:0:0:0:
375,61,20158,6,0,B|290:45|322:77|237:61,1,140,4|4,0:0|0:3,0:0:0:0:
73,20,21158,2,0,B|82:47|82:47|53:154,2,140,4|4|8,0:3|0:3|0:3,0:0:0:0:
256,68,22533,5,0,0:0:0:0:
256,68,22658,2,0,L|244:165,1,70,4|2,0:3|0:0,0:0:0:0:
238,156,23033,1,0,0:0:0:0:
227,174,23158,2,0,B|199:164|199:164|126:184,1,105,8|2,0:3|0:0,0:0:0:0:
108,195,23658,2,0,L|98:280,2,70,4|2|4,0:3|0:0|0:0,0:0:0:0:
108,195,24658,5,4,0:3:0:0:
131,114,24908,1,2,0:0:0:0:
126,30,25158,1,8,0:3:0:0:
5,147,25658,1,4,0:3:0:0:
126,30,26158,6,0,B|211:14|179:46|264:30,1,140,8|4,0:3|0:3,0:0:0:0:
347,13,26908,1,2,0:0:0:0:
412,66,27158,2,0,P|445:72|479:70,1,70,8|0,0:3|0:0,0:0:0:0:
481,155,27658,2,0,P|446:149|412:151,1,70,4|2,0:3|0:0,0:0:0:0:
345,201,28158,5,4,0:0:0:0:
263,182,28408,1,0,0:0:0:0:
227,106,28658,1,4,0:3:0:0:
265,31,28908,1,2,0:0:0:0:
347,13,29158,2,0,B|356:43|408:57|408:57|466:72,1,140,8|4,0:3|0:3,0:0:0:0:
468,72,30158,5,4,0:3:0:0:
457,155,30408,1,0,0:0:0:0:
374,166,30658,2,0,P|339:165|309:183,1,70,8|2,0:3|0:0,0:0:0:0:
256,247,31158,1,8,0:3:0:0:
256,330,31408,1,2,0:0:0:0:
256,247,31658,1,4,0:3:0:0:
202,182,31908,1,2,0:0:0:0:
184,171,32033,1,0,0:0:0:0:
164,162,32158,5,4,0:0:0:0:
164,162,32658,1,4,0:3:0:0:
81,145,32908,1,2,0:0:0:0:
41,70,33158,2,0,B|75:67|99:42|99:42|124:40|124:40|168:19,2,140,8|4|8,0:3|0:3|0:3,0:0:0:0:
120,167,34533,5,0,0:0:0:0:
120,167,34658,2,0,L|217:179,1,70,4|2,0:3|0:0,0:0:0:0:
208,185,35033,1,0,0:0:0:0:
226,196,35158,2,0,B|216:224|216:224|236:297,1,105,8|2,0:3|0:0,0:0:0:0:
242,318,35658,2,0,P|207:317|177:335,1,70,4|2,0:3|0:0,0:0:0:0:
94,344,36158,6,0,P|152:312|151:245,1,140,4|8,0:0|0:3,0:0:0:0:
94,39,37158,2,0,P|152:71|151:138,2,140,8|4|8,0:3|0:3|0:3,0:0:0:0:
27,147,38533,5,0,0:0:0:0:
27,147,38658,2,0,L|39:244,1,70,8|2,0:3|0:0,0:0:0:0:
42,236,39033,1,0,0:0:0:0:
57,249,39158,2,0,B|88:259|88:259|160:259,1,105,8|2,0:3|0:0,0:0:0:0:
180,254,39658,2,0,P|228:254|265:264,2,70,4|2|4,0:3|0:0|0:0,0:0:0:0:
342,299,40658,5,4,0:3:0:0:
425,295,40908,1,2,0:0:0:0:
488,239,41158,2,0,P|488:172|430:140,1,140,8|4,0:3|0:3,0:0:0:0:
430,140,42158,6,0,P|395:139|361:132,1,70,4|0,0:3|0:0,0:0:0:0:
334,216,42658,2,0,P|342:249|344:284,1,70,8|2,0:3|0:0,0:0:0:0:
295,357,43158,2,0,B|264:342|256:302|256:302|248:342|217:357,1,140,8|4,0:3|0:3,0:0:0:0:
133,368,43908,1,0,0:0:0:0:
45,318,44158,5,2,0:0:0:0:
37,217,44408,2,0,P|38:194|45:172,2,45.4999979171754,2|2|8,0:0|0:0|0:3,0:0:0:0:
45,318,44908,1,2,0:0:0:0:
133,368,45158,2,0,L|195:355,3,45.4999979171754,8|0|2|2,0:3|0:0|0:0|0:0,0:0:0:0:
226,372,45658,1,4,0:3:0:0:
319,376,45908,1,2,0:0:0:0:
410,329,46158,6,0,B|421:310|421:310|439:243,1,90.9999958343508,8|2,0:3|0:0,0:0:0:0:
446,219,46533,1,2,0:0:0:0:
452,194,46658,1,8,0:3:0:0:
428,94,46908,1,2,0:0:0:0:
349,31,47158,2,0,B|355:62|347:94|335:126|303:138|271:134|259:94|271:54|303:50|335:62|347:94|355:126|349:157,1,272.999987503052,4|0,0:3|0:0,0:0:0:0:
307,248,48158,5,4,0:3:0:0:
256,334,48408,2,0,L|256:384,2,45.4999979171754,2|2|8,0:0|0:0|0:3,0:0:0:0:
205,248,48908,1,2,0:0:0:0:
256,161,49158,2,0,L|265:116,3,45.4999979171754,8|0|2|2,0:3|0:0|0:0|0:0,0:0:0:0:
256,67,49657,1,4,0:3:0:0:
355,54,49908,1,2,0:0:0:0:
454,42,50158,6,0,P|448:86|424:125,1,90.9999958343508,8|2,0:3|0:0,0:0:0:0:
406,141,50533,1,0,0:0:0:0:
385,155,50658,1,8,0:3:0:0:
294,197,50908,1,2,0:0:0:0:
240,281,51158,2,0,B|178:305|178:305|200:317|200:317|296:280|296:280|343:276|361:241,1,272.999987503052,4|2,0:3|0:0,0:0:0:0:
406,141,52158,6,0,P|375:77|351:64,1,90.9999958343508,4|2,0:3|0:0,0:0:0:0:
335,62,52532,1,2,0:0:0:0:
311,50,52658,2,0,P|295:33|284:12,2,45.4999979171754,8|2|2,0:3|0:0|0:0,0:0:0:0:
324,143,53158,1,8,0:3:0:0:
314,166,53283,1,2,0:0:0:0:
305,189,53408,1,2,0:0:0:0:
297,212,53533,1,2,0:0:0:0:
291,236,53658,1,4,0:3:0:0:
256,330,53908,1,2,0:0:0:0:
350,365,54158,5,4,0:3:0:0:
385,271,54408,1,0,0:0:0:0:
395,248,54533,1,2,0:0:0:0:
404,225,54658,2,0,L|426:152,2,45.4999979171754,4|2|2,0:3|0:0|0:0,0:0:0:0:
501,172,55158,2,0,B|487:100|416:83|377:108|377:108|416:83|416:83|399:59|402:23,1,272.999987503052,4|2,0:3|0:0,0:0:0:0:
504,31,56158,5,4,0:3:0:0:
402,24,56408,2,0,L|357:15,2,45.4999979171754,2|0|8,0:0|0:0|0:3,0:0:0:0:
504,31,56907,1,2,0:0:0:0:
501,172,57158,2,0,L|488:234,3,45.4999979171754,8|0|2|2,0:3|0:0|0:0|0:0,0:0:0:0:
505,265,57658,1,4,0:3:0:0:
480,363,57908,1,2,0:0:0:0:
380,369,58158,6,0,B|325:358|345:379|290:369,1,90.9999958343508,8|2,0:3|0:0,0:0:0:0:
266,361,58533,1,0,0:0:0:0:
242,348,58658,2,0,P|225:334|205:323,2,45.4999979171754,8|2|2,0:3|0:0|0:0,0:0:0:0:
128,273,59158,2,0,B|122:242|130:210|142:178|174:166|206:170|218:210|206:250|174:254|142:242|130:210|122:178|128:147,1,272.999987503052,4|2,0:3|0:0,0:0:0:0:
159,68,60158,5,4,0:3:0:0:
235,102,60408,2,0,L|230:136,2,35,2|0|8,0:0|0:0|0:3,0:0:0:0:
226,19,60908,1,2,0:0:0:0:
302,53,61158,2,0,B|327:74|317:127|317:127|307:186,1,140,8|4,0:3|0:3,0:0:0:0:
319,268,61908,1,2,0:0:0:0:
404,273,62158,5,4,0:3:0:0:
426,192,62408,2,0,L|431:158,2,35,2|0|8,0:0|0:0|0:3,0:0:0:0:
404,273,62908,1,2,0:0:0:0:
357,344,63158,2,0,L|281:339,1,70,8|2,0:3|0:0,0:0:0:0:
203,353,63658,1,4,0:3:0:0:
119,367,63908,1,2,0:0:0:0:
55,311,64158,6,0,P|42:246|94:203,1,140,8|4,0:3|0:3,0:0:0:0:
173,174,64908,1,2,0:0:0:0:
256,164,65158,2,0,L|256:128,2,35,8|0|0,0:3|0:0|0:0,0:0:0:0:
339,174,65658,2,0,P|374:175|404:157,1,70,8|2,0:3|0:0,0:0:0:0:
474,113,66158,6,0,B|429:187|470:168|426:242,1,140,4|8,0:3|0:3,0:0:0:0:
390,319,66908,1,2,0:0:0:0:
308,341,67158,2,0,P|260:341|203:273,1,140,4|4,0:3|0:3,0:0:0:0:
188,192,67908,1,2,0:0:0:0:
203,109,68158,6,0,P|209:76|207:42,1,70,4|0,0:3|0:0,0:0:0:0:
305,39,68658,2,0,P|302:74|309:109,1,70,4|2,0:3|0:0,0:0:0:0:
347,184,69158,1,8,0:3:0:0:
366,265,69408,1,2,0:0:0:0:
330,341,69658,1,4,0:3:0:0:
250,366,69908,1,0,0:0:0:0:
175,327,70158,5,4,0:0:0:0:
256,192,70283,12,4,74158,0:0:0:0:
