osu file format v14

[General]
AudioFilename: audio.mp3
AudioLeadIn: 0
PreviewTime: 44158
Countdown: 0
SampleSet: Soft
StackLeniency: 0.7
Mode: 0
LetterboxInBreaks: 0
WidescreenStoryboard: 0

[Editor]
Bookmarks: 52158
DistanceSpacing: 1
BeatDivisor: 4
GridSize: 4
TimelineZoom: 1

[Metadata]
Title:Generic Happy Music
TitleUnicode:Generic Happy Music
Artist:NicolArmarfi
ArtistUnicode:NicolArmarfi
Creator:Reazen
Version:Easy
Source:かたわ少女
Tags:hakamichi shizune shiina mikado misha hisao nakai visual novel eroge four leaf studios katawa shoujo lily satou emi ibarazaki hanako nozhomi krfawy
BeatmapID:1177624
BeatmapSetID:556443

[Difficulty]
HPDrainRate:2
CircleSize:3
OverallDifficulty:3
ApproachRate:2
SliderMultiplier:0.600000005960464
SliderTickRate:1

[Events]
//Background and Video events
0,0,"21994_katawa_shoujo.jpg",0,0
//Break Periods
//Storyboard Layer 0 (Background)
//Storyboard Layer 1 (Fail)
//Storyboard Layer 2 (Pass)
//Storyboard Layer 3 (Foreground)
//Storyboard Sound Samples

[TimingPoints]
2158,500,4,2,0,20,1,0
2158,-100,4,2,0,10,0,0
6158,-100,4,2,0,20,0,0
44158,-100,4,2,0,20,0,1
60158,-100,4,2,0,20,0,0

[Colours]
Combo1 : 0,65,130
Combo2 : 254,129,182
Combo3 : 255,255,66
Combo4 : 100,100,100
Combo5 : 153,44,6
Combo6 : 248,172,71

[HitObjects]
110,256,6158,6,0,P|76:206|72:147,2,120.000001192093,4|0|4,0:0|0:0|0:0,0:0:0:0:
154,296,8658,1,8,0:0:0:0:
206,325,9158,1,0,0:0:0:0:
304,257,10158,6,0,P|337:207|341:148,2,120.000001192093,4|0|4,0:0|0:0|0:0,0:0:0:0:
260,297,12658,1,8,0:0:0:0:
208,326,13158,1,0,0:0:0:0:
148,220,14158,6,0,P|204:204|268:220,1,120.000001192093,4|0,0:0|0:0,0:0:0:0:
312,251,15658,1,8,0:0:0:0:
360,287,16158,6,0,B|406:334|474:317|474:317|501:263|467:201,1,240.000002384186,4|0,0:0|0:0,0:0:0:0:
434,156,18658,1,8,0:0:0:0:
399,106,19158,1,0,0:0:0:0:
345,78,19658,1,8,0:0:0:0:
285,74,20158,6,0,B|246:74|230:94|216:114|176:115,2,120.000001192093,4|0|0,0:0|0:0|0:0,0:0:0:0:
345,78,22658,1,8,0:0:0:0:
399,106,23158,1,0,0:0:0:0:
434,156,23658,1,8,0:0:0:0:
433,215,24158,6,0,B|376:269|325:263|276:255|217:310,1,240.000002384186,4|0,0:0|0:0,0:0:0:0:
117,376,27158,1,8,0:0:0:0:
64,267,28158,6,0,P|67:201|140:151,1,120.000001192093,4|0,0:0|0:0,0:0:0:0:
160,141,29658,1,8,0:0:0:0:
207,175,30158,2,0,P|236:225|227:282,1,120.000001192093,4|0,0:0|0:0,0:0:0:0:
250,339,31658,1,8,0:0:0:0:
306,315,32158,6,0,B|332:285|356:286|382:288|408:260,2,120.000001192093,4|0|4,0:0|0:0|0:0,0:0:0:0:
262,356,34658,1,8,0:0:0:0:
202,357,35158,1,0,0:0:0:0:
148,329,35658,1,8,0:0:0:0:
155,269,36158,6,0,B|129:237|105:237|79:238|55:208,2,120.000001192093,4|0|4,0:0|0:0|0:0,0:0:0:0:
204,303,38658,1,8,0:0:0:0:
264,305,39158,1,0,0:0:0:0:
322,323,39658,1,8,0:0:0:0:
358,278,40158,6,0,B|392:203|315:117|349:42,1,240.000002384186,4|4,0:0|0:0,0:0:0:0:
461,88,43158,1,8,0:0:0:0:
350,43,44158,22,0,P|368:11|388:-6,2,60.0000005960464,4|8|0,0:0|0:0|0:0,0:0:0:0:
359,102,45658,1,8,0:0:0:0:
359,162,46158,2,0,P|324:228|268:263,1,120.000001192093,4|0,0:0|0:0,0:0:0:0:
173,262,48158,70,0,L|97:271,2,60.0000005960464,4|8|0,0:0|0:0|0:0,0:0:0:0:
232,266,49658,1,8,0:0:0:0:
289,255,50158,2,0,P|334:216|359:162,1,120.000001192093,4|0,0:0|0:0,0:0:0:0:
302,56,52158,21,4,0:0:0:0:
243,64,52658,1,8,0:0:0:0:
183,70,53158,1,0,0:0:0:0:
123,78,53658,1,8,0:0:0:0:
64,86,54158,2,0,P|60:144|15:212,1,120.000001192093,4|0,0:0|0:0,0:0:0:0:
145,230,56158,69,4,0:0:0:0:
201,209,56658,1,8,0:0:0:0:
255,185,57158,1,0,0:0:0:0:
311,165,57658,1,8,0:0:0:0:
367,145,58158,2,0,P|366:72|391:16,1,120.000001192093,4|0,0:0|0:0,0:0:0:0:
456,125,60158,38,0,P|448:184|408:228,1,120.000001192093,4|0,0:0|0:0,0:0:0:0:
348,240,61658,1,8,0:0:0:0:
289,228,62158,2,0,P|249:184|240:125,1,120.000001192093,4|0,0:0|0:0,0:0:0:0:
239,9,64158,21,4,0:0:0:0:
240,126,65158,1,0,0:0:0:0:
284,166,65658,1,8,0:0:0:0:
328,206,66158,2,0,P|240:222|151:206,1,180.000001788139,4|8,0:0|0:0,0:0:0:0:
256,192,68158,12,4,70158,0:1:0:0:
