osu file format v14

[General]
AudioFilename: audio.mp3
AudioLeadIn: 0
PreviewTime: 44158
Countdown: 0
SampleSet: Soft
StackLeniency: 0.7
Mode: 0
LetterboxInBreaks: 0
WidescreenStoryboard: 0

[Editor]
DistanceSpacing: 1
BeatDivisor: 4
GridSize: 8
TimelineZoom: 1

[Metadata]
Title:Generic Happy Music
TitleUnicode:Generic Happy Music
Artist:NicolArmarfi
ArtistUnicode:NicolArmarfi
Creator:Reazen
Version:Normal
Source:かたわ少女
Tags:hakamichi shizune shiina mikado misha hisao nakai visual novel eroge four leaf studios katawa shoujo lily satou emi ibarazaki hanako nozhomi krfawy
BeatmapID:1177625
BeatmapSetID:556443

[Difficulty]
HPDrainRate:3
CircleSize:3.5
OverallDifficulty:5
ApproachRate:4
SliderMultiplier:1.00000000596046
SliderTickRate:1

[Events]
//Background and Video events
0,0,"21994_katawa_shoujo.jpg",0,0
//Break Periods
//Storyboard Layer 0 (Background)
//Storyboard Layer 1 (Fail)
//Storyboard Layer 2 (Pass)
//Storyboard Layer 3 (Foreground)
//Storyboard Sound Samples

[TimingPoints]
2158,500,4,2,0,20,1,0
2158,-100,4,2,0,10,0,0
6158,-100,4,2,0,20,0,0
44158,-90.9090909090909,4,2,0,20,0,1
60158,-100,4,2,0,20,0,0

[Colours]
Combo1 : 0,65,130
Combo2 : 254,129,182
Combo3 : 255,255,66
Combo4 : 100,100,100
Combo5 : 153,44,6
Combo6 : 248,172,71

[HitObjects]
79,142,6158,6,0,P|97:236|185:273,1,200.000001192092,4|0,0:0|0:0,0:0:0:0:
175,174,7658,1,8,0:0:0:0:
143,79,8158,6,0,P|236:96|273:189,1,200.000001192092,4|0,0:0|0:0,0:0:0:0:
245,281,9658,1,8,0:0:0:0:
308,358,10158,6,0,B|350:317|341:260|341:260|393:256|417:213,1,200.000001192092,4|0,0:0|0:0,0:0:0:0:
332,158,11658,1,8,0:0:0:0:
236,188,12158,6,0,P|195:236|189:289,2,100.000000596046,4|8|0,0:0|0:0|0:0,0:0:0:0:
332,158,13658,1,8,0:0:0:0:
400,231,14158,6,0,P|426:189|428:134,1,100.000000596046,4|8,0:0|0:0,0:0:0:0:
332,158,15158,2,0,P|310:182|302:207,1,50.000000298023
292,248,15658,1,8,0:0:0:0:
292,298,15908,1,0,0:0:0:0:
285,347,16158,6,0,B|212:322|169:350|169:350|126:325|143:263,1,200.000001192092,4|0,0:0|0:0,0:0:0:0:
205,206,17658,1,8,0:0:0:0:
298,180,18158,6,0,P|338:266|286:347,1,200.000001192092,4|0,0:0|0:0,0:0:0:0:
237,259,19658,1,8,0:0:0:0:
137,246,20158,5,4,0:0:0:0:
41,270,20658,2,0,P|40:221|81:163,1,100.000000596046,8|0,0:0|0:0,0:0:0:0:
137,246,21658,1,8,0:0:0:0:
175,333,22158,22,0,P|230:344|282:333,1,100.000000596046,4|8,0:0|0:0,0:0:0:0:
316,311,22908,1,0,0:0:0:0:
327,263,23158,2,0,P|309:209|273:170,1,100.000000596046,0|8,0:0|0:0,0:0:0:0:
239,150,23908,1,0,0:0:0:0:
192,168,24158,6,0,P|173:214|139:250,1,100.000000596046,4|8,0:0|0:0,0:0:0:0:
94,160,25158,1,0,0:0:0:0:
126,65,25658,1,8,0:0:0:0:
222,38,26158,6,0,B|263:80|320:71|320:71|324:123|367:147,1,200.000001192092,4|0,0:0|0:0,0:0:0:0:
416,59,27658,1,8,0:0:0:0:
469,146,28158,6,0,P|455:207|416:244,2,100.000000596046,4|8|0,0:0|0:0|0:0,0:0:0:0:
369,155,29658,1,8,0:0:0:0:
342,251,30158,6,0,P|361:296|405:329,1,100.000000596046,0|8,0:0|0:0,0:0:0:0:
437,234,31158,2,0,L|437:176,1,50.000000298023
439,133,31658,1,8,0:0:0:0:
440,83,31908,1,0,0:0:0:0:
440,33,32158,6,0,B|373:62|294:17|236:43,1,200.000001192092,4|0,0:0|0:0,0:0:0:0:
159,96,33658,1,8,0:0:0:0:
232,164,34158,38,0,B|288:164|320:204|320:204|352:164|408:164,1,200.000001192092
398,263,35658,1,8,0:0:0:0:
486,309,36158,6,0,P|394:360|304:298,1,200.000001192092,4|0,0:0|0:0,0:0:0:0:
274,230,37658,1,8,0:0:0:0:
174,236,38158,22,0,P|120:221|78:189,1,100.000000596046,0|8,0:0|0:0,0:0:0:0:
51,157,38908,1,0,0:0:0:0:
71,111,39158,2,0,P|111:70|161:51,1,100.000000596046,0|8,0:0|0:0,0:0:0:0:
199,49,39908,1,0,0:0:0:0:
229,88,40158,6,0,P|245:142|238:194,1,100.000000596046,4|8,0:0|0:0,0:0:0:0:
195,273,41158,1,0,0:0:0:0:
294,271,41658,1,8,0:0:0:0:
365,341,42158,6,0,P|393:286|386:239,1,100.000000596046,0|8,0:0|0:0,0:0:0:0:
313,184,43158,2,0,P|289:140|291:91,1,100.000000596046,0|8,0:0|0:0,0:0:0:0:
187,55,44158,21,4,0:0:0:0:
140,84,44408,1,0,0:0:0:0:
111,130,44658,2,0,P|100:160|95:204,1,55.0000020062922,8|0,0:0|0:0,0:0:0:0:
67,229,45158,2,0,L|-1:254,2,55.0000020062922,0|0|8,0:0|0:0|0:0,0:0:0:0:
169,260,46158,5,4,0:0:0:0:
222,267,46408,2,0,P|249:261|274:249,1,55.0000020062922,0|8,0:0|0:0,0:0:0:0:
324,225,46908,1,0,0:0:0:0:
369,194,47158,2,0,P|354:133|300:99,1,110.000004012584,0|8,0:0|0:0,0:0:0:0:
222,54,48158,5,4,0:0:0:0:
168,39,48408,1,0,0:0:0:0:
113,33,48658,2,0,P|80:43|41:70,1,55.0000020062922,8|0,0:0|0:0,0:0:0:0:
14,82,49158,2,0,L|15:-1,2,55.0000020062922,0|0|8,0:0|0:0|0:0,0:0:0:0:
28,187,50158,6,0,P|25:220|32:266,1,55.0000020062922,4|0,0:0|0:0,0:0:0:0:
38,295,50658,1,8,0:0:0:0:
58,346,50908,1,0,0:0:0:0:
108,323,51158,2,0,P|165:305|232:328,1,110.000004012584,0|8,0:0|0:0,0:0:0:0:
322,308,52158,5,4,0:0:0:0:
368,279,52408,2,0,P|372:251|366:224,1,55.0000020062922,0|8,0:0|0:0,0:0:0:0:
337,177,52908,1,0,0:0:0:0:
290,147,53158,2,0,L|289:72,2,55.0000020062922,0|0|8,0:0|0:0|0:0,0:0:0:0:
240,171,53908,1,0,0:0:0:0:
187,188,54158,6,0,P|154:197|120:198,1,55.0000020062922,4|0,0:0|0:0,0:0:0:0:
81,175,54658,1,8,0:0:0:0:
53,127,54908,1,0,0:0:0:0:
31,76,55158,2,0,P|64:40|141:34,1,110.000004012584,0|8,0:0|0:0,0:0:0:0:
231,41,56158,5,4,0:0:0:0:
242,94,56408,2,0,P|231:132|208:169,1,55.0000020062922,0|8,0:0|0:0,0:0:0:0:
192,190,56908,1,0,0:0:0:0:
153,229,57158,2,0,L|163:312,2,55.0000020062922,0|0|8,0:0|0:0|0:0,0:0:0:0:
103,204,57907,1,0,0:0:0:0:
63,164,58158,6,0,L|-5:191,2,55.0000020062922,4|0|8,0:0|0:0|0:0,0:0:0:0:
76,110,58908,1,0,0:0:0:0:
76,55,59158,2,0,L|4:27,2,55.0000020062922,0|0|8,0:0|0:0|0:0,0:0:0:0:
175,46,60158,6,0,P|231:62|296:33,1,100.000000596046,4|8,0:0|0:0,0:0:0:0:
319,42,60908,1,0,0:0:0:0:
367,52,61158,2,0,P|418:37|471:59,1,100.000000596046,0|8,0:0|0:0,0:0:0:0:
484,95,61908,1,0,0:0:0:0:
480,144,62158,6,0,P|430:168|375:163,1,100.000000596046,4|8,0:0|0:0,0:0:0:0:
336,158,62908,1,0,0:0:0:0:
287,146,63158,2,0,P|253:198|256:243,1,100.000000596046,0|8,0:0|0:0,0:0:0:0:
331,296,64158,6,0,P|393:293|427:265,1,100.000000596046,4|8,0:0|0:0,0:0:0:0:
458,237,64908,1,0,0:0:0:0:
451,187,65158,2,0,P|391:134|368:128,1,100.000000596046,0|8,0:0|0:0,0:0:0:0:
323,136,65908,1,0,0:0:0:0:
273,144,66158,6,0,L|230:193,1,50.000000298023,4|0,0:0|0:0,0:0:0:0:
236,231,66658,2,0,L|234:294,1,50.000000298023,8|0,0:0|0:0,0:0:0:0:
269,316,67158,2,0,L|331:331,1,50.000000298023
363,308,67658,2,0,L|375:249,1,50.000000298023,8|0,0:0|0:0,0:0:0:0:
362,210,68158,5,4,0:0:0:0:
256,192,68408,12,4,70158,0:1:0:0:
