osu file format v14

[General]
AudioFilename: audio.mp3
AudioLeadIn: 0
PreviewTime: 32039
Countdown: 0
SampleSet: Soft
StackLeniency: 0.7
Mode: 0
LetterboxInBreaks: 0
WidescreenStoryboard: 0

[Editor]
DistanceSpacing: 1.6
BeatDivisor: 4
GridSize: 4
TimelineZoom: 0.8000021

[Metadata]
Title:Friendship
TitleUnicode:Friendship
Artist:NicolArmarfi
ArtistUnicode:NicolArmarfi
Creator:Ovoui
Version:Normal
Source:かたわ少女
Tags:Katawa Shoujo Yaleufeu Kyuukai Krfawy
BeatmapID:1396660
BeatmapSetID:642780

[Difficulty]
HPDrainRate:4
CircleSize:4
OverallDifficulty:5
ApproachRate:5
SliderMultiplier:1.1
SliderTickRate:2

[Events]
//Background and Video events
0,0,"lilly_bedroom_large.jpg",0,0
//Break Periods
2,51383,54268
//Storyboard Layer 0 (Background)
//Storyboard Layer 1 (Fail)
//Storyboard Layer 2 (Pass)
//Storyboard Layer 3 (Foreground)
//Storyboard Sound Samples

[TimingPoints]
39,666.666666666667,3,2,1,25,1,0
46705,705.882352941176,3,2,1,25,1,0
47762,794.701986754967,3,2,1,25,1,0
48160,821.917808219178,3,2,1,25,1,0
48160,-100,3,2,1,25,0,0
48570,845.070422535211,3,2,1,25,1,0
48994,937.5,3,2,1,25,1,0
49462,1000,3,2,1,25,1,0
49962,1111.11111111111,3,2,1,25,1,0
50517,1333.33333333333,3,2,1,25,1,0
51183,1428.57142857143,3,2,1,5,1,0
55468,-50,3,2,1,25,0,0
55825,-50,3,2,1,5,0,0
59754,-50,3,2,1,25,0,0
60111,-50,3,2,1,5,0,0
64040,-50,3,2,1,25,0,0
64754,-50,3,2,1,5,0,0

[Colours]
Combo1 : 64,0,128
Combo2 : 255,255,121
Combo3 : 0,64,128
Combo4 : 255,174,94

[HitObjects]
248,248,39,6,0,P|288:240|200:184,1,275,2|0,0:0|0:0,0:0:0:0:
158,263,2039,2,0,P|258:319|378:231,1,275,2|0,0:0|0:0,0:0:0:0:
376,144,4039,6,0,P|272:64|148:128,1,275,2|0,0:0|0:0,0:0:0:0:
116,198,6039,2,0,B|180:254|180:254|376:258,1,275,2|0,0:0|0:0,0:0:0:0:
419,339,8039,6,0,L|128:333,1,275,4|0,0:0|0:0,0:0:0:0:
84,268,10039,2,0,P|68:224|88:164,1,110,2|0,0:0|0:0,0:0:0:0:
152,224,11039,2,0,P|212:232|280:208,1,110,2|0,0:0|0:0,0:0:0:0:
300,140,12039,6,0,B|292:84|292:84|344:52,1,110,2|0,0:0|0:0,0:0:0:0:
384,132,13039,2,0,L|376:244,1,110,2|0,0:0|0:0,0:0:0:0:
316,304,14039,2,0,P|360:328|424:320,1,110,2|0,0:0|0:0,0:0:0:0:
464,248,15039,1,0,0:0:0:0:
432,164,15372,1,4,0:0:0:0:
472,84,15705,1,0,0:0:0:0:
400,32,16039,6,0,L|272:48,1,110,2|0,0:0|0:0,0:0:0:0:
204,40,17039,1,0,0:0:0:0:
240,120,17372,1,6,0:0:0:0:
152,116,17705,1,0,0:0:0:0:
192,192,18039,2,0,P|184:260|144:284,1,110,4|0,0:0|0:0,0:0:0:0:
68,260,19039,1,8,0:0:0:0:
68,260,20039,6,0,L|60:76,1,165,2|0,0:0|0:0,0:0:0:0:
128,40,21372,1,4,0:0:0:0:
184,108,21705,1,2,0:0:0:0:
260,60,22039,2,0,B|308:32|308:32|368:56,1,110,4|0,0:0|0:0,0:0:0:0:
316,128,23039,1,8,0:0:0:0:
316,128,24039,6,0,P|308:187|340:252,1,110,2|0,0:0|0:0,0:0:0:0:
388,172,25039,1,0,0:0:0:0:
316,128,25372,1,2,0:0:0:0:
244,176,25705,1,2,0:0:0:0:
168,128,26039,2,0,P|120:116|60:152,1,110,4|0,0:0|0:0,0:0:0:0:
28,220,27039,2,0,L|28:336,1,110,2|0,0:0|0:0,0:0:0:0:
100,380,28039,6,0,L|100:248,1,110,2|0,0:0|0:0,0:0:0:0:
124,184,29039,1,0,0:0:0:0:
192,240,29372,1,4,0:0:0:0:
216,156,29705,1,0,0:0:0:0:
280,216,30039,2,0,P|332:220|384:176,1,110,2|0,0:0|0:0,0:0:0:0:
308,132,31039,1,0,0:0:0:0:
280,216,31372,1,4,0:0:0:0:
252,300,31705,1,2,0:0:0:0:
184,244,32039,6,0,L|176:116,1,110,2|0,0:0|0:0,0:0:0:0:
112,76,33039,1,0,0:0:0:0:
28,108,33372,1,2,0:0:0:0:
16,196,33705,1,2,0:0:0:0:
84,251,34039,2,0,P|132:267|188:239,1,110,2|0,0:0|0:0,0:0:0:0:
248,304,35039,2,0,P|296:327|347:311,1,110,2|0,0:0|0:0,0:0:0:0:
412,248,36039,5,2,0:0:0:0:
412,248,36705,1,2,0:0:0:0:
329,220,37039,1,0,0:0:0:0:
256,268,37372,1,8,0:0:0:0:
252,356,37705,1,4,0:0:0:0:
256,268,38039,2,0,P|208:152|72:176,1,275,10|0,0:0|0:0,0:0:0:0:
60,256,40039,6,0,L|60:328,1,55,2|0,0:0|0:0,0:0:0:0:
144,336,40705,2,0,L|204:336,1,55,0|4,0:0|0:0,0:0:0:0:
288,336,41372,2,0,L|348:336,1,55,8|0,0:0|0:0,0:0:0:0:
428,364,42039,6,0,P|432:336|424:296,1,55,2|0,0:0|0:0,0:0:0:0:
360,256,42705,1,4,0:0:0:0:
272,248,43039,2,0,L|216:248,1,55,4|0,0:0|0:0,0:0:0:0:
132,276,43705,1,8,0:0:0:0:
48,308,44039,6,0,B|112:356|112:356|200:356,1,165,2|0,0:0|0:0,0:0:0:0:
280,332,45372,1,0,0:0:0:0:
304,248,45705,1,4,0:0:0:0:
221,272,46039,1,0,0:0:0:0:
256,192,46205,12,0,51183,0:0:0:0:
164,104,55468,6,0,P|268:64|132:176,1,660,2|4,0:0|0:0,0:0:0:0:
0,192,64040,6,0,B|40:76|212:76|256:192|256:192|308:308|484:308|524:164,1,660,4|2,0:0|0:0,0:0:0:0:
