osu file format v14

[General]
AudioFilename: audio.mp3
AudioLeadIn: 0
PreviewTime: 0
Countdown: 1
SampleSet: Normal
StackLeniency: 0.7
Mode: 0
LetterboxInBreaks: 0
WidescreenStoryboard: 0

[Editor]
Bookmarks: 10037
DistanceSpacing: 1.8
BeatDivisor: 4
GridSize: 16
TimelineZoom: 2

[Metadata]
Title:Outer Science
TitleUnicode:アウターサイエンス
Artist:NicoNicoChorus
ArtistUnicode:NicoNicoChorus 合唱
Creator:Lokidoki
Version:first tragedy
Source:
Tags:Nico Nico Douga Vocaloid cover chorus dark spooky
BeatmapID:974673
BeatmapSetID:452484

[Difficulty]
HPDrainRate:7.8
CircleSize:3.8
OverallDifficulty:8
ApproachRate:9.7
SliderMultiplier:1.7
SliderTickRate:1

[Events]
//Background and Video events
0,0,"outersciencebgyay (1).jpg",0,0
//Break Periods
2,80756,81753
2,83063,84369
2,85525,86831
//Storyboard Layer 0 (Background)
//Storyboard Layer 1 (Fail)
//Storyboard Layer 2 (Pass)
//Storyboard Layer 3 (Foreground)
//Storyboard Sound Samples

[TimingPoints]
1634,307.692307692308,4,1,0,100,1,0
51095,-200,4,1,0,100,0,0
58172,-100,4,1,0,100,0,0
60634,-66.6666666666667,4,1,0,100,0,0
60710,-66.6666666666667,4,1,0,100,0,1
80710,-200,4,1,0,100,0,0
89018,-100,4,1,0,100,0,0

[HitObjects]
256,192,4172,12,0,6403,0:0:0:0:
256,192,6557,5,0,0:0:0:0:
256,192,6710,12,0,10018,0:0:0:0:
368,336,10403,5,0,0:0:0:0:
224,176,10557,1,0,0:0:0:0:
352,160,10710,5,0,0:0:0:0:
208,288,10864,1,0,0:0:0:0:
224,176,11018,2,0,B|256:128|256:128|288:144|320:96|320:96|304:16,1,212.5
256,192,11538,12,0,16307,0:0:0:0:
144,112,16557,5,0,0:0:0:0:
256,272,16711,1,0,0:0:0:0:
272,128,16864,5,0,0:0:0:0:
128,272,17018,2,0,L|80:240,2,42.5
208,224,17249,1,0,0:0:0:0:
224,320,17326,1,0,0:0:0:0:
288,272,17403,2,0,L|368:288,1,42.5
352,256,17557,1,0,0:0:0:0:
320,80,17634,1,0,0:0:0:0:
320,80,17787,2,0,L|192:160,1,170
160,64,18249,5,0,0:0:0:0:
288,224,18403,1,0,0:0:0:0:
128,320,18557,1,0,0:0:0:0:
144,64,18729,1,0,0:0:0:0:
272,320,18864,1,0,0:0:0:0:
288,176,19018,2,0,B|240:224|176:160|160:112|160:112|112:176|64:96,1,255
144,32,19634,1,0,0:0:0:0:
128,208,19787,1,0,0:0:0:0:
304,112,19941,1,0,0:0:0:0:
128,320,20095,5,0,0:0:0:0:
112,208,20249,2,0,B|208:176|192:256|192:256|256:304|304:208,2,255
224,112,21326,1,0,0:0:0:0:
368,192,21480,1,0,0:0:0:0:
368,96,21634,2,0,P|320:112|288:176,1,85
320,32,21941,1,0,0:0:0:0:
336,240,22095,1,0,0:0:0:0:
368,128,22249,2,0,P|320:176|272:176,1,85
416,80,22556,5,0,0:0:0:0:
192,176,22710,1,0,0:0:0:0:
272,80,22864,2,0,P|320:128|336:176,1,85
224,256,23172,1,0,0:0:0:0:
272,80,23326,1,0,0:0:0:0:
144,96,23480,2,0,P|80:112|64:144,1,85
144,320,23787,1,0,0:0:0:0:
320,208,23941,1,0,0:0:0:0:
208,32,24095,2,0,P|240:64|240:128,1,85
320,48,24402,5,0,0:0:0:0:
162,288,24556,1,0,0:0:0:0:
96,240,24710,2,0,P|160:288|192:288,1,85
288,352,25019,1,0,0:0:0:0:
288,144,25173,1,0,0:0:0:0:
368,320,25326,1,0,0:0:0:0:
208,192,25480,1,0,0:0:0:0:
352,208,25634,2,0,P|432:240|464:288,2,127.5
208,48,26230,6,0,L|80:96,1,127.5
288,48,26768,2,0,L|416:112,1,127.5
192,128,27384,6,0,L|64:176,1,127.5
272,128,28018,2,0,L|400:192,1,127.5
208,48,28710,6,0,L|80:96,1,127.5
288,48,29326,2,0,L|416:112,1,127.5
256,96,29922,6,0,B|240:144|240:144|272:144|272:144|240:160|240:160|272:160|272:160|256:160|256:160|256:176|256:176|256:368,1,340
160,304,30691,2,0,L|64:240,2,85
160,192,31172,5,0,0:0:0:0:
272,208,31326,2,0,L|304:128,1,85
368,288,31634,1,0,0:0:0:0:
240,112,31787,1,0,0:0:0:0:
160,304,31941,1,0,0:0:0:0:
400,208,32095,1,0,0:0:0:0:
128,144,32249,1,0,0:0:0:0:
288,336,32403,1,0,0:0:0:0:
288,80,32557,1,0,0:0:0:0:
128,272,32710,5,0,0:0:0:0:
336,128,32864,1,0,0:0:0:0:
112,96,33018,1,0,0:0:0:0:
64,272,33172,6,0,B|112:192|112:192|128:208|128:240|240:192,1,170
224,64,33634,5,0,0:0:0:0:
176,320,33787,1,0,0:0:0:0:
320,208,33941,1,0,0:0:0:0:
80,112,34095,1,0,0:0:0:0:
288,320,34249,1,0,0:0:0:0:
240,96,34403,1,0,0:0:0:0:
128,288,34557,1,0,0:0:0:0:
304,128,34710,1,0,0:0:0:0:
112,176,34864,1,0,0:0:0:0:
224,32,35018,5,0,0:0:0:0:
256,288,35172,1,0,0:0:0:0:
80,160,35326,1,0,0:0:0:0:
256,64,35480,1,0,0:0:0:0:
288,304,35634,1,0,0:0:0:0:
384,96,35864,2,0,B|336:112|336:112|336:144|336:144|304:160|304:160|256:144,1,127.5
192,48,36249,5,0,0:0:0:0:
192,304,36403,1,0,0:0:0:0:
336,160,36557,1,0,0:0:0:0:
96,160,36710,1,0,0:0:0:0:
288,48,36864,1,0,0:0:0:0:
128,304,37018,1,0,0:0:0:0:
208,48,37172,1,0,0:0:0:0:
320,304,37326,1,0,0:0:0:0:
112,320,37480,5,0,0:0:0:0:
352,160,37634,1,0,0:0:0:0:
112,240,37787,1,0,0:0:0:0:
400,240,37941,1,0,0:0:0:0:
128,160,38095,1,0,0:0:0:0:
384,304,38249,1,0,0:0:0:0:
384,304,38326,2,0,B|304:320|304:320|320:256|208:240,1,212.5
128,208,38864,1,0,0:0:0:0:
112,144,39018,5,0,0:0:0:0:
112,96,39172,1,0,0:0:0:0:
272,96,39249,2,0,P|368:48|464:80,1,212.5
368,128,39787,1,0,0:0:0:0:
240,224,39864,2,0,B|272:176|256:240|352:272,1,127.5
384,208,40172,2,0,L|416:160,2,42.5
432,272,40403,2,0,P|464:304|432:384,1,127.5
320,304,40710,5,0,0:0:0:0:
208,176,40864,1,0,0:0:0:0:
336,80,41018,1,0,0:0:0:0:
336,80,41095,1,0,0:0:0:0:
336,80,41172,2,0,L|224:48,1,85
80,160,41480,5,0,0:0:0:0:
176,336,41634,1,0,0:0:0:0:
272,160,41787,1,0,0:0:0:0:
64,256,41941,1,0,0:0:0:0:
304,288,42095,1,0,0:0:0:0:
160,112,42249,1,0,0:0:0:0:
112,336,42403,1,0,0:0:0:0:
320,128,42557,1,0,0:0:0:0:
80,192,42710,1,0,0:0:0:0:
80,192,42787,6,0,L|144:96,1,85
208,304,43095,2,0,L|336:368,1,127.5
224,96,43480,5,0,0:0:0:0:
96,288,43634,1,0,0:0:0:0:
320,160,43787,1,0,0:0:0:0:
272,320,43941,1,0,0:0:0:0:
208,192,44095,1,0,0:0:0:0:
144,96,44172,1,0,0:0:0:0:
144,96,44249,2,0,P|96:128|96:208,1,127.5
208,176,44710,5,0,0:0:0:0:
112,336,44787,1,0,0:0:0:0:
112,336,44864,2,0,B|128:256|160:352|256:288,1,170
192,224,45326,1,0,0:0:0:0:
64,208,45480,2,0,P|48:144|128:128,2,127.5
144,304,46094,5,0,0:0:0:0:
256,128,46248,1,0,0:0:0:0:
272,320,46402,1,0,0:0:0:0:
112,240,46556,1,0,0:0:0:0:
272,144,46710,1,0,0:0:0:0:
240,336,46863,1,0,0:0:0:0:
144,192,47017,1,0,0:0:0:0:
320,160,47171,1,0,0:0:0:0:
256,336,47325,1,0,0:0:0:0:
208,160,47479,5,0,0:0:0:0:
368,256,47633,1,0,0:0:0:0:
224,352,47786,1,0,0:0:0:0:
240,96,47940,1,0,0:0:0:0:
240,224,48094,1,0,0:0:0:0:
240,96,48248,1,0,0:0:0:0:
288,224,48402,1,0,0:0:0:0:
240,96,48556,1,0,0:0:0:0:
176,224,48710,1,0,0:0:0:0:
48,112,48787,6,0,B|192:64|256:160|432:96,1,382.5
400,192,49634,2,0,L|352:288,1,85
288,208,49941,2,0,L|304:160,2,42.5
224,160,50172,1,0,0:0:0:0:
96,240,50326,1,0,0:0:0:0:
176,320,50403,2,0,L|240:368,1,42.5
208,256,50557,2,0,L|256:256,1,42.5
192,192,50710,2,0,L|240:160,1,42.5
144,144,50864,2,0,L|160:96,1,42.5
288,32,51172,6,0,B|256:64|320:144|288:240,2,212.5
416,128,52864,1,0,0:0:0:0:
448,256,53172,2,0,B|416:304|352:256|288:288,1,170
48,272,54095,2,0,B|48:192|64:288|112:352|176:208|112:112|336:144,1,361.25
256,128,55787,2,0,B|208:192|144:128|144:128|80:160,2,191.25
192,64,57480,2,0,B|224:48|336:112|352:16|368:16,1,191.25
128,112,58403,5,0,0:0:0:0:
288,224,58557,1,0,0:0:0:0:
288,48,58864,5,0,0:0:0:0:
176,288,59018,1,0,0:0:0:0:
80,192,59172,5,0,0:0:0:0:
368,96,59326,1,0,0:0:0:0:
432,224,59480,6,0,B|384:272|336:208|272:256,1,170
256,192,59941,12,0,60634,0:0:0:0:
144,240,60864,5,0,0:0:0:0:
368,112,61018,1,0,0:0:0:0:
272,336,61172,1,0,0:0:0:0:
176,112,61326,1,0,0:0:0:0:
400,272,61480,1,0,0:0:0:0:
160,272,61634,1,0,0:0:0:0:
352,64,61787,2,0,P|304:160|224:128,2,191.250007295609
448,144,62326,2,0,B|400:192|400:192|416:224|464:240|464:240|448:288|400:336,1,255.000009727478
407,327,62787,1,0,0:0:0:0:
336,240,63018,6,0,P|272:288|272:352,1,127.500004863739
240,96,63326,5,0,0:0:0:0:
48,176,63480,1,0,0:0:0:0:
160,288,63634,1,0,0:0:0:0:
144,64,63788,1,0,0:0:0:0:
208,320,63941,1,0,0:0:0:0:
352,128,64095,1,0,0:0:0:0:
64,208,64249,2,0,B|144:160|144:160|96:272|224:320,2,255.000009727478
64,96,64941,2,0,P|192:80|224:192,1,255.000009727478
144,160,65480,5,0,0:0:0:0:
160,256,65634,1,0,0:0:0:0:
400,176,65787,1,0,0:0:0:0:
331,62,65941,1,0,0:0:0:0:
331,62,66018,2,0,B|256:128|192:96|192:96|144:176|192:224,1,255.000009727478
384,192,66557,5,0,0:0:0:0:
160,272,66711,1,0,0:0:0:0:
368,352,66864,1,0,0:0:0:0:
256,128,67018,1,0,0:0:0:0:
240,336,67172,2,0,P|320:304|400:208,1,191.250007295609
240,240,67480,1,0,0:0:0:0:
416,96,67634,1,0,0:0:0:0:
256,128,67787,1,0,0:0:0:0:
448,288,67941,1,0,0:0:0:0:
336,176,68095,6,0,B|288:128|288:128|240:112|176:128|144:192,1,191.250007295609
256,224,68557,2,0,P|160:288|96:256,1,191.250007295609
224,96,68864,1,0,0:0:0:0:
304,320,69018,1,0,0:0:0:0:
320,160,69172,6,0,P|224:192|160:224,1,127.500004863739
224,48,69480,2,0,L|144:128,1,63.7500024318696
288,112,69634,2,0,L|336:48,1,63.7500024318696
416,80,69787,2,0,L|368:160,1,63.7500024318696
464,176,69941,2,0,L|512:96,1,63.7500024318696
416,352,70249,1,0,0:0:0:0:
352,192,70403,1,0,0:0:0:0:
256,336,70557,1,0,0:0:0:0:
112,224,70634,6,0,P|160:176|128:224,1,191.250007295609
160,191,70941,2,0,P|176:256|288:272,1,191.250007295609
256,160,71326,1,0,0:0:0:0:
384,64,71480,1,0,0:0:0:0:
416,288,71634,1,0,0:0:0:0:
208,144,71787,1,0,0:0:0:0:
256,320,71941,2,0,B|256:208|304:256|304:256|384:224|336:112,1,255.000009727478
176,208,72403,1,0,0:0:0:0:
320,48,72557,1,0,0:0:0:0:
160,80,72710,5,0,0:0:0:0:
336,224,72864,1,0,0:0:0:0:
288,128,73018,5,0,0:0:0:0:
240,208,73172,1,0,0:0:0:0:
256,320,73326,1,0,0:0:0:0:
368,352,73480,1,0,0:0:0:0:
400,160,73634,2,0,P|320:192|304:256,2,127.500004863739
240,112,74095,1,0,0:0:0:0:
240,112,74249,2,0,P|176:160|96:160,1,127.500004863739
224,272,74557,1,0,0:0:0:0:
224,272,74710,2,0,P|272:224|368:224,1,127.500004863739
368,128,75018,5,0,0:0:0:0:
368,128,75172,1,0,0:0:0:0:
368,128,75326,1,0,0:0:0:0:
240,80,75480,1,0,0:0:0:0:
144,240,75634,1,0,0:0:0:0:
368,160,75787,1,0,0:0:0:0:
128,112,75941,1,0,0:0:0:0:
128,112,76095,2,0,L|64:224,1,127.500004863739
224,144,76403,5,0,0:0:0:0:
320,208,76557,1,0,0:0:0:0:
256,304,76710,1,0,0:0:0:0:
176,224,76864,1,0,0:0:0:0:
288,112,77018,1,0,0:0:0:0:
416,224,77172,1,0,0:0:0:0:
272,352,77326,1,0,0:0:0:0:
160,192,77480,1,0,0:0:0:0:
352,64,77634,1,0,0:0:0:0:
288,176,77787,5,0,0:0:0:0:
208,112,77941,2,0,L|160:192,2,63.7500024318696
240,336,78249,1,0,0:0:0:0:
384,128,78403,2,0,L|288:176,2,63.7500024318696
112,176,78710,1,0,0:0:0:0:
256,336,78864,1,0,0:0:0:0:
416,192,79018,1,0,0:0:0:0:
256,32,79172,1,0,0:0:0:0:
256,320,79326,1,0,0:0:0:0:
272,160,79480,6,0,P|160:176|144:224,2,127.500004863739
336,352,79941,2,0,P|400:336|448:272,2,127.500004863739
96,128,80403,1,0,0:0:0:0:
96,128,80480,2,0,L|208:160,1,63.7500024318696
192,96,82248,6,0,P|144:128|128:160,2,85
240,288,84864,6,0,B|240:272|240:272|224:256|224:256|240:240|240:240|256:192|256:192|240:160,1,127.5
400,160,87326,6,0,P|400:208|384:224,2,63.75
288,240,87941,1,0,0:0:0:0:
288,80,88095,1,0,0:0:0:0:
288,80,88172,1,0,0:0:0:0:
288,80,88249,1,0,0:0:0:0:
128,192,88403,1,0,0:0:0:0:
224,320,88557,1,0,0:0:0:0:
320,96,88710,1,0,0:0:0:0:
128,224,88864,1,0,0:0:0:0:
320,160,89018,1,0,0:0:0:0:
208,128,89172,6,0,P|208:176|224:192,2,42.5
336,48,89480,1,0,0:0:0:0:
240,224,89634,1,0,0:0:0:0:
400,80,89941,5,0,0:0:0:0:
421,116,90017,1,0,0:0:0:0:
431,157,90094,1,0,0:0:0:0:
428,199,90171,1,0,0:0:0:0:
432,240,90249,2,0,B|400:288|464:304|416:384,1,127.5
368,320,90557,5,0,0:0:0:0:
304,192,90710,1,0,0:0:0:0:
128,288,90864,1,0,0:0:0:0:
224,96,91018,1,0,0:0:0:0:
288,288,91172,1,0,0:0:0:0:
112,192,91326,1,0,0:0:0:0:
352,80,91480,1,0,0:0:0:0:
208,288,91634,1,0,0:0:0:0:
192,144,91787,2,0,P|272:176|288:208,2,85
224,240,92249,6,0,P|256:272|320:272,2,85
352,96,92710,1,0,0:0:0:0:
352,96,92864,1,0,0:0:0:0:
128,192,93018,1,0,0:0:0:0:
304,336,93172,1,0,0:0:0:0:
240,96,93326,1,0,0:0:0:0:
176,272,93480,1,0,0:0:0:0:
176,272,93634,1,0,0:0:0:0:
384,160,93787,1,0,0:0:0:0:
96,176,93864,6,0,B|160:240|224:128|304:208,1,212.5
336,96,94403,1,0,0:0:0:0:
224,272,94557,1,0,0:0:0:0:
400,208,94710,1,0,0:0:0:0:
192,96,94864,1,0,0:0:0:0:
320,176,95018,2,0,P|272:192|208:208,1,85
176,144,95326,5,0,0:0:0:0:
128,240,95480,1,0,0:0:0:0:
208,320,95634,1,0,0:0:0:0:
320,256,95787,1,0,0:0:0:0:
320,256,95864,6,0,L|448:160,1,127.5
192,224,96249,1,0,0:0:0:0:
272,96,96403,1,0,0:0:0:0:
208,304,96557,1,0,0:0:0:0:
336,224,96710,1,0,0:0:0:0:
144,128,96864,1,0,0:0:0:0:
336,112,97018,1,0,0:0:0:0:
160,288,97172,1,0,0:0:0:0:
256,192,97326,1,0,0:0:0:0:
256,192,97480,1,0,0:0:0:0:
192,128,97634,5,0,0:0:0:0:
64,224,97787,1,0,0:0:0:0:
144,80,97941,5,0,0:0:0:0:
128,272,98095,1,0,0:0:0:0:
224,208,98249,5,0,0:0:0:0:
64,112,98403,1,0,0:0:0:0:
240,112,98557,5,0,0:0:0:0:
64,224,98710,1,0,0:0:0:0:
256,128,98864,1,0,0:0:0:0:
256,288,99018,1,0,0:0:0:0:
256,288,99095,6,0,L|352:384,1,127.5
368,208,99480,1,0,0:0:0:0:
304,144,99634,1,0,0:0:0:0:
240,208,99787,1,0,0:0:0:0:
192,128,99941,2,0,P|144:160|128:224,2,85
