osu file format v14

[General]
AudioFilename: audio.mp3
AudioLeadIn: 0
PreviewTime: 0
Countdown: 1
SampleSet: Normal
StackLeniency: 0.7
Mode: 0
LetterboxInBreaks: 0
WidescreenStoryboard: 1

[Editor]
Bookmarks: 10037,51095,80480,80710,100095,119864,160403
DistanceSpacing: 1.5
BeatDivisor: 4
GridSize: 4
TimelineZoom: 2

[Metadata]
Title:Outer Science
TitleUnicode:アウターサイエンス
Artist:NicoNicoChorus
ArtistUnicode:NicoNicoChorus 合唱
Creator:Lokidoki
Version:Revised Hyper Start
Source:
Tags:Nico Nico Douga Vocaloid cover chorus dark spooky
BeatmapID:978905
BeatmapSetID:452484

[Difficulty]
HPDrainRate:6
CircleSize:3
OverallDifficulty:6
ApproachRate:7
SliderMultiplier:1.4
SliderTickRate:1

[Events]
//Background and Video events
0,0,"outersciencebgyay (1).jpg",0,0
//Break Periods
2,51064,57503
2,80602,81349
2,83064,83810
//Storyboard Layer 0 (Background)
//Storyboard Layer 1 (Fail)
//Storyboard Layer 2 (Pass)
//Storyboard Layer 3 (Foreground)
//Storyboard Sound Samples

[TimingPoints]
1634,307.692307692308,4,1,0,100,1,0
50864,-200,4,1,0,100,0,0
51095,-200,4,1,0,100,0,0
58172,-100,4,1,0,100,0,0
60634,-90.9090909090909,4,1,0,100,0,1
80480,-90.9090909090909,4,1,0,100,0,0
84864,-133.333333333333,4,1,0,100,0,0
87172,-90.9090909090909,4,1,0,100,0,0
87634,-100,4,1,0,100,0,0
119864,-90.9090909090909,4,1,0,100,0,1
139787,-90.9090909090909,4,1,0,100,0,0
143787,-100,4,1,0,100,0,0
144249,-90.9090909090909,4,1,0,100,0,0
170249,-90.9090909090909,4,1,0,100,0,1
192557,-90.9090909090909,4,1,0,100,0,0

[HitObjects]
256,192,1633,12,0,6249,0:0:0:0:
256,192,6557,12,0,9941,0:0:0:0:
304,128,11480,5,2,0:0:0:0:
368,212,11634,1,0,0:0:0:0:
300,288,11787,2,0,L|208:284,1,70,8|0,0:0|0:0,0:0:0:0:
124,272,12095,1,0,0:0:0:0:
192,192,12249,1,0,0:0:0:0:
112,124,12403,2,0,P|140:100|176:84,1,70,8|0,0:0|0:0,0:0:0:0:
276,80,12710,6,0,L|372:84,1,70
428,148,13018,2,0,P|440:216|408:300,1,140,8|0,0:0|0:0,0:0:0:0:
328,336,13480,1,0,0:0:0:0:
328,336,13634,2,0,L|236:332,1,70,8|0,0:0|0:0,0:0:0:0:
168,280,13941,5,0,0:0:0:0:
264,236,14095,1,0,0:0:0:0:
176,176,14249,2,0,L|88:180,2,70,8|0|0,0:0|0:0|0:0,0:0:0:0:
276,140,14710,1,0,0:0:0:0:
360,200,14864,2,0,P|420:196|456:176,1,70,8|0,0:0|0:0,0:0:0:0:
496,84,15172,5,0,0:0:0:0:
340,136,15480,1,8,0:0:0:0:
340,136,15787,1,0,0:0:0:0:
260,60,16095,1,8,0:0:0:0:
260,60,16403,6,0,P|302:57|352:68,1,70,2|0,0:0|0:0,0:0:0:0:
288,160,16710,2,0,B|240:180|200:140|148:160,1,140,8|0,0:0|0:0,0:0:0:0:
180,260,17172,1,0,0:0:0:0:
264,320,17326,2,0,P|300:324|336:320,1,70,8|0,0:0|0:0,0:0:0:0:
416,252,17634,6,0,L|424:152,1,70
384,84,17941,2,0,P|328:68|284:76,1,70,8|0,0:0|0:0,0:0:0:0:
236,136,18249,2,0,P|188:140|152:128,1,70
68,96,18557,2,0,L|72:176,1,70,8|0,0:0|0:0,0:0:0:0:
148,240,18864,6,0,L|144:320,1,70
248,288,19172,2,0,P|296:296|392:268,1,140,8|0,0:0|0:0,0:0:0:0:
320,188,19634,1,0,0:0:0:0:
412,136,19787,2,0,P|428:84|424:40,1,70,8|0,0:0|0:0,0:0:0:0:
324,80,20095,5,0,0:0:0:0:
236,188,20403,1,8,0:0:0:0:
332,260,20710,1,0,0:0:0:0:
324,80,21018,1,8,0:0:0:0:
176,228,21326,5,2,0:0:0:0:
176,228,21480,1,0,0:0:0:0:
176,228,21634,2,0,L|84:240,1,70,8|0,0:0|0:0,0:0:0:0:
136,136,21941,5,0,0:0:0:0:
136,136,22095,1,0,0:0:0:0:
136,136,22249,2,0,P|176:128|228:136,1,70,8|0,0:0|0:0,0:0:0:0:
288,196,22557,5,0,0:0:0:0:
288,196,22711,1,0,0:0:0:0:
288,196,22865,2,0,P|328:204|380:196,1,70,8|0,0:0|0:0,0:0:0:0:
444,144,23172,5,0,0:0:0:0:
444,144,23326,1,0,0:0:0:0:
444,144,23480,2,0,L|452:48,1,70,8|0,0:0|0:0,0:0:0:0:
344,88,23787,5,0,0:0:0:0:
244,116,23941,1,0,0:0:0:0:
144,80,24095,2,0,L|52:84,1,70,8|0,0:0|0:0,0:0:0:0:
112,180,24403,5,0,0:0:0:0:
212,208,24557,1,0,0:0:0:0:
312,172,24711,2,0,L|404:176,1,70,8|0,0:0|0:0,0:0:0:0:
448,260,25018,6,0,P|452:320|444:352,2,70,0|0|8,0:0|0:0|0:0,0:0:0:0:
348,292,25480,1,0,0:0:0:0:
244,312,25634,2,0,B|172:320|172:320|104:312,1,140,0|8,0:0|0:0,0:0:0:0:
128,104,26249,6,0,L|96:200,2,70,2|0|8,0:0|0:0|0:0,0:0:0:0:
336,92,26864,2,0,L|368:172,2,70,0|0|8,0:0|0:0|0:0,0:0:0:0:
180,232,27480,2,0,L|148:328,2,70,0|0|8,0:0|0:0|0:0,0:0:0:0:
392,232,28095,2,0,L|408:312,2,70,0|0|8,0:0|0:0|0:0,0:0:0:0:
288,48,28710,2,0,L|368:32,2,70,0|0|8,0:0|0:0|0:0,0:0:0:0:
112,164,29326,2,0,L|16:148,2,70,0|0|8,0:0|0:0|0:0,0:0:0:0:
304,248,29941,5,0,0:0:0:0:
408,248,30095,1,0,0:0:0:0:
408,144,30249,1,8,0:0:0:0:
304,140,30403,2,0,P|250:155|200:228,2,140
304,248,31172,6,0,P|352:296|432:296,1,140,0|8,0:0|0:0,0:0:0:0:
428,196,31634,1,0,0:0:0:0:
328,168,31788,1,0,0:0:0:0:
232,212,31942,1,0,0:0:0:0:
232,212,32095,2,0,P|180:260|104:260,1,140
100,160,32557,1,0,0:0:0:0:
176,88,32710,1,0,0:0:0:0:
176,88,32864,2,0,P|224:64|308:76,2,140
224,180,33634,1,0,0:0:0:0:
224,180,33787,5,0,0:0:0:0:
324,208,33941,1,0,0:0:0:0:
248,280,34095,1,0,0:0:0:0:
160,220,34249,2,0,P|76:260|56:324,1,140
144,360,34710,1,0,0:0:0:0:
240,316,34864,1,0,0:0:0:0:
340,348,35018,1,0,0:0:0:0:
340,348,35172,2,0,P|400:332|460:264,2,140
356,244,35941,2,0,L|276:228,1,70
192,276,36249,5,0,0:0:0:0:
172,144,36403,1,0,0:0:0:0:
24,148,36557,1,0,0:0:0:0:
172,144,36710,2,0,L|60:76,2,105
172,40,37326,2,0,L|240:80,1,70
312,108,37634,6,0,L|280:172,1,70
384,160,37941,2,0,L|424:76,2,70
476,212,38403,1,0,0:0:0:0:
460,316,38557,1,0,0:0:0:0:
368,368,38710,1,0,0:0:0:0:
308,284,38864,2,0,L|228:344,1,70
192,240,39172,2,0,L|152:304,1,70
116,200,39480,2,0,L|168:128,2,70
48,120,39941,6,0,B|80:44|108:88|160:28,2,140
64,224,40710,1,0,0:0:0:0:
144,156,40864,1,0,0:0:0:0:
144,156,41018,2,0,P|196:232|208:288,1,140
312,280,41480,2,0,L|380:208,2,70
264,184,41941,1,0,0:0:0:0:
340,112,42095,1,0,0:0:0:0:
340,112,42249,2,0,P|392:132|420:208,2,140
189,83,43018,5,0,0:0:0:0:
189,83,43172,1,0,0:0:0:0:
96,128,43480,2,0,P|80:164|0:236,1,140
216,268,44095,2,0,P|252:228|348:180,1,140
456,352,44710,2,0,P|504:248|492:208,1,140
324,112,45326,1,0,0:0:0:0:
248,184,45480,1,0,0:0:0:0:
204,88,45634,2,0,L|120:136,1,70
116,264,45941,5,0,0:0:0:0:
116,264,46095,2,0,P|180:276|256:216,2,140
164,172,46864,1,0,0:0:0:0:
164,172,47018,1,0,0:0:0:0:
84,104,47172,1,0,0:0:0:0:
156,28,47326,2,0,P|208:48|232:80,1,70
268,152,47634,1,0,0:0:0:0:
336,72,47787,1,0,0:0:0:0:
268,152,47941,2,0,P|284:204|308:232,1,70
388,168,48249,1,0,0:0:0:0:
388,168,48403,5,0,0:0:0:0:
452,252,48557,1,0,0:0:0:0:
452,252,48710,2,0,L|384:328,1,70
280,256,49018,2,0,P|304:172|268:124,2,140
180,224,49787,2,0,B|112:200|112:200|148:144|104:112,1,140
224,100,50249,1,0,0:0:0:0:
224,100,50403,1,0,0:0:0:0:
224,100,50557,1,0,0:0:0:0:
224,100,50710,1,0,0:0:0:0:
224,100,50864,1,0,0:0:0:0:
252,156,58403,5,0,0:0:0:0:
332,88,58557,1,0,0:0:0:0:
316,208,58864,5,0,0:0:0:0:
396,144,59018,1,0,0:0:0:0:
384,248,59326,5,0,0:0:0:0:
460,176,59480,1,0,0:0:0:0:
256,192,59634,12,0,60403,0:0:0:0:
192,204,60710,5,0,0:0:0:0:
192,88,60864,1,0,0:0:0:0:
292,148,61018,1,0,0:0:0:0:
268,260,61172,1,0,0:0:0:0:
268,260,61326,2,0,P|240:296|156:304,2,115.50000352478
300,148,61941,2,0,P|392:164|408:160,1,77.0000023498536
304,72,62249,2,0,P|256:88|236:108,1,77.0000023498536
300,204,62557,1,0,0:0:0:0:
300,204,62710,2,0,P|280:248|220:260,2,77.0000023498536
340,96,63172,5,0,0:0:0:0:
340,96,63326,1,0,0:0:0:0:
340,96,63480,2,0,L|392:176,1,77.0000023498536
304,248,63787,2,0,P|340:296|376:304,1,77.0000023498536
264,376,64095,1,0,0:0:0:0:
228,264,64249,2,0,B|192:304|148:280|148:280|108:336,1,154.000004699707
36,244,64710,1,0,0:0:0:0:
36,244,64864,2,0,B|60:168|112:168|112:168|148:108,1,154.000004699707
208,48,65326,5,0,0:0:0:0:
308,108,65480,1,0,0:0:0:0:
200,152,65634,1,0,0:0:0:0:
300,208,65787,1,0,0:0:0:0:
300,208,65941,2,0,L|228:288,2,77.0000023498536
388,132,66403,6,0,P|400:176|396:236,3,77.0000023498536
292,248,67018,1,0,0:0:0:0:
384,316,67172,1,0,0:0:0:0:
272,348,67326,1,0,0:0:0:0:
176,284,67480,1,0,0:0:0:0:
140,172,67634,2,0,P|68:184|40:256,2,154.000004699707
200,72,68403,1,0,0:0:0:0:
244,180,68557,2,0,P|184:240|172:256,1,77.0000023498536
296,276,68864,2,0,P|360:208|440:204,1,154.000004699707
336,116,69326,6,0,L|396:68,3,77.0000023498536
228,80,69941,2,0,L|184:168,3,77.0000023498536
116,236,70557,2,0,B|144:328|192:184|248:272,1,154.000004699707
328,184,71018,1,0,0:0:0:0:
328,184,71172,1,0,0:0:0:0:
296,72,71326,2,0,P|396:116|448:120,1,154.000004699707
368,212,71787,2,0,P|396:272|464:256,2,115.50000352478
380,96,72403,1,0,0:0:0:0:
476,168,72557,2,0,L|484:112,2,38.5000011749268
256,96,73018,6,0,B|192:124|160:140|160:140|132:76|52:120,1,231.000007049561
104,224,73634,1,0,0:0:0:0:
216,196,73787,1,0,0:0:0:0:
136,280,73941,2,0,P|180:324|288:312,2,154.000004699707
228,208,74710,1,0,0:0:0:0:
228,208,74864,2,0,P|168:184|152:164,1,77.0000023498536
64,108,75172,6,0,L|144:48,2,77.0000023498536
52,224,75634,2,0,L|124:260,2,77.0000023498536
160,180,76095,2,0,L|236:108,1,77.0000023498536
308,200,76403,1,0,0:0:0:0:
364,100,76557,1,0,0:0:0:0:
292,12,76710,2,0,L|200:56,2,77.0000023498536
272,128,77172,1,0,0:0:0:0:
160,100,77326,1,0,0:0:0:0:
84,188,77480,2,0,B|36:232|8:240|28:256|36:232,1,77.0000023498536
140,268,77787,6,0,B|188:216|188:216|164:208|152:168|212:132|288:136|324:172|284:248|284:248|280:264|320:304,3,385.000011749268
420,240,80249,2,0,L|428:200,2,38.5000011749268
192,152,82249,6,0,B|152:200|192:200|124:168|88:200|160:312|184:244,2,154.000004699707
144,184,84710,5,0,0:0:0:0:
144,184,84864,2,0,B|140:232|140:232|140:252|204:248|208:212|232:200|248:244,1,157.500006008148
224,212,87172,6,0,P|240:176|304:160,3,77.0000023498536
316,260,87787,1,0,0:0:0:0:
316,260,87941,1,0,0:0:0:0:
400,196,88095,2,0,P|452:224|456:256,2,70
476,124,88557,1,0,0:0:0:0:
404,48,88710,1,0,0:0:0:0:
308,92,88864,1,0,0:0:0:0:
256,192,89018,12,0,89941,0:0:0:0:
292,136,90249,5,0,0:0:0:0:
192,168,90403,1,0,0:0:0:0:
140,260,90557,1,0,0:0:0:0:
72,180,90710,1,0,0:0:0:0:
92,76,90864,2,0,B|144:36|144:36|168:80|240:52,1,140
256,156,91326,5,0,0:0:0:0:
316,68,91480,1,0,0:0:0:0:
364,160,91634,1,0,0:0:0:0:
448,100,91787,1,0,0:0:0:0:
444,204,91941,1,0,0:0:0:0:
392,296,92095,2,0,P|340:244|252:240,2,140
320,332,92864,1,0,0:0:0:0:
224,292,93018,1,0,0:0:0:0:
124,328,93172,1,0,0:0:0:0:
60,244,93326,6,0,P|84:176|148:132,2,140
164,228,94095,1,0,0:0:0:0:
256,280,94249,1,0,0:0:0:0:
256,176,94403,1,0,0:0:0:0:
256,176,94557,1,0,0:0:0:0:
324,96,94710,1,0,0:0:0:0:
324,96,94864,2,0,P|252:88|184:116,1,140
148,16,95326,5,0,0:0:0:0:
52,56,95480,1,0,0:0:0:0:
64,160,95634,1,0,0:0:0:0:
160,120,95787,1,0,0:0:0:0:
124,220,95941,1,0,0:0:0:0:
124,220,96095,2,0,P|130:292|81:347,1,140
16,264,96557,1,0,0:0:0:0:
76,180,96710,1,0,0:0:0:0:
8,100,96864,1,0,0:0:0:0:
8,100,97018,6,0,B|64:64|132:80|84:120|152:128|232:116,1,210
240,220,97634,1,0,0:0:0:0:
292,128,97787,1,0,0:0:0:0:
344,220,97941,1,0,0:0:0:0:
344,220,98095,2,0,L|268:280,2,70
340,116,98557,1,0,0:0:0:0:
444,124,98710,1,0,0:0:0:0:
448,228,98864,1,0,0:0:0:0:
344,244,99018,2,0,B|348:296|348:296|332:352|332:352|360:408,3,140
264,312,100095,6,0,B|176:268|176:268|124:336|196:360,1,210
84,376,100710,1,0,0:0:0:0:
36,284,100864,1,0,0:0:0:0:
72,184,101018,2,0,L|152:144,1,70
96,56,101326,2,0,L|176:80,1,70
228,160,101634,2,0,L|172:220,1,70
284,72,101941,2,0,B|328:120|416:72|368:44|424:24|500:52,1,210
424,136,102557,5,0,0:0:0:0:
456,236,102710,1,0,0:0:0:0:
352,220,102864,1,0,0:0:0:0:
