osu file format v14

[General]
AudioFilename: audio.mp3
AudioLeadIn: 0
PreviewTime: 60710
Countdown: 1
SampleSet: Normal
StackLeniency: 0.7
Mode: 0
LetterboxInBreaks: 0
WidescreenStoryboard: 1

[Editor]
Bookmarks: 10037,51095,80480,80710,100095,119864,160403
DistanceSpacing: 1.8
BeatDivisor: 4
GridSize: 16
TimelineZoom: 2

[Metadata]
Title:Outer Science
TitleUnicode:アウターサイエンス
Artist:NicoNicoChorus
ArtistUnicode:NicoNicoChorus 合唱
Creator:Lokidoki
Version:Another
Source:
Tags:Nico Nico Douga Vocaloid cover chorus dark spooky
BeatmapID:974671
BeatmapSetID:452484

[Difficulty]
HPDrainRate:6
CircleSize:3.9
OverallDifficulty:6
ApproachRate:9
SliderMultiplier:1.7
SliderTickRate:1

[Events]
//Background and Video events
0,0,"outersciencebgyay (1).jpg",0,0
//Break Periods
2,80602,81649
2,83064,84264
2,85525,86572
2,110141,116880
2,139064,140726
2,142141,143187
2,144603,145649
//Storyboard Layer 0 (Background)
//Storyboard Layer 1 (Fail)
//Storyboard Layer 2 (Pass)
//Storyboard Layer 3 (Foreground)
//Storyboard Sound Samples

[TimingPoints]
1634,307.692307692308,4,1,0,100,1,0
11480,-66.6666666666667,4,1,0,100,0,0
12557,-83.3333333333333,4,1,0,100,0,0
50864,-200,4,1,0,100,0,0
51095,-200,4,1,0,100,0,0
58172,-100,4,1,0,100,0,0
60634,-83.3333333333333,4,1,0,100,0,1
80480,-83.3333333333333,4,1,0,100,0,0
84864,-133.333333333333,4,1,0,100,0,0
87172,-66.6666666666667,4,1,0,100,0,0
87634,-100,4,1,0,100,0,0
119864,-83.3333333333333,4,1,0,100,0,1
143787,-100,4,1,0,100,0,0
144249,-83.3333333333333,4,1,0,100,0,0
160403,-200,4,1,0,100,0,0
170249,-83.3333333333333,4,1,0,100,0,1
192403,-83.3333333333333,4,1,0,100,0,0

[HitObjects]
256,192,4249,12,0,6403,0:0:0:0:
256,192,6557,12,0,9941,0:0:0:0:
336,96,10095,6,0,P|256:112|240:208,1,170
304,176,10557,2,0,P|304:240|224:288,1,127.5
256,288,11018,2,0,L|336:320,1,85
464,224,11480,6,0,B|448:288|448:288|400:256|368:256|336:256|320:288|320:336|352:368|400:320,1,255.000009727478
240,240,11941,1,0,0:0:0:0:
192,336,12095,1,0,0:0:0:0:
80,240,12249,1,0,0:0:0:0:
224,160,12403,1,0,0:0:0:0:
80,304,12557,1,0,0:0:0:0:
80,304,12710,2,0,P|32:256|32:192,2,101.999996887207
160,144,13172,2,0,P|192:192|128:224,2,101.999996887207
64,96,13634,2,0,P|112:48|176:64,1,101.999996887207
224,112,13941,5,0,0:0:0:0:
320,48,14095,1,0,0:0:0:0:
400,128,14249,1,0,0:0:0:0:
400,128,14403,2,0,B|352:192|352:192|352:240|352:240|416:304,1,203.999993774414
480,176,14864,1,0,0:0:0:0:
512,352,15018,1,0,0:0:0:0:
384,368,15172,1,0,0:0:0:0:
336,288,15326,1,0,0:0:0:0:
240,336,15480,1,0,0:0:0:0:
192,208,15634,1,0,0:0:0:0:
144,304,15787,1,0,0:0:0:0:
320,256,15941,1,0,0:0:0:0:
320,256,16095,1,0,0:0:0:0:
256,176,16403,6,0,P|192:224|192:256,2,101.999996887207
192,80,16864,1,0,0:0:0:0:
336,96,17018,1,0,0:0:0:0:
272,32,17172,1,0,0:0:0:0:
416,64,17326,1,0,0:0:0:0:
336,176,17480,2,0,P|384:192|432:144,2,101.999996887207
288,288,17941,1,0,0:0:0:0:
240,192,18095,1,0,0:0:0:0:
112,256,18249,2,0,P|144:320|192:336,2,101.999996887207
48,192,18864,6,0,B|96:160|112:208|176:208|224:128,1,203.999993774414
128,64,19326,1,0,0:0:0:0:
272,32,19480,1,0,0:0:0:0:
352,128,19634,2,0,P|304:160|240:160,2,101.999996887207
368,32,20095,1,0,0:0:0:0:
512,48,20249,1,0,0:0:0:0:
416,144,20403,1,0,0:0:0:0:
416,144,20557,2,0,L|400:288,2,101.999996887207
336,192,21018,2,0,P|304:240|240:240,1,101.999996887207
208,160,21326,5,0,0:0:0:0:
112,256,21480,1,0,0:0:0:0:
112,256,21634,2,0,P|144:192|128:128,1,101.999996887207
224,96,21941,1,0,0:0:0:0:
240,208,22095,1,0,0:0:0:0:
240,208,22249,2,0,P|256:256|320:288,1,101.999996887207
352,176,22557,1,0,0:0:0:0:
464,256,22710,1,0,0:0:0:0:
320,224,22864,2,0,P|368:240|416:176,1,101.999996887207
336,128,23172,5,0,0:0:0:0:
336,128,23326,1,0,0:0:0:0:
336,128,23480,2,0,P|320:64|256:32,1,101.999996887207
208,176,23787,1,0,0:0:0:0:
208,176,23941,1,0,0:0:0:0:
208,176,24095,2,0,P|224:240|272:256,1,101.999996887207
304,144,24403,1,0,0:0:0:0:
304,144,24557,2,0,L|400:96,2,101.999996887207
256,192,25018,12,0,26095,0:0:0:0:
96,128,26249,6,0,B|128:176|128:176|176:96|176:96|208:144|320:80,1,305.999990661621
432,224,26864,6,0,B|400:272|400:272|352:192|352:192|320:240|208:176,1,305.999990661621
71,280,27480,6,0,B|91:334|91:334|156:267|156:267|176:321|300:284,1,305.999990661621
416,352,28095,6,0,B|464:320|464:320|384:272|384:272|432:240|368:128,1,305.999990661621
288,144,28710,6,0,B|240:176|240:176|320:224|320:224|272:256|336:368,1,305.999990661621
131,306,29326,6,0,B|107:253|107:253|200:255|200:255|176:202|290:141,1,305.999990661621
256,192,29941,12,0,31018,0:0:0:0:
224,128,31172,5,0,0:0:0:0:
144,208,31326,1,0,0:0:0:0:
224,272,31480,1,0,0:0:0:0:
224,128,31634,2,0,B|160:112|112:160|64:160|16:144,1,203.999993774414
80,16,32095,1,0,0:0:0:0:
80,16,32249,1,0,0:0:0:0:
176,64,32403,1,0,0:0:0:0:
272,16,32557,2,0,P|336:80|368:80,1,101.999996887207
416,32,32864,1,0,0:0:0:0:
416,32,33018,5,0,0:0:0:0:
496,112,33172,1,0,0:0:0:0:
496,112,33326,2,0,P|480:176|416:224,1,101.999996887207
352,256,33634,1,0,0:0:0:0:
368,144,33787,1,0,0:0:0:0:
448,256,33941,1,0,0:0:0:0:
352,336,34095,2,0,P|288:336|240:272,1,101.999996887207
304,224,34403,1,0,0:0:0:0:
192,208,34557,2,0,P|176:256|208:320,1,101.999996887207
192,304,34864,5,0,0:0:0:0:
112,352,35018,1,0,0:0:0:0:
64,192,35172,2,0,P|32:256|48:304,1,101.999996887207
64,192,35480,2,0,P|96:144|96:96,1,101.999996887207
64,192,35787,2,0,B|128:176|176:224|288:176,1,203.999993774414
304,96,36249,5,0,0:0:0:0:
432,144,36403,1,0,0:0:0:0:
432,144,36557,1,0,0:0:0:0:
304,96,36710,1,0,0:0:0:0:
304,96,36864,2,0,P|288:160|304:208,2,101.999996887207
368,16,37326,1,0,0:0:0:0:
368,160,37480,1,0,0:0:0:0:
480,48,37634,1,0,0:0:0:0:
496,192,37787,1,0,0:0:0:0:
496,192,37941,2,0,P|512:240|384:304,1,203.999993774414
432,240,38403,5,0,0:0:0:0:
320,192,38557,1,0,0:0:0:0:
256,272,38710,1,0,0:0:0:0:
176,192,38864,1,0,0:0:0:0:
80,256,39018,2,0,P|128:304|208:304,2,101.999996887207
16,192,39480,1,0,0:0:0:0:
144,144,39634,1,0,0:0:0:0:
48,96,39787,1,0,0:0:0:0:
256,192,39941,12,0,40864,0:0:0:0:
176,144,41018,5,0,0:0:0:0:
176,144,41172,2,0,P|192:192|272:240,1,101.999996887207
272,64,41480,1,0,0:0:0:0:
272,64,41634,2,0,P|272:128|256:176,1,101.999996887207
112,80,41941,1,0,0:0:0:0:
112,80,42095,1,0,0:0:0:0:
112,80,42249,2,0,P|176:112|224:112,1,101.999996887207
336,32,42557,1,0,0:0:0:0:
288,160,42710,1,0,0:0:0:0:
288,160,42864,6,0,L|368:224,2,101.999996887207
256,224,43326,2,0,P|224:304|176:304,1,101.999996887207
208,176,43634,1,0,0:0:0:0:
96,160,43787,1,0,0:0:0:0:
208,176,43941,1,0,0:0:0:0:
96,160,44095,2,0,P|80:224|64:272,1,101.999996887207
160,352,44403,1,0,0:0:0:0:
68,258,44557,1,0,0:0:0:0:
208,256,44710,2,0,B|256:224|272:288|336:288|416:240,1,203.999993774414
320,192,45172,2,0,B|272:112|368:96|368:192|464:80,1,203.999993774414
445,100,45634,6,0,P|448:48|368:48,1,101.999996887207
320,96,45941,1,0,0:0:0:0:
224,48,46095,1,0,0:0:0:0:
224,48,46249,2,0,P|192:128|144:144,1,101.999996887207
256,256,46557,1,0,0:0:0:0:
256,256,46710,2,0,P|240:176|272:144,1,101.999996887207
128,192,47018,1,0,0:0:0:0:
128,192,47172,2,0,P|208:224|224:272,1,101.999996887207
336,160,47480,1,0,0:0:0:0:
336,160,47633,2,0,P|256:176|224:144,1,101.999996887207
256,192,47941,12,0,50557,0:0:0:0:
80,224,50864,6,0,B|48:288|-16:320|112:464|144:288|176:176|208:288|208:464|384:320|304:272|256:224,1,467.5
304,144,52864,1,0,0:0:0:0:
128,32,53172,1,0,0:0:0:0:
128,32,53326,2,0,B|128:96|224:128|208:64|224:16|416:96,2,318.75
80,160,55787,2,0,B|48:256|48:256|96:336|96:336|272:336|272:336|320:256|320:256|288:160,1,552.5
241,146,58403,6,0,L|321:178,2,85
304,288,58864,2,0,L|368:224,2,85
192,160,59326,1,0,0:0:0:0:
128,304,59480,1,0,0:0:0:0:
304,160,59634,1,0,0:0:0:0:
256,192,59710,12,0,60557,0:0:0:0:
192,112,60710,5,0,0:0:0:0:
128,224,60864,1,0,0:0:0:0:
240,128,61018,1,0,0:0:0:0:
96,176,61172,1,0,0:0:0:0:
256,192,61326,1,0,0:0:0:0:
128,128,61480,1,0,0:0:0:0:
352,64,61634,2,0,P|336:112|256:144,2,101.999996887207
352,208,62095,1,0,0:0:0:0:
432,80,62249,1,0,0:0:0:0:
256,80,62403,2,0,L|288:176,1,101.999996887207
144,64,62710,2,0,L|64:128,1,101.999996887207
128,192,63172,5,0,0:0:0:0:
240,48,63326,1,0,0:0:0:0:
128,192,63480,2,0,P|112:240|128:304,1,101.999996887207
208,128,63787,1,0,0:0:0:0:
304,272,63941,2,0,P|368:240|416:112,1,203.999993774414
272,176,64403,1,0,0:0:0:0:
352,48,64557,1,0,0:0:0:0:
224,96,64710,1,0,0:0:0:0:
384,192,64864,1,0,0:0:0:0:
384,192,65018,2,0,P|352:240|272:272,1,101.999996887207
96,160,65326,5,0,0:0:0:0:
144,288,65480,1,0,0:0:0:0:
128,64,65634,2,0,P|176:80|208:160,2,101.999996887207
80,224,66095,1,0,0:0:0:0:
240,160,66249,2,0,P|272:112|256:32,1,101.999996887207
304,208,66557,1,0,0:0:0:0:
400,128,66710,1,0,0:0:0:0:
272,160,66864,1,0,0:0:0:0:
416,192,67018,1,0,0:0:0:0:
320,32,67172,6,0,P|256:64|224:128,2,101.999996887207
336,144,67634,1,0,0:0:0:0:
416,208,67787,1,0,0:0:0:0:
416,304,67941,1,0,0:0:0:0:
336,352,68095,1,0,0:0:0:0:
336,352,68249,2,0,B|288:336|288:336|208:352|208:352|144:304,1,203.999993774414
208,112,68710,2,0,P|176:192|128:224,2,101.999996887207
352,48,69172,1,0,0:0:0:0:
304,208,69326,5,0,0:0:0:0:
400,144,69480,1,0,0:0:0:0:
368,256,69634,1,0,0:0:0:0:
320,144,69787,1,0,0:0:0:0:
464,144,69941,1,0,0:0:0:0:
384,240,70095,1,0,0:0:0:0:
368,80,70249,1,0,0:0:0:0:
512,144,70403,1,0,0:0:0:0:
384,144,70557,2,0,B|304:144|304:144|320:240|240:272,1,203.999993774414
160,176,71018,5,0,0:0:0:0:
64,240,71172,1,0,0:0:0:0:
128,96,71326,1,0,0:0:0:0:
160,288,71480,1,0,0:0:0:0:
64,160,71634,2,0,P|112:176|208:160,1,101.999996887207
272,96,71941,1,0,0:0:0:0:
144,256,72095,1,0,0:0:0:0:
336,192,72249,1,0,0:0:0:0:
272,96,72403,2,0,P|224:128|144:128,2,101.999996887207
256,240,72864,5,0,0:0:0:0:
320,176,73018,1,0,0:0:0:0:
416,192,73172,1,0,0:0:0:0:
448,288,73326,1,0,0:0:0:0:
368,352,73480,1,0,0:0:0:0:
320,224,73634,2,0,P|272:256|240:304,2,101.999996887207
272,96,74095,6,0,P|224:160|96:224,2,203.999993774414
272,96,74864,1,0,0:0:0:0:
208,272,75172,5,0,0:0:0:0:
160,128,75326,1,0,0:0:0:0:
288,240,75480,1,0,0:0:0:0:
128,224,75634,1,0,0:0:0:0:
272,144,75787,1,0,0:0:0:0:
208,272,75941,1,0,0:0:0:0:
272,144,76249,5,0,0:0:0:0:
416,32,76403,1,0,0:0:0:0:
352,192,76557,1,0,0:0:0:0:
288,32,76710,1,0,0:0:0:0:
448,128,76864,1,0,0:0:0:0:
272,144,77018,1,0,0:0:0:0:
416,32,77172,1,0,0:0:0:0:
192,192,77634,5,0,0:0:0:0:
224,288,77787,1,0,0:0:0:0:
320,256,77941,1,0,0:0:0:0:
288,160,78095,1,0,0:0:0:0:
160,240,78249,1,0,0:0:0:0:
256,352,78403,1,0,0:0:0:0:
368,272,78557,1,0,0:0:0:0:
272,160,78710,1,0,0:0:0:0:
272,160,78864,1,0,0:0:0:0:
272,160,79018,2,0,B|334:194|353:130|322:81|339:50|339:50|274:80|274:80,1,203.999993774414
208,64,79480,6,0,B|192:144|96:144|176:272,2,203.999993774414
208,64,80249,2,0,B|256:128|256:128|288:80|304:80,1,101.999996887207
128,128,82249,6,0,B|96:192|128:224|176:176|192:64|272:160,2,203.999993774414
336,64,84864,6,0,B|304:112|352:112|368:144|320:176|304:144|336:128|336:256,1,191.250007295609
416,64,87172,6,0,B|352:128|320:-16|304:128|192:48,2,191.250007295609
256,224,87787,1,0,0:0:0:0:
384,320,87941,1,0,0:0:0:0:
400,128,88095,1,0,0:0:0:0:
160,144,88249,1,0,0:0:0:0:
336,288,88403,1,0,0:0:0:0:
272,112,88557,1,0,0:0:0:0:
272,112,88787,2,0,P|176:144|160:160,1,85
256,208,89172,6,0,L|192:288,2,85
336,48,89633,1,0,0:0:0:0:
144,160,89787,1,0,0:0:0:0:
368,160,89941,2,0,L|400:192,4,42.5
320,96,90403,1,0,0:0:0:0:
272,160,90557,5,0,0:0:0:0:
272,160,90710,2,0,P|275:211|272:256,1,85
272,160,91018,2,0,P|224:128|112:128,1,170
160,240,91480,1,0,0:0:0:0:
272,160,91634,1,0,0:0:0:0:
256,304,91787,1,0,0:0:0:0:
400,176,91941,2,0,L|496:112,2,85
336,80,92403,5,0,0:0:0:0:
224,144,92557,1,0,0:0:0:0:
320,208,92710,1,0,0:0:0:0:
320,208,92864,2,0,P|256:256|208:240,1,127.5
224,96,93249,2,0,P|320:112|352:144,1,127.5
208,16,93634,2,0,P|160:48|160:176,1,170
304,64,94095,1,0,0:0:0:0:
224,208,94249,1,0,0:0:0:0:
320,128,94403,2,0,B|352:176|320:208|320:208|320:256|384:272,2,170
144,144,95172,5,0,0:0:0:0:
224,224,95326,1,0,0:0:0:0:
224,144,95480,1,0,0:0:0:0:
144,224,95634,1,0,0:0:0:0:
304,128,95787,2,0,P|320:176|288:256,2,127.5
296,246,96403,1,0,0:0:0:0:
144,240,96557,1,0,0:0:0:0:
160,96,96710,2,0,L|272:48,2,85
240,144,97172,2,0,L|320:176,2,85
224,224,97634,5,0,0:0:0:0:
384,80,97787,2,0,L|352:176,2,85
288,144,98249,2,0,L|320:32,2,85
192,128,98710,1,0,0:0:0:0:
240,224,98864,2,0,L|352:240,1,85
352,160,99172,2,0,P|384:192|400:256,2,85
304,320,99634,1,0,0:0:0:0:
304,320,99787,1,0,0:0:0:0:
256,176,99941,1,0,0:0:0:0:
176,288,100095,6,0,P|128:288|112:240,1,85
64,160,100403,1,0,0:0:0:0:
144,64,100557,2,0,P|192:96|192:128,2,85
112,176,101018,1,0,0:0:0:0:
240,240,101172,1,0,0:0:0:0:
320,144,101326,2,0,P|336:192|336:256,2,85
208,96,101787,1,0,0:0:0:0:
368,48,101941,1,0,0:0:0:0:
368,48,102095,2,0,P|416:112|448:128,1,85
352,192,102403,5,0,0:0:0:0:
448,288,102557,1,0,0:0:0:0:
336,128,102710,1,0,0:0:0:0:
512,256,102864,1,0,0:0:0:0:
400,112,103018,1,0,0:0:0:0:
432,304,103172,1,0,0:0:0:0:
464,128,103326,1,0,0:0:0:0:
352,256,103480,1,0,0:0:0:0:
352,256,103634,1,0,0:0:0:0:
352,256,103787,6,0,L|272:320,2,85
288,160,104249,1,0,0:0:0:0:
224,272,104403,1,0,0:0:0:0:
176,192,104557,2,0,P|112:208|80:256,2,85
176,192,105018,1,0,0:0:0:0:
176,80,105172,1,0,0:0:0:0:
304,80,105326,1,0,0:0:0:0:
304,208,105480,1,0,0:0:0:0:
192,272,105634,2,0,P|144:320|112:320,2,85
96,224,106095,5,0,0:0:0:0:
16,304,106249,1,0,0:0:0:0:
96,368,106403,2,0,P|144:384|208:368,1,85
224,288,106710,1,0,0:0:0:0:
336,352,106864,1,0,0:0:0:0:
256,192,107018,12,0,109941,0:0:0:0:
192,176,117480,5,0,0:0:0:0:
384,176,117633,1,0,0:0:0:0:
352,96,117941,5,0,0:0:0:0:
160,96,118095,1,0,0:0:0:0:
224,256,118403,5,0,0:0:0:0:
400,256,118557,1,0,0:0:0:0:
256,192,118864,5,0,0:0:0:0:
256,192,119018,12,0,119634,0:0:0:0:
208,128,119787,6,0,P|240:208|320:208,2,127.500004863739
256,80,120403,1,0,0:0:0:0:
368,224,120557,1,0,0:0:0:0:
416,64,120710,2,0,L|320:112,2,101.999996887207
320,176,121172,1,0,0:0:0:0:
224,128,121326,2,0,P|192:176|192:240,1,101.999996887207
128,320,121634,1,0,0:0:0:0:
288,256,121787,1,0,0:0:0:0:
336,112,121941,2,0,P|304:160|240:160,1,101.999996887207
128,64,122249,5,0,0:0:0:0:
64,240,122403,1,0,0:0:0:0:
80,64,122557,5,0,0:0:0:0:
144,240,122710,1,0,0:0:0:0:
256,96,122864,6,0,P|224:144|160:160,2,101.999996887207
256,96,123326,1,0,0:0:0:0:
384,48,123480,1,0,0:0:0:0:
288,208,123634,1,0,0:0:0:0:
448,112,123787,1,0,0:0:0:0:
448,112,123941,2,0,P|352:144|288:128,2,152.999995330811
352,208,124557,1,0,0:0:0:0:
432,336,124710,1,0,0:0:0:0:
448,160,124864,1,0,0:0:0:0:
320,288,125018,1,0,0:0:0:0:
320,288,125172,6,0,L|224:224,1,101.999996887207
80,144,125480,5,0,0:0:0:0:
208,48,125634,1,0,0:0:0:0:
176,192,125787,1,0,0:0:0:0:
128,16,125941,1,0,0:0:0:0:
224,176,126095,2,0,P|176:192|112:176,2,101.999996887207
160,320,126557,1,0,0:0:0:0:
160,320,126710,1,0,0:0:0:0:
240,256,126864,1,0,0:0:0:0:
304,336,127018,1,0,0:0:0:0:
368,224,127172,2,0,P|432:272|448:352,2,152.999995330811
288,96,127787,5,0,0:0:0:0:
256,256,127941,1,0,0:0:0:0:
256,256,128095,1,0,0:0:0:0:
192,112,128249,5,0,0:0:0:0:
128,224,128403,1,0,0:0:0:0:
144,48,128557,1,0,0:0:0:0:
160,272,128710,1,0,0:0:0:0:
80,16,128864,1,0,0:0:0:0:
224,304,129018,1,0,0:0:0:0:
256,160,129172,2,0,L|112:160,2,101.999996887207
288,80,129634,6,0,P|336:144|448:128,1,203.999993774414
272,224,130095,1,0,0:0:0:0:
192,128,130249,1,0,0:0:0:0:
160,256,130403,1,0,0:0:0:0:
160,256,130557,1,0,0:0:0:0:
336,160,130710,2,0,P|304:208|224:192,1,101.999996887207
288,96,131018,2,0,P|352:80|416:128,1,101.999996887207
240,48,131326,2,0,P|208:112|240:160,1,101.999996887207
176,240,131634,1,0,0:0:0:0:
176,240,131787,5,0,0:0:0:0:
256,160,131941,1,0,0:0:0:0:
256,160,132095,1,0,0:0:0:0:
256,160,132249,2,0,P|176:176|112:96,2,152.999995330811
96,64,132864,1,0,0:0:0:0:
240,32,133018,2,0,P|208:96|160:112,1,101.999996887207
336,32,133326,1,0,0:0:0:0:
240,208,133480,1,0,0:0:0:0:
368,112,133634,5,0,0:0:0:0:
368,112,133787,2,0,L|304:208,2,101.999996887207
256,48,134249,1,0,0:0:0:0:
144,96,134403,1,0,0:0:0:0:
112,192,134557,1,0,0:0:0:0:
176,288,134710,1,0,0:0:0:0:
240,96,134864,2,0,P|208:160|144:176,2,101.999996887207
288,240,135326,1,0,0:0:0:0:
384,96,135480,1,0,0:0:0:0:
384,96,135634,5,0,0:0:0:0:
448,256,135787,1,0,0:0:0:0:
272,48,135941,2,0,P|256:96|288:176,2,101.999996887207
336,208,136403,1,0,0:0:0:0:
208,64,136557,1,0,0:0:0:0:
208,64,136634,1,0,0:0:0:0:
208,64,136710,1,0,0:0:0:0:
112,160,136864,1,0,0:0:0:0:
176,272,137018,1,0,0:0:0:0:
304,160,137172,6,0,P|320:208|304:288,2,101.999996887207
176,128,137634,1,0,0:0:0:0:
320,32,137787,1,0,0:0:0:0:
320,176,137941,1,0,0:0:0:0:
224,64,138095,1,0,0:0:0:0:
368,96,138249,1,0,0:0:0:0:
256,176,138403,1,0,0:0:0:0:
240,32,138557,1,0,0:0:0:0:
368,112,138710,1,0,0:0:0:0:
192,128,138864,1,0,0:0:0:0:
224,80,141326,6,0,B|192:128|192:128|160:112|160:96|208:144|80:128|96:208,2,203.999993774414
352,64,143787,6,0,B|304:64|304:64|288:112|288:112|240:96|240:96|224:144|224:144|144:144,1,254.999992218018
160,144,144403,1,0,0:0:0:0:
320,64,146249,6,0,P|288:112|224:128,1,101.999996887207
288,192,146557,2,0,P|336:160|416:144,2,101.999996887207
288,32,147941,5,0,0:0:0:0:
288,32,148095,1,0,0:0:0:0:
176,32,148249,1,0,0:0:0:0:
224,160,148403,1,0,0:0:0:0:
288,32,148557,1,0,0:0:0:0:
384,208,148710,2,8,B|352:256|256:240|208:160|80:240,1,305.999990661621
48,128,149480,6,0,L|144:96,1,101.999996887207
256,32,149787,1,0,0:0:0:0:
224,160,149941,1,0,0:0:0:0:
336,112,150095,1,0,0:0:0:0:
224,16,150249,2,0,P|192:96|256:192,1,203.999993774414
352,64,150710,1,0,0:0:0:0:
352,64,150864,1,0,0:0:0:0:
304,224,151018,1,0,0:0:0:0:
448,160,151172,1,0,0:0:0:0:
448,160,151326,6,0,P|432:224|368:240,1,101.999996887207
352,112,151634,2,0,P|416:80|480:96,1,101.999996887207
336,192,151941,1,0,0:0:0:0:
256,96,152095,1,0,0:0:0:0:
176,208,152249,1,0,0:0:0:0:
176,208,152403,2,0,P|96:224|48:192,1,101.999996887207
144,112,152710,2,0,B|176:112|176:112|224:128|224:128|288:128,1,101.999996887207
368,128,153018,6,0,P|298:209|241:198,2,152.999995330811
192,32,153634,2,0,B|128:48|128:48|144:96|144:96|96:80|96:80|48:160|160:176,1,305.999990661621
288,96,154249,1,0,0:0:0:0:
224,208,154403,1,0,0:0:0:0:
400,112,154557,5,0,0:0:0:0:
400,112,154710,1,0,0:0:0:0:
272,288,154864,1,0,0:0:0:0:
208,112,155018,1,0,0:0:0:0:
400,240,155172,1,0,0:0:0:0:
400,240,155326,2,0,P|384:288|304:320,1,101.999996887207
176,176,155634,1,0,0:0:0:0:
336,112,155787,1,0,0:0:0:0:
160,32,155941,1,0,0:0:0:0:
160,32,156095,6,0,P|112:96|112:160,1,101.999996887207
32,96,156403,2,0,P|48:160|16:224,1,101.999996887207
96,256,156710,1,0,0:0:0:0:
192,144,156864,2,0,L|288:192,2,101.999996887207
320,16,157326,1,0,0:0:0:0:
320,16,157480,2,0,L|272:112,1,101.999996887207
432,32,157787,2,0,B|480:96|320:160|416:80|448:224,1,203.999993774414
336,320,158249,1,0,0:0:0:0:
320,176,158403,1,0,0:0:0:0:
48,256,158557,5,0,0:0:0:0:
90,282,158633,1,0,0:0:0:0:
141,288,158710,1,0,0:0:0:0:
188,271,158787,1,0,0:0:0:0:
223,234,158864,1,0,0:0:0:0:
239,186,158941,1,0,0:0:0:0:
224,144,159018,2,0,L|176:96,2,50.9999984436036
256,192,159249,12,0,160249,0:0:0:0:
208,256,160403,6,0,B|256:288|256:288|304:272|272:176|256:112|272:80|272:80|320:80,2,318.75
192,176,162864,2,0,B|144:224|48:208|96:80|112:80|160:112,3,212.5
192,32,165326,2,0,B|224:112|224:112|272:112|320:48|320:48|384:96|416:80,1,297.5
336,144,166557,2,0,B|368:176|368:176|432:144|432:144|464:160,2,148.75
240,160,167787,2,0,B|192:224|224:272|224:272|288:240|288:240|320:272|256:352,1,318.75
256,192,169018,12,0,170095,0:0:0:0:
160,256,170249,6,0,B|208:176|192:240|224:320|320:304|336:288,1,203.999993774414
384,160,170710,1,0,0:0:0:0:
464,256,170864,1,0,0:0:0:0:
464,256,171018,1,0,0:0:0:0:
304,208,171172,2,0,P|352:288|400:288,2,101.999996887207
352,288,171634,2,0,P|416:272|432:224,1,101.999996887207
336,160,171941,1,0,0:0:0:0:
416,80,172095,1,0,0:0:0:0:
416,80,172249,2,0,P|352:96|288:80,2,101.999996887207
240,80,172710,6,0,P|176:96|144:128,1,101.999996887207
128,192,173018,1,0,0:0:0:0:
128,192,173172,2,0,P|176:192|224:144,1,101.999996887207
272,96,173480,2,0,P|288:144|336:192,1,101.999996887207
416,96,173787,1,0,0:0:0:0:
384,224,173941,1,0,0:0:0:0:
384,224,174095,2,0,B|336:256|288:224|224:208|176:240,2,203.999993774414
336,160,174864,5,0,0:0:0:0:
288,16,175018,1,0,0:0:0:0:
416,128,175172,1,0,0:0:0:0:
256,112,175326,1,0,0:0:0:0:
400,32,175479,1,0,0:0:0:0:
336,160,175633,1,0,0:0:0:0:
208,192,175941,5,0,0:0:0:0:
160,336,176095,1,0,0:0:0:0:
288,224,176249,1,0,0:0:0:0:
128,240,176403,1,0,0:0:0:0:
272,320,176556,1,0,0:0:0:0:
208,192,176710,1,0,0:0:0:0:
208,192,176864,2,0,P|160:128|176:64,2,101.999996887207
272,112,177326,1,0,0:0:0:0:
272,112,177403,1,0,0:0:0:0:
272,112,177480,1,0,0:0:0:0:
288,208,177634,5,0,0:0:0:0:
366,142,177787,1,0,0:0:0:0:
366,142,177941,2,0,L|270:222,1,101.999996887207
224,256,178249,2,0,P|288:304|384:240,1,203.999993774414
256,192,178710,12,0,179941,0:0:0:0:
240,240,180095,5,0,0:0:0:0:
176,144,180249,1,0,0:0:0:0:
304,144,180403,1,0,0:0:0:0:
304,144,180557,2,0,P|320:80|256:64,1,101.999996887207
240,96,180864,2,0,P|198:131|134:99,1,101.999996887207
128,48,181172,1,0,0:0:0:0:
80,128,181326,2,0,P|112:176|192:192,2,101.999996887207
160,112,181787,2,0,P|217:113|263:47,1,101.999996887207
336,48,182095,1,0,0:0:0:0:
336,48,182249,2,0,P|320:112|352:160,1,101.999996887207
432,128,182557,6,0,P|416:176|352:224,1,101.999996887207
288,240,182864,1,0,0:0:0:0:
400,288,183018,1,0,0:0:0:0:
288,240,183172,2,0,P|272:320|224:336,2,101.999996887207
176,240,183634,2,0,B|176:272|176:272|144:304|144:304|144:352,1,101.999996887207
80,240,183941,2,0,P|96:176|160:160,1,101.999996887207
112,64,184249,2,0,P|176:96|224:64,1,101.999996887207
288,32,184557,5,0,0:0:0:0:
288,32,184710,1,0,0:0:0:0:
256,160,184864,5,0,0:0:0:0:
400,96,185018,1,0,0:0:0:0:
320,192,185172,1,0,0:0:0:0:
480,112,185326,1,0,0:0:0:0:
368,224,185480,1,0,0:0:0:0:
496,208,185634,1,0,0:0:0:0:
496,208,185787,2,0,P|480:272|416:272,1,101.999996887207
288,208,186095,5,0,0:0:0:0:
416,208,186249,1,0,0:0:0:0:
352,320,186403,1,0,0:0:0:0:
288,208,186557,1,0,0:0:0:0:
416,208,186710,1,0,0:0:0:0:
416,208,186864,2,0,L|288:208,1,101.999996887207
144,224,187172,5,0,0:0:0:0:
192,80,187326,1,0,0:0:0:0:
80,144,187480,1,0,0:0:0:0:
240,144,187634,1,0,0:0:0:0:
256,272,187787,5,0,0:0:0:0:
240,144,187941,1,0,0:0:0:0:
352,192,188095,1,0,0:0:0:0:
192,224,188249,1,0,0:0:0:0:
320,96,188403,1,0,0:0:0:0:
336,304,188557,1,0,0:0:0:0:
256,176,188710,1,0,0:0:0:0:
192,320,188864,1,0,0:0:0:0:
352,208,189018,1,0,0:0:0:0:
176,224,189172,5,0,0:0:0:0:
320,112,189326,1,0,0:0:0:0:
336,272,189480,1,0,0:0:0:0:
208,160,189634,1,0,0:0:0:0:
384,208,189787,1,0,0:0:0:0:
384,208,189941,1,0,0:0:0:0:
448,80,190095,1,0,0:0:0:0:
496,208,190249,1,0,0:0:0:0:
352,256,190403,5,0,0:0:0:0:
464,128,190557,1,0,0:0:0:0:
480,288,190710,1,0,0:0:0:0:
336,320,190864,5,0,0:0:0:0:
432,208,191018,1,0,0:0:0:0:
480,352,191172,1,0,0:0:0:0:
256,192,191326,12,0,192403,0:0:0:0:
