osu file format v14

[General]
AudioFilename: audio.mp3
AudioLeadIn: 0
PreviewTime: 141651
Countdown: 0
SampleSet: Normal
StackLeniency: 0.9
Mode: 0
LetterboxInBreaks: 0
WidescreenStoryboard: 0

[Editor]
DistanceSpacing: 1.2
BeatDivisor: 16
GridSize: 4
TimelineZoom: 1.1

[Metadata]
Title:2015 NicoNico Vocaloid Medly Party
TitleUnicode:ニコニコ超パーティー2015 VOCALOIDライブ
Artist:NicoNico
ArtistUnicode:ニコニコ
Creator:Poivila_qwq
Version:marathon
Source:NicoNico Party 2015
Tags:Hatsune_Miku Gumi Rin Len Katio Luka 2015 Marathon Vocaloid NicoNico SplatterParty ヒビカセ×echo 脳漿炸裂ガール さよならメモリーズ メルト 現実的倫理主義者 恋愛裁判 二息歩行 炉心融解 一触即発✩禅ガール ギガンティックO.T.N パンダヒーロー マトリョシカ
BeatmapID:1379728
BeatmapSetID:651208

[Difficulty]
HPDrainRate:4.9
CircleSize:3.7
OverallDifficulty:4.9
ApproachRate:8.9
SliderMultiplier:2
SliderTickRate:1

[Events]
//Background and Video events
0,0,"niconico2015.jpg",0,0
//Break Periods
2,22842,23753
2,25000,26088
2,136969,138694
2,139728,141241
2,280731,287354
2,311072,314029
2,367785,375040
2,412863,418200
2,457226,474087
2,499527,503497
2,540216,560366
2,599434,601499
2,695879,703896
2,736204,740567
2,781422,800696
2,866033,876319
2,888055,897430
2,925537,975608
2,997724,1086505
2,1095025,1098919
2,1159230,1171874
2,1193377,1194317
2,1227439,1242733
2,1304396,1308940
2,1360394,1447067
2,1493374,1615349
2,1633993,2255963
//Storyboard Layer 0 (Background)
//Storyboard Layer 1 (Fail)
//Storyboard Layer 2 (Pass)
//Storyboard Layer 3 (Foreground)
//Storyboard Sound Samples

[TimingPoints]
1,566.037735849057,4,1,0,100,1,0
17256,-200,4,2,0,11,0,0
44824,-200,4,3,0,61,0,1
45956,-200,4,2,0,19,0,0
50688,-166.666666666667,4,1,0,26,0,0
58868,-142.857142857143,4,3,0,31,0,0
77308,-133.333333333333,4,2,0,35,0,1
77412,-133.333333333333,4,2,0,30,0,0
82005,-200,4,3,0,5,0,0
85973,-133.333333333333,4,2,0,30,0,0
108187,-121.951219512195,4,3,0,29,0,0
116640,-121.951219512195,4,3,0,29,0,1
117321,-121.951219512195,4,2,0,30,0,0
121779,-109.89010989011,4,3,0,30,0,0
139061,-100,4,3,0,100,0,1
143243,389.61038961039,4,1,0,49,1,1
143656,-108.695652173913,4,1,0,36,0,1
150179,-108.695652173913,4,1,0,36,0,0
178259,-100,4,3,0,40,0,0
194257,-133.333333333333,4,3,0,100,0,1
194846,-100,4,3,0,38,0,0
203121,-133.333333333333,4,3,0,100,0,1
203656,-100,4,3,0,41,0,0
208531,-200,4,2,0,100,0,1
212301,-100,4,1,0,43,0,0
216928,-200,4,3,0,100,0,1
218924,-133.333333333333,4,1,0,36,0,0
219971,-200,4,1,0,74,0,1
221822,-111.111111111111,4,2,0,36,0,0
225377,-100,4,3,0,100,0,1
225885,-100,4,1,0,34,0,0
250507,-100,4,1,0,45,0,1
253237,-100,4,2,0,30,0,0
280896,-133.333333333333,4,3,0,21,0,1
294121,-100,4,2,0,26,0,0
314306,-133.333333333333,4,3,0,26,0,0
315810,-117.370892018779,4,1,0,33,0,0
316865,-106.382978723404,4,2,0,33,0,0
323037,-106.382978723404,4,1,0,41,0,1
325057,-100,4,3,0,56,0,1
381769,374.765771392879,4,3,0,35,1,0
381815,-133.333333333333,4,3,0,24,0,0
388617,-75.7575757575758,4,2,0,36,0,1
429482,-133.333333333333,4,1,0,46,0,0
430682,-200,4,2,0,33,0,0
439553,-133.333333333333,4,1,0,28,0,0
440504,-117.647058823529,4,1,0,35,0,1
441137,-100,4,3,0,43,0,1
442033,-81.3008130081301,4,1,0,37,0,1
457237,-81.3008130081301,4,1,0,37,0,0
474458,-100,4,3,0,15,0,1
479082.182259195,315.723005683014,4,2,0,40,1,0
561119,-133.333333333333,4,3,0,25,0,0
570805,-100,4,1,0,35,0,1
584415,-83.3333333333333,4,3,0,22,0,1
601242,314.222233930453,4,1,0,100,1,0
601320,-133.333333333333,4,3,0,25,0,0
604377,631.578947368421,4,1,0,30,1,0
702453,315.789473684211,4,1,0,36,1,0
750782,-133.333333333333,4,3,0,15,0,0
760803,-100,4,2,0,45,0,1
801486,314.564328405159,4,2,0,43,1,1
802097,-100,4,1,0,30,0,0
865700,321.388397878837,4,1,0,100,1,0
897858,-114.942528735632,4,3,0,35,0,0
909007,-100,4,3,0,45,0,0
976217,329.388397878837,4,1,0,100,1,0
976237,-200,4,1,0,11,0,0
996474,-100,4,3,0,39,0,1
1002187,-100,4,1,0,49,0,0
1087269,454.545454545455,4,1,0,100,1,1
1089342,-100,4,1,0,24,0,1
1188895,-133.333333333333,4,1,0,23,0,0
1195762,-100,4,2,0,37,0,1
1230400,447.761194029851,4,1,0,100,1,0
1243114,-100,4,1,0,42,0,1
1245213,-100,4,2,0,30,0,0
1270450,-153.846153846154,4,2,0,100,0,0
1273469,-133.333333333333,4,2,0,25,0,0
1361710,500,4,1,0,100,1,0
1375085,-100,4,3,0,55,0,0
1390886,-200,4,1,0,63,0,0
1409421,-133.333333333333,4,2,0,40,0,0
1424766,666.666666666667,4,1,0,47,1,1
1430016,-100,4,2,0,49,0,1
1438099,-100,4,2,0,100,0,0
1450392,389.61038961039,4,1,0,100,1,0
1611579,350.877192982456,4,1,0,100,1,0
1615723,-200,4,2,0,45,0,0
1621359,-100,4,3,0,60,0,1
1877894,379.746835443038,4,1,0,100,1,0
2260963,4000,4,1,0,100,1,0

[Colours]
Combo1 : 255,255,255
Combo2 : 0,255,255
Combo3 : 255,255,128
Combo4 : 0,64,128
Combo5 : 255,255,0
Combo6 : 128,207,107
Combo7 : 0,128,64
Combo8 : 128,0,128

[HitObjects]
256,192,18786,12,0,22642,0:0:0:0:
252,192,24517,118,10,L|252:140,1,50
92,288,26852,6,6,L|92:340,1,50
256,192,27276,12,14,28373,0:0:0:0:
416,148,28762,21,0,0:0:0:0:
352,208,29258,2,2,L|332:228,1,25
332,216,29647,2,2,L|304:208,1,25
236,188,30213,1,2,0:0:0:0:
188,180,30496,2,0,P|148:160|72:156,1,118.75
116,168,31416,2,12,B|172:152|188:128|204:108|232:112,1,131.25
272,124,32335,86,2,L|351:162,1,87.5
268,212,33255,101,2,0:0:0:0:
204,164,33751,2,2,L|224:144,1,25
252,120,34140,2,2,L|280:128,1,25
340,148,34706,1,0,0:0:0:0:
300,168,34989,2,0,P|340:188|416:192,1,118.75
440,164,35909,2,12,B|384:180|368:204|352:224|324:220,1,131.25
180,180,37182,37,2,0:0:0:0:
240,92,37677,2,2,L|244:121,1,25
208,156,38067,2,2,L|199:184,1,25
232,216,38420,1,0,0:0:0:0:
160,292,38774,1,2,0:0:0:0:
242,196,39057,2,0,P|202:216|153:274,1,118.75
205,319,39977,2,0,B|226:264|216:237|210:212|230:192,1,131.25
284,140,41038,1,4,0:0:0:0:
164,168,41357,85,2,0:0:0:0:
220,296,41852,2,2,L|248:296,1,25
340,284,42241,2,2,L|354:258,1,25
376,188,42807,1,2,0:0:0:0:
404,128,43090,2,2,P|418:85|470:30,1,118.75
432,76,44010,2,2,B|380:103|352:97|327:93|309:116,1,131.25
268,120,44930,38,12,L|268:80,2,37.5
88,188,46062,1,2,0:0:0:0:
88,188,46203,2,2,B|152:188|172:232|172:232|208:224,1,137.5
344,172,47442,2,8,L|384:152,1,43.75
496,100,48078,2,0,B|456:88|456:88|456:120|444:176|456:136|452:168|452:168,1,118.75
424,260,48927,1,0,0:0:0:0:
424,260,49069,2,2,P|400:296|360:288,1,87.5
220,216,50059,1,0,0:0:0:0:
124,136,50449,1,0,0:0:0:0:
256,228,50873,54,0,L|256:164,1,59.9999981689454
252,72,51404,2,0,L|248:16,2,52.4999983978272
252,168,52253,1,0,0:0:0:0:
252,168,52430,1,0,0:0:0:0:
184,248,52819,2,0,B|144:288|144:288|116:280,1,82.4999974822999
100,144,53703,2,0,B|152:116|152:116|172:120,1,74.9999977111817
232,156,54340,1,0,0:0:0:0:
314,203,54623,1,0,0:0:0:0:
400,268,55012,102,0,B|352:336|352:336|292:340|272:320,1,164.9999949646
240,304,55932,1,0,0:0:0:0:
204,300,56074,2,0,P|157:268|156:260,2,67.4999979400635
228,272,56852,2,0,L|272:144,3,134.999995880127
252,184,59293,5,0,0:0:0:0:
344,320,59824,2,0,P|300:340|280:340,1,69.9999978637696
228,336,60284,2,0,L|184:308,1,52.4999983978272
160,288,60602,2,0,L|144:232,1,52.4999983978272
160,196,60956,2,0,L|160:144,1,52.4999983978272
176,92,61345,1,0,0:0:0:0:
320,204,61663,2,0,P|304:280|224:308,1,166.249994926453
116,276,62725,53,0,0:0:0:0:
172,216,63008,1,0,0:0:0:0:
96,76,63255,1,0,0:0:0:0:
144,208,63467,1,0,0:0:0:0:
336,116,63786,2,0,L|352:108,3,17.4999994659424
344,64,64635,54,0,P|300:44|280:44,1,69.9999978637696
228,68,65095,2,0,L|184:96,1,52.4999983978272
164,120,65413,2,0,L|148:176,1,52.4999983978272
164,208,65767,2,0,L|164:260,1,52.4999983978272
172,312,66156,1,0,0:0:0:0:
212,216,66510,2,0,P|256:228|276:240,1,69.9999978637696
332,208,67005,2,0,P|284:220|256:212,1,78.7499975967408
108,84,67607,2,0,P|64:108|56:156,1,96.2499970626832
208,308,68314,2,0,L|224:320,4,17.4999994659424
344,64,69092,102,0,P|300:44|280:44,1,69.9999978637696
240,84,69552,2,0,L|196:112,1,52.4999983978272
164,128,69871,2,0,L|118:163,1,52.4999983978272
88,188,70225,2,0,P|76:208|84:244,1,61.2499981307984
112,280,70614,1,0,0:0:0:0:
200,328,70932,2,0,P|276:314|304:260,1,139.999995727539
184,92,71746,69,0,0:0:0:0:
156,156,71923,1,0,0:0:0:0:
96,308,72170,1,0,0:0:0:0:
144,176,72383,1,0,0:0:0:0:
344,320,73161,54,0,P|300:340|280:340,1,69.9999978637696
228,316,73621,2,0,L|184:288,1,52.4999983978272
172,268,73939,2,0,L|156:212,1,52.4999983978272
172,188,74293,2,0,L|172:136,1,52.4999983978272
172,100,74682,1,0,0:0:0:0:
268,320,75036,2,0,P|312:308|332:296,1,69.9999978637696
320,164,75531,2,0,P|272:152|244:160,1,78.7499975967408
108,300,76133,2,0,P|64:276|56:228,1,96.2499970626832
208,76,76840,2,0,L|224:64,4,17.4999994659424
264,192,77335,101,0,0:0:0:0:
196,300,77725,2,0,P|124:264|116:240,1,103.125003933907
116,204,78255,1,0,0:0:0:0:
124,140,78432,2,0,P|148:80|196:60,1,112.500004291535
252,84,79069,2,0,L|292:108,1,46.8750017881394
332,152,79423,2,0,P|344:188|328:216,1,65.6250025033952
232,296,80095,2,0,P|144:320|88:300,2,150.000005722046
332,204,81651,1,14,0:0:0:0:
168,252,82182,6,0,P|120:176|292:272,1,693.75
152,232,86569,2,0,P|124:116|332:116,2,393.750015020371
332,280,90142,2,0,B|420:240|420:240|232:216|232:216|424:160|424:160|316:136,1,590.625022530557
192,140,92795,2,0,B|120:176|120:176|160:220|160:220|116:256|116:256|188:308|188:308|188:308,1,281.250010728837
100,84,95095,54,0,L|80:56,8,28.1250010728836
136,140,96156,2,0,L|152:160,4,18.7500007152558
184,188,96651,2,0,L|200:204,9,18.7500007152558
236,240,97465,2,0,L|260:264,9,28.1250010728836
152,196,98809,1,0,0:0:0:0:
232,196,99057,1,0,0:0:0:0:
188,160,99234,2,0,L|188:124,1,28.1250010728836
256,40,99835,54,0,P|252:100|264:156,1,112.500004291535
332,192,100543,2,0,P|388:220|432:256,2,112.500004291535
248,156,101675,1,0,0:0:0:0:
116,164,102135,2,0,P|64:212|124:304,1,196.875007510186
248,256,103302,2,0,P|308:224|340:228,2,103.125003933907
188,336,104399,1,0,0:0:0:0:
104,280,104717,2,0,B|80:212|80:212|92:180|92:180|72:128,1,159.375006079674
56,76,105637,1,0,0:0:0:0:
56,76,105850,1,0,0:0:0:0:
56,76,106062,102,0,B|100:124|100:124|120:128,1,84.3750032186509
204,128,106663,2,0,L|248:128,3,37.5000014305115
316,212,107300,1,0,0:0:0:0:
160,280,107725,2,0,L|128:280,3,28.1250010728836
204,212,108326,1,0,0:0:0:0:
308,92,108786,2,0,L|328:92,5,20.5000003128052
244,164,109458,5,0,0:0:0:0:
136,264,109883,2,0,P|160:280|220:264,1,92.2500014076233
276,188,110484,1,0,0:0:0:0:
376,96,110873,2,0,P|404:128|396:204,1,123.000001876831
332,280,111581,1,0,0:0:0:0:
272,284,111758,2,0,L|232:312,1,41.0000006256104
184,276,112076,6,0,L|144:304,1,41.0000006256104
180,232,112430,2,0,L|212:204,1,41.0000006256104
292,172,112819,1,0,0:0:0:0:
380,104,113137,2,0,L|444:60,2,71.7500010948181
272,184,113916,1,0,0:0:0:0:
272,184,114057,5,0,0:0:0:0:
136,92,114376,2,0,L|92:60,1,51.250000782013
272,196,114835,2,0,L|328:240,1,71.7500010948181
464,36,115508,1,0,0:0:0:0:
464,36,115614,1,0,0:0:0:0:
284,196,116038,2,0,P|224:240|184:244,1,112.750001720429
52,216,116675,2,0,B|48:204|48:204|56:200|56:200|52:192|52:192|56:184|56:184|48:176|48:176|56:168|56:168|48:156|48:156|56:152|56:152|48:144|48:144|56:124,1,112.750001720429
120,28,117347,1,0,0:0:0:0:
160,240,117736,2,0,P|184:320|188:324,1,92.2500014076233
284,332,118232,2,0,P|320:304|328:280,1,71.7500010948181
280,96,118833,2,0,P|252:80|196:104,1,92.2500014076233
248,260,119470,1,0,0:0:0:0:
248,260,119576,101,0,0:0:0:0:
322,319,119859,2,0,P|258:283|246:255,1,102.500001564026
288,92,120496,2,0,P|332:72|352:72,1,61.5000009384155
456,132,120920,2,0,P|472:160|480:200,1,71.7500010948181
428,268,121309,2,0,P|400:312|368:324,1,82.0000012512207
164,196,121911,6,0,B|148:192|148:192|152:180|152:180|128:172|128:172|132:152|132:152|120:148|120:148|120:136|120:136|116:136|116:136|104:120,1,113.750003818512
296,100,122583,1,0,0:0:0:0:
212,252,122972,1,0,0:0:0:0:
132,132,123291,1,0,0:0:0:0:
232,256,123644,1,0,0:0:0:0:
296,328,123857,1,0,0:0:0:0:
380,252,124104,1,0,0:0:0:0:
284,360,124423,1,0,0:0:0:0:
176,204,124847,2,0,P|136:164|76:152,2,113.750003818512
176,204,126192,6,0,B|168:244|168:244|176:252|176:252|164:276|164:276|176:284|176:284|164:288|164:288|172:292|172:292|172:320,1,136.500004582215
252,368,126864,1,0,0:0:0:0:
348,260,127182,1,0,0:0:0:0:
264,336,127430,1,0,0:0:0:0:
200,264,127642,1,0,0:0:0:0:
100,140,127996,1,0,0:0:0:0:
180,259,128314,1,0,0:0:0:0:
263,108,128703,1,0,0:0:0:0:
260,240,128986,2,0,L|260:300,2,56.875001909256
288,116,129623,2,0,P|292:56|328:36,2,102.375003436661
384,252,130614,2,0,P|396:304|376:336,1,91.0000030548097
148,332,131392,2,12,L|76:288,1,79.6250026729585
252,192,132135,1,0,0:0:0:0:
252,192,132772,5,0,0:0:0:0:
252,192,133302,5,0,0:0:0:0:
252,192,133868,5,0,0:0:0:0:
252,192,134434,5,0,0:0:0:0:
252,192,134894,6,0,P|208:176|172:172,1,79.6250026729585
260,200,135460,6,0,P|284:168|316:160,1,68.2500022911073
256,208,135991,6,0,P|212:220|176:224,1,79.6250026729585
260,208,136557,6,0,P|296:224|328:232,1,68.2500022911073
260,208,139458,6,12,L|260:172,1,25
256,192,142005,12,0,143420,0:0:0:0:
220,252,143730,102,0,P|188:208|168:200,1,68.9999976837159
104,168,144046,2,0,L|76:140,2,34.4999988418579
220,252,144484,2,0,P|264:284|308:288,1,91.9999969116212
364,264,144825,1,0,0:0:0:0:
428,212,144996,2,0,P|436:160|412:128,1,91.9999969116212
324,120,145385,2,0,B|296:84|320:64|292:56,1,68.9999976837159
216,36,145678,1,0,0:0:0:0:
132,40,145824,2,0,P|72:48|56:68,1,80.4999972976685
120,192,146286,2,0,B|136:212|136:212|180:144,1,103.499996525574
224,96,146627,1,0,0:0:0:0:
100,100,146846,6,0,P|136:136|164:144,1,80.4999972976685
248,148,147163,2,0,L|356:148,2,103.499996525574
184,220,147772,1,0,0:0:0:0:
132,108,147991,1,0,0:0:0:0:
72,220,148283,2,0,P|32:236|12:268,2,80.4999972976685
232,264,148916,2,0,L|264:228,1,45.9999984558106
356,148,149233,2,0,L|316:184,1,45.9999984558106
228,152,149501,1,0,0:0:0:0:
276,200,149622,1,0,0:0:0:0:
412,104,149915,1,0,0:0:0:0:
260,92,150182,1,0,0:0:0:0:
272,80,150426,54,0,P|304:24|352:0,1,114.999996139527
384,256,150986,2,0,P|336:308|268:328,1,137.999995367432
164,320,151473,1,0,0:0:0:0:
152,212,151668,2,0,P|100:180|68:176,2,91.9999969116212
208,340,152301,1,0,0:0:0:0:
184,220,152520,1,0,0:0:0:0:
140,304,152691,1,0,0:0:0:0:
184,220,152861,1,0,0:0:0:0:
72,320,153129,2,0,P|48:260|56:176,1,149.499994981384
120,124,153592,1,0,0:0:0:0:
252,208,153811,53,0,0:0:0:0:
252,208,153957,2,0,B|320:224|324:212|324:212|352:236,1,103.499996525574
320,336,154371,2,0,B|244:340|244:340|232:332|232:332|224:320,1,103.499996525574
200,184,154736,1,0,0:0:0:0:
264,80,154980,1,0,0:0:0:0:
140,36,155174,2,0,P|100:24|84:32,1,57.4999980697633
84,180,155540,1,0,0:0:0:0:
84,180,155686,2,0,L|168:212,1,80.4999972976685
344,252,156051,1,0,0:0:0:0:
344,252,156197,2,0,L|424:204,1,91.9999969116212
440,220,156562,1,0,0:0:0:0:
164,308,156903,1,0,0:0:0:0:
76,144,157366,22,8,P|68:204|96:268,1,126.499995753479
164,152,157853,1,0,0:0:0:0:
164,152,158023,2,8,P|168:88|140:52,2,103.499996525574
92,256,158681,2,8,P|84:304|112:328,1,80.4999972976685
268,268,159143,1,8,0:0:0:0:
268,268,159290,2,0,P|320:252|352:240,1,80.4999972976685
268,160,159655,2,4,P|220:148|192:156,1,80.4999972976685
156,272,160020,2,4,P|104:256|80:220,2,91.9999969116212
292,216,160653,1,10,0:0:0:0:
292,216,160799,86,0,P|360:200|420:212,1,126.499995753479
268,312,161359,2,0,P|188:276|176:248,1,114.999996139527
144,328,161798,1,0,0:0:0:0:
120,192,162066,2,0,P|148:144|212:124,1,114.999996139527
320,196,162577,1,10,0:0:0:0:
320,196,162723,54,0,P|368:224|392:260,1,91.9999969116212
228,284,163234,2,6,L|192:284,1,34.4999988418579
388,184,163527,2,6,L|412:180,1,22.9999992279053
228,120,163770,2,6,L|208:124,1,11.4999996139526
76,260,164184,1,10,0:0:0:0:
76,260,164355,85,0,0:0:0:0:
76,260,164525,1,0,0:0:0:0:
76,260,164695,2,0,P|136:296|204:304,1,137.999995367432
152,216,165182,2,0,P|208:184|224:188,1,80.4999972976685
244,240,165475,2,0,P|268:272|364:292,1,137.999995367432
384,100,165986,2,2,L|408:48,2,57.4999980697633
304,180,166400,2,0,L|292:188,1,11.4999996139526
136,332,166619,2,0,P|84:336|56:280,1,114.999996139527
60,220,166936,1,0,0:0:0:0:
76,40,167252,1,0,0:0:0:0:
176,148,167447,2,0,L|224:192,2,57.4999980697633
84,184,167910,2,4,L|84:208,5,22.9999992279053
244,272,168884,1,0,0:0:0:0:
244,272,169030,86,0,P|312:248|344:204,1,126.499995753479
252,148,169419,2,0,P|264:92|292:64,2,91.9999969116212
396,176,169980,2,0,L|384:172,1,11.4999996139526
192,200,170223,2,0,L|144:236,1,57.4999980697633
160,168,170467,22,0,L|210:126,1,57.4999980697633
320,156,171002,1,4,0:0:0:0:
100,68,171514,2,0,L|68:44,1,34.4999988418579
232,168,171733,2,0,L|268:192,1,34.4999988418579
376,288,172268,1,4,0:0:0:0:
376,288,172755,69,6,0:0:0:0:
36,292,173243,2,0,P|48:264|64:248,1,45.9999984558106
136,228,173462,2,0,P|164:200|160:192,1,57.4999980697633
104,56,173973,1,2,0:0:0:0:
104,56,174143,6,0,L|172:76,1,68.9999976837159
120,140,174411,2,0,P|176:184|204:176,1,103.499996525574
116,252,174801,1,0,0:0:0:0:
292,316,175093,2,0,P|376:284|404:268,1,114.999996139527
300,184,175531,2,4,P|256:168|208:176,2,91.9999969116212
328,204,176018,1,14,0:0:0:0:
387,264,176213,1,0,0:0:0:0:
288,332,176432,2,2,P|224:352|200:344,2,91.9999969116212
348,156,177114,2,8,L|360:112,1,45.9999984558106
384,44,177480,1,2,0:0:0:0:
156,132,177772,86,14,L|164:140,1,11.4999996139526
340,304,178356,2,4,L|368:332,1,37.5
240,188,178648,2,4,L|212:156,1,37.5
348,280,179208,1,2,0:0:0:0:
348,280,179671,5,4,0:0:0:0:
152,272,180085,2,0,P|116:268|100:284,1,50
48,364,180304,2,0,P|16:372|0:368,1,50
240,196,180986,1,0,0:0:0:0:
240,196,181230,5,0,0:0:0:0:
316,232,181376,2,0,P|256:295|159:309,1,187.5
120,252,181863,2,0,L|104:228,3,25
244,224,182130,1,0,0:0:0:0:
244,224,182252,2,0,P|260:272|224:324,1,112.5
308,272,182642,1,0,0:0:0:0:
308,272,182788,2,0,L|240:276,1,62.5
56,232,183129,1,0,0:0:0:0:
56,232,183275,2,0,L|124:236,1,62.5
244,180,183616,1,0,0:0:0:0:
244,180,183762,6,0,L|176:184,1,62.5
128,272,184054,2,0,B|112:292|112:292|96:268,1,50
51,203,184273,2,0,P|39:115|103:79,1,162.5
93,80,184687,21,14,0:0:0:0:
260,244,184980,2,0,L|260:320,2,75
140,144,185491,2,0,L|108:128,1,25
304,72,185807,1,0,0:0:0:0:
152,264,186148,1,0,0:0:0:0:
344,176,186441,1,14,0:0:0:0:
344,176,186587,54,0,P|268:232|224:232,1,137.5
160,168,186976,2,0,L|136:136,1,37.5
92,68,187171,1,0,0:0:0:0:
160,20,187317,1,0,0:0:0:0:
236,88,187488,6,0,B|312:116|312:116|308:148,1,112.5
260,224,187902,1,14,0:0:0:0:
372,244,188243,2,0,P|432:264|472:296,1,112.5
376,348,188608,2,0,P|352:312|372:248,1,112.5
296,196,188949,1,14,0:0:0:0:
268,200,189168,2,0,P|172:200|128:224,1,137.5
196,124,189704,1,14,0:0:0:0:
196,124,189971,6,0,P|144:148|124:200,1,112.5
156,260,190361,1,0,0:0:0:0:
276,128,190678,2,0,L|320:76,1,62.5
328,60,190970,1,0,0:0:0:0:
404,204,191262,1,14,0:0:0:0:
268,120,191700,54,0,B|136:148|136:148|176:232,1,225
280,284,192431,2,0,B|336:324|376:316|376:316|392:320|392:320|432:296,1,162.5
452,224,192942,1,14,0:0:0:0:
324,164,193283,54,0,P|240:116|172:120,1,162.5
132,240,193916,2,0,P|156:308|184:316,1,100
272,252,194379,2,8,L|376:160,1,131.25000500679
272,116,195012,2,0,P|212:96|168:116,1,112.5
252,164,195450,1,0,0:0:0:0:
324,220,195669,2,0,P|300:264|200:248,1,162.5
152,140,196278,2,0,P|108:104|56:104,1,100
4,132,196668,1,14,0:0:0:0:
68,180,196887,2,0,L|80:196,6,12.5
100,184,197252,22,0,P|136:236|160:248,1,87.5
216,232,197593,1,0,0:0:0:0:
272,168,197934,2,0,P|336:160|384:184,1,112.5
304,232,198299,1,0,0:0:0:0:
292,352,198494,1,14,0:0:0:0:
244,296,198616,86,0,P|212:248|204:220,1,87.5
144,324,198981,1,0,0:0:0:0:
76,352,199103,2,0,P|60:296|84:248,1,112.5
140,200,199444,2,12,B|176:168|176:168|228:188|192:248|252:288|252:288,1,187.5
352,196,200223,1,0,0:0:0:0:
256,128,200418,1,0,0:0:0:0:
308,252,200637,1,0,0:0:0:0:
336,352,200807,22,0,P|276:308|272:280,1,100
264,196,201148,2,0,P|208:164|108:168,1,162.5
112,166,201562,69,14,0:0:0:0:
188,272,201830,2,0,P|216:308|273:316,1,100
336,288,202147,1,0,0:0:0:0:
240,248,202317,1,0,0:0:0:0:
328,192,202488,1,0,0:0:0:0:
332,104,202682,2,0,L|380:56,2,62.5
232,180,203194,2,12,P|184:216|116:216,1,121.875004649162
184,116,203778,2,0,P|136:80|112:76,1,75
24,144,204119,2,0,L|24:196,2,50
104,68,204557,2,0,B|148:66|181:44|181:44|202:21|208:61|208:61|176:127,1,200
284,104,205118,1,14,0:0:0:0:
300,208,205410,6,0,L|376:256,2,87.5
240,168,205897,1,4,0:0:0:0:
188,108,206067,2,8,L|112:40,2,100
228,212,206700,2,2,P|248:256|224:296,1,87.5
48,156,207236,2,12,P|8:104|56:68,1,137.5
204,84,207747,2,4,P|268:104|300:168,1,137.5
372,240,208186,1,10,0:0:0:0:
228,268,208454,1,10,0:0:0:0:
128,248,208673,22,0,P|96:224|56:216,2,81.25
176,288,209525,2,12,P|216:328|252:336,2,93.75
176,288,210377,1,4,0:0:0:0:
176,288,210523,1,4,0:0:0:0:
404,196,210937,1,10,0:0:0:0:
296,292,211181,1,10,0:0:0:0:
328,152,211424,1,10,0:0:0:0:
200,148,211643,1,10,0:0:0:0:
160,148,211790,2,14,P|168:200|280:140,1,243.75
164,240,217074,70,0,L|144:260,1,25
328,92,217488,2,0,L|348:72,1,25
192,204,217853,1,0,0:0:0:0:
192,204,217999,1,0,0:0:0:0:
192,204,218169,1,0,0:0:0:0:
192,204,218267,6,0,P|212:236|296:236,1,125
196,112,219363,5,8,0:0:0:0:
196,112,219533,2,8,P|172:168|176:192,1,84.3750032186509
224,256,220069,6,0,B|256:216|300:232|300:232|304:188|304:188|368:208|368:208|392:164|392:164|460:168|488:200|536:204|496:144|456:124,1,431.25
340,200,221993,6,0,P|276:220|284:8,1,404.999987640381
352,120,223307,1,0,0:0:0:0:
388,164,223405,1,0,0:0:0:0:
399,221,223502,1,0,0:0:0:0:
383,277,223600,1,0,0:0:0:0:
342,318,223697,1,0,0:0:0:0:
287,335,223794,1,0,0:0:0:0:
230,325,223892,1,0,0:0:0:0:
180,300,224014,2,0,P|88:232|284:180,1,449.99998626709
248,240,225499,86,12,L|248:192,1,37.5
248,202,225791,1,0,0:0:0:0:
136,84,225937,2,0,P|80:104|72:156,2,112.5
196,128,226497,2,0,B|235:140|271:99|271:99|257:90,1,100
180,160,226863,2,0,P|130:180|93:262,1,137.5
128,316,227252,1,0,0:0:0:0:
128,316,227423,6,0,B|196:330|196:330|212:318,1,87.5
264,244,227739,2,0,P|314:243|337:254,1,75
460,304,228105,2,0,P|488:284|452:276,1,87.5
384,308,228397,2,0,P|348:332|288:312,1,100
248,224,228762,2,0,P|216:200|152:220,1,112.5
151,220,229079,5,0,0:0:0:0:
264,320,229322,2,0,P|290:298|305:274,1,62.5
236,216,229590,2,0,P|200:168|252:68,1,175
184,88,230028,1,0,0:0:0:0:
264,128,230174,1,0,0:0:0:0:
372,208,230393,2,0,P|364:232|352:208,1,62.5
364,120,230661,2,0,P|356:100|380:124,1,112.5
224,196,231075,2,0,P|188:224|140:232,2,87.5
288,156,231562,5,0,0:0:0:0:
396,300,231781,2,0,L|424:340,1,37.5
200,300,232122,2,0,L|176:348,1,50
240,176,232439,2,0,P|265:127|322:105,1,112.5
408,152,232829,22,0,P|352:208|348:224,1,87.5
424,232,233121,2,0,P|396:296|304:280,1,175
292,116,233730,2,0,L|240:80,1,62.5
184,168,234022,2,0,P|124:164|140:232,1,150
260,240,234509,2,0,P|304:260|328:280,1,75
188,264,234947,70,0,P|164:164|320:236,1,375
328,308,235921,2,0,P|272:324|240:328,1,87.5
176,304,236335,1,0,0:0:0:0:
92,272,236481,2,0,P|44:248|44:232,1,75
144,192,236773,2,0,P|136:148|104:124,1,87.5
68,172,237041,1,0,0:0:0:0:
68,172,237236,5,0,0:0:0:0:
168,176,237553,2,0,L|256:176,2,87.5
104,124,238186,2,0,P|72:168|80:208,1,87.5
140,180,238624,2,0,P|60:180|20:204,1,125
75,198,239062,2,0,B|103:146|91:130|115:90|79:62,1,137.5
152,208,239501,6,0,P|93:159|111:85,1,150
224,72,239988,2,0,B|232:96|324:12|288:128|308:124,1,112.5
332,184,240329,2,0,P|326:238|280:266,1,112.5
220,272,240645,2,0,B|120:240|120:240|144:220,1,125
168,196,240962,5,0,0:0:0:0:
204,84,241181,2,0,B|216:40|264:48|268:40,1,75
408,144,241619,2,0,P|439:189|424:242,1,112.5
312,280,242033,86,0,L|326:260,3,25
252,332,242350,2,0,P|160:321|96:254,1,187.5
168,200,242861,1,0,0:0:0:0:
296,124,243105,1,0,0:0:0:0:
176,116,243299,2,0,P|120:108|108:104,1,62.5
20,32,243689,2,0,P|44:29|68:37,1,50
104,104,243908,2,0,P|126:114|150:107,1,50
348,104,244200,1,0,0:0:0:0:
348,104,244419,1,4,0:0:0:0:
348,104,244882,1,2,0:0:0:0:
203,228,245369,2,4,L|228:200,1,37.5
366,53,245661,2,4,L|340:80,1,37.5
180,204,246221,85,14,0:0:0:0:
360,273,246611,1,2,0:0:0:0:
360,272,246879,2,8,L|348:228,1,37.5
202,38,247293,6,2,P|247:31|288:52,2,87.5
300,108,247853,2,8,P|283:144|249:165,1,75
212,209,248194,2,4,P|257:215|300:200,2,87.5
132,132,248778,2,0,P|81:106|27:88,1,112.5
208,92,249290,5,0,0:0:0:0:
201,206,249484,2,0,P|151:205|120:244,1,100
200,280,249801,2,0,L|266:300,1,62.5
396,332,250118,1,2,0:0:0:0:
276,240,250361,1,0,0:0:0:0:
160,184,250507,2,0,P|156:180|136:156,1,37.5
58,131,250751,2,0,P|43:113|36:92,1,37.5
180,152,251067,2,0,P|224:176|240:176,1,62.5
356,108,251335,1,6,0:0:0:0:
204,272,251579,2,0,L|247:230,1,50
332,140,251822,5,4,0:0:0:0:
200,224,251993,2,0,L|252:196,1,50
357,130,252236,5,4,0:0:0:0:
169,232,252382,2,0,L|228:220,1,50
348,188,252626,5,4,0:0:0:0:
200,136,252772,2,0,L|258:153,1,50
396,208,253015,5,4,0:0:0:0:
220,252,253307,22,0,P|188:204|188:164,1,100
244,112,253624,1,0,0:0:0:0:
156,192,253819,2,0,B|136:228|140:228|132:228|132:228|96:176|164:96,1,187.5
244,68,254330,2,0,P|276:52|316:44,1,75
420,60,254647,1,0,0:0:0:0:
360,228,254866,1,0,0:0:0:0:
372,128,254988,1,0,0:0:0:0:
336,240,255134,1,0,0:0:0:0:
304,136,255255,86,0,P|272:116|184:124,2,125
304,240,255913,2,0,P|332:260|360:260,1,62.5
420,140,256254,2,0,P|400:116|360:108,2,62.5
248,236,256814,2,0,P|216:272|140:288,1,125
96,132,257325,2,0,L|60:104,3,37.5
116,264,257812,2,0,P|168:332|272:332,1,187.5
332,276,258324,1,0,0:0:0:0:
360,244,258592,2,0,B|412:240|452:208|448:200|448:200|436:192,1,112.5
336,116,259127,2,0,B|268:152|256:192|256:192|256:212,1,125
260,288,259566,2,0,L|260:344,1,50
260,338,259809,21,0,0:0:0:0:
88,244,260296,2,0,P|68:188|128:136,1,137.5
196,188,260783,1,0,0:0:0:0:
264,236,261002,2,0,P|304:280|472:284,1,237.5
372,308,261976,2,0,B|304:336|304:336|296:252,1,150
296,136,262561,2,0,L|296:48,2,87.5
296,256,263194,2,0,P|304:304|324:336,2,87.5
220,164,263827,2,0,P|192:112|104:96,1,150
148,140,264265,1,0,0:0:0:0:
220,160,264436,86,0,P|252:216|352:228,1,162.5
292,180,264923,1,0,0:0:0:0:
160,172,265239,2,0,P|104:196|68:276,2,150
204,236,266018,2,0,L|260:264,1,62.5
232,128,266481,2,0,L|296:100,1,62.5
192,120,266871,85,0,0:0:0:0:
176,224,267041,6,0,P|144:272|144:312,1,100
116,240,267358,1,0,0:0:0:0:
196,148,267553,2,0,B|252:208|252:208|228:256,1,125
92,160,268064,2,0,P|122:141|161:129,1,75
228,208,268380,1,0,0:0:0:0:
388,252,268648,2,0,P|420:284|416:292,1,62.5
292,340,268989,6,0,P|254:334|192:272,1,125
256,192,269403,1,0,0:0:0:0:
364,88,269647,2,0,P|392:68|420:68,1,62.5
448,200,269988,2,0,P|428:224|388:232,1,62.5
136,176,270548,2,0,P|104:140|28:124,1,125
116,264,271059,2,0,L|80:292,3,37.5
160,140,271546,2,0,P|212:72|316:72,1,187.5
260,144,272057,1,0,0:0:0:0:
424,140,272325,2,0,B|476:144|516:176|512:184|512:184|500:192,1,112.5
336,288,272861,2,0,B|268:252|256:212|256:212|256:192,1,125
260,80,273299,2,0,L|260:24,1,50
256,120,273543,21,0,0:0:0:0:
88,140,274030,2,0,P|68:196|128:248,1,137.5
196,196,274517,1,0,0:0:0:0:
272,148,274736,2,0,B|224:76|328:4|428:92|372:156,1,250
352,188,275345,1,0,0:0:0:0:
320,228,275467,1,0,0:0:0:0:
276,260,275613,1,0,0:0:0:0:
232,284,275710,2,0,B|176:328|268:364|344:328|300:288,1,175
324,176,276294,2,0,L|324:88,2,87.5
212,216,276928,2,0,P|174:185|156:151,2,87.5
299,204,277561,2,0,P|358:196|423:258,1,150
380,296,277999,1,0,0:0:0:0:
312,280,278169,22,0,P|344:224|444:212,1,162.5
404,272,278656,1,0,0:0:0:0:
288,328,278973,2,0,P|232:304|196:224,2,150
288,328,279679,1,10,0:0:0:0:
392,172,279923,1,10,0:0:0:0:
488,312,280166,1,10,0:0:0:0:
340,228,280385,1,10,0:0:0:0:
340,228,280531,5,0,0:0:0:0:
256,304,287983,6,0,P|160:328|196:84,1,478.125018239022
300,180,289687,2,0,L|324:268,2,84.3750032186509
260,120,290369,2,0,P|236:92|152:80,2,121.875004649162
240,204,292195,1,0,0:0:0:0:
240,204,292682,1,0,0:0:0:0:
240,204,293437,5,0,0:0:0:0:
240,204,293827,2,0,L|240:128,1,75.0000028610231
252,208,294387,1,0,0:0:0:0:
248,192,294509,54,0,L|244:80,2,112.5
252,280,295166,1,0,0:0:0:0:
116,232,295507,2,0,P|84:160|108:128,1,125
228,84,296067,1,0,0:0:0:0:
360,36,296238,1,0,0:0:0:0:
272,116,296384,1,0,0:0:0:0:
364,192,296579,2,0,P|412:236|428:240,1,75
500,132,296944,2,0,P|424:120|296:192,1,225
156,316,297699,2,0,L|100:352,2,62.5
240,256,298113,1,0,0:0:0:0:
384,208,298356,1,0,0:0:0:0:
268,148,298600,1,0,0:0:0:0:
248,192,298989,6,0,L|244:304,2,112.5
252,104,299647,1,0,0:0:0:0:
116,152,299988,2,0,P|84:224|108:256,1,125
228,300,300548,1,0,0:0:0:0:
360,348,300718,1,0,0:0:0:0:
272,268,300864,1,0,0:0:0:0:
364,192,301059,2,0,P|412:148|428:144,1,75
500,252,301424,2,0,P|424:264|296:192,1,225
156,68,302179,2,0,L|100:32,2,62.5
240,128,302593,1,0,0:0:0:0:
384,176,302837,1,0,0:0:0:0:
268,236,303080,1,0,0:0:0:0:
264,192,303299,6,0,L|268:304,2,112.5
260,104,303957,1,0,0:0:0:0:
396,152,304298,2,0,P|428:224|404:256,1,125
284,300,304858,1,0,0:0:0:0:
152,348,305028,1,0,0:0:0:0:
240,268,305174,1,0,0:0:0:0:
148,192,305369,2,0,P|100:148|84:144,1,75
12,252,305734,2,0,P|88:264|216:192,1,225
356,68,306489,2,0,L|412:32,2,62.5
272,128,306903,1,0,0:0:0:0:
128,176,307147,1,0,0:0:0:0:
244,236,307390,1,0,0:0:0:0:
256,192,307536,12,14,310872,0:0:0:0:
172,280,314793,6,12,P|156:264|160:196,1,93.7500035762788
292,196,315329,2,0,P|320:232|308:296,1,112.500004291535
152,244,315937,2,0,P|128:208|144:160,1,95.8499972503968
284,232,316449,2,0,P|284:284|260:304,1,85.1999975559083
132,244,316887,2,0,P|124:192|148:176,1,82.2499987449646
272,232,317301,2,0,P|264:280|240:284,1,70.4999989242554
104,224,317715,2,0,P|120:160|128:152,1,70.4999989242554
300,172,318178,2,0,P|308:224|296:248,1,70.4999989242554
284,252,318470,1,14,0:0:0:0:
100,191,318640,2,0,P|129:132|139:126,1,70.4999989242554
303,181,319103,2,0,P|300:234|283:255,1,82.2499987449646
104,156,319541,6,0,P|120:132|156:101,1,70.4999989242554
304,192,319955,2,0,P|304:208|288:236,1,46.9999992828369
113,131,320247,2,0,P|120:104|140:100,1,46.9999992828369
289,226,320613,2,0,P|272:240|244:244,1,46.9999992828369
172,168,320929,2,0,P|176:152|204:136,1,46.9999992828369
280,176,321173,2,0,P|272:208|256:220,1,46.9999992828369
190,134,321465,2,0,P|208:112|228:116,1,46.9999992828369
284,187,321708,6,14,P|268:204|240:216,1,46.9999992828369
204,121,321976,2,0,P|220:112|252:116,1,46.9999992828369
284,194,322220,2,0,P|225:218|209:206,1,82.2499987449646
248,80,322682,5,0,0:0:0:0:
76,124,323316,1,4,0:0:0:0:
147,165,323559,2,0,L|180:184,1,35.2499994621277
267,205,323827,2,0,L|292:228,1,23.4999996414185
163,90,324046,2,0,L|140:64,1,35.2499994621277
333,181,324314,2,0,L|360:208,1,35.2499994621277
196,32,324582,1,4,0:0:0:0:
280,94,324728,2,0,L|320:124,1,46.9999992828369
256,164,325093,1,0,0:0:0:0:
260,244,325361,70,0,L|260:320,2,75
140,144,325872,2,0,L|108:128,1,25
304,72,326189,1,0,0:0:0:0:
152,264,326530,1,0,0:0:0:0:
344,176,326822,1,14,0:0:0:0:
344,176,326968,6,0,P|268:232|224:232,1,137.5
160,168,327358,2,0,L|136:136,1,37.5
92,68,327699,5,0,0:0:0:0:
48,164,327869,2,0,B|60:212|60:212|120:192|140:200,1,125
240,184,328283,1,14,0:0:0:0:
372,244,328624,2,0,P|432:264|472:296,1,112.5
376,348,328989,2,0,P|352:312|372:248,1,112.5
296,196,329330,2,14,L|276:192,4,12.5
268,200,329549,6,0,P|172:200|128:224,1,137.5
196,124,330085,1,14,0:0:0:0:
88,244,330426,2,0,P|68:188|128:136,1,137.5
196,188,330913,1,0,0:0:0:0:
264,236,331132,2,0,P|304:280|472:284,1,237.5
471,284,331741,1,0,0:0:0:0:
471,284,331863,1,0,0:0:0:0:
372,308,332106,2,0,B|304:336|304:336|296:252,1,150
296,136,332691,2,0,L|296:48,2,87.5
296,256,333324,6,0,P|304:304|324:336,2,87.5
220,164,333957,2,0,P|192:112|104:96,1,150
148,140,334395,1,0,0:0:0:0:
220,160,334566,6,0,P|252:216|352:228,1,162.5
292,180,335053,1,0,0:0:0:0:
160,172,335369,2,0,P|104:196|68:276,2,150
204,236,336148,2,0,L|260:264,1,62.5
232,128,336611,2,0,L|296:100,1,62.5
256,184,337001,2,0,L|168:184,1,87.5
112,112,337390,2,0,L|64:76,1,50
116,244,337902,2,0,L|56:276,1,62.5
152,200,338316,2,0,L|260:200,1,100
340,296,338827,54,0,L|292:320,1,50
328,132,339265,6,0,P|360:180|360:220,1,100
308,276,339582,1,0,0:0:0:0:
224,220,339777,2,0,B|168:160|168:160|192:112,1,125
380,292,340288,2,0,P|349:273|310:261,1,75
204,300,340605,1,0,0:0:0:0:
124,344,340824,1,0,0:0:0:0:
124,344,340945,1,0,0:0:0:0:
124,344,341092,1,0,0:0:0:0:
172,328,341213,6,0,P|209:322|271:260,1,125
300,180,341627,1,0,0:0:0:0:
356,68,341871,2,0,P|328:48|300:48,1,62.5
228,132,342212,2,0,P|248:156|288:164,1,62.5
384,124,342553,1,0,0:0:0:0:
312,208,342772,2,0,P|344:172|420:156,1,125
352,276,343283,2,0,L|388:304,3,37.5
460,240,343770,2,0,P|408:172|304:172,1,187.5
240,192,344281,1,0,0:0:0:0:
108,236,344549,2,0,B|56:240|16:272|20:280|20:280|32:288,1,112.5
168,364,345085,2,0,B|236:328|248:288|248:288|248:268,1,125
252,176,345523,2,0,L|252:120,1,50
252,126,345767,5,0,0:0:0:0:
340,80,345962,2,0,L|380:100,1,37.5
460,168,346254,2,0,P|480:224|420:276,1,137.5
364,260,346741,1,0,0:0:0:0:
240,148,346960,2,0,B|288:76|184:4|84:92|140:156,1,250
160,188,347569,1,0,0:0:0:0:
192,228,347691,1,0,0:0:0:0:
236,260,347837,2,0,B|296:320|164:392|96:304|148:260,1,225
188,176,348518,2,0,L|188:88,2,87.5
300,216,349152,2,0,P|337:185|355:151,2,87.5
212,204,349785,2,0,P|153:196|88:258,1,150
132,296,350223,1,0,0:0:0:0:
200,280,350393,22,0,P|168:224|68:212,1,162.5
108,272,350880,1,0,0:0:0:0:
224,328,351197,2,0,P|280:304|316:224,1,150
272,56,351660,1,0,0:0:0:0:
52,172,351903,1,10,0:0:0:0:
272,228,352122,1,10,0:0:0:0:
172,228,352902,38,0,P|136:168|240:84,1,225
292,180,353705,2,0,P|324:240|356:248,1,100
428,188,354217,2,0,L|428:160,4,25
404,252,354630,1,0,0:0:0:0:
320,312,354971,2,0,P|232:328|172:304,1,150
128,272,355458,2,0,L|112:248,5,25
220,252,356043,2,0,P|284:280|320:268,1,100
360,240,356432,2,0,P|392:188|372:156,1,100
360,116,356773,2,0,P|304:88|256:88,1,112.5
192,128,357236,2,0,P|180:172|188:220,1,87.5
248,292,357650,102,0,L|248:336,1,37.5
144,244,357942,2,0,L|100:244,1,37.5
288,240,358307,2,0,L|324:240,1,25
220,120,358600,2,0,L|220:28,1,87.5
132,188,359208,6,0,P|96:248|200:332,1,225
292,220,360012,2,0,P|324:160|356:152,1,100
436,252,360523,2,0,L|436:280,4,25
424,164,360937,1,0,0:0:0:0:
312,80,361278,2,0,P|224:64|164:88,1,150
108,136,361765,2,0,L|92:160,5,25
232,136,362350,2,0,P|296:108|332:120,1,100
396,148,362739,2,0,P|428:200|408:232,1,100
376,276,363080,2,0,P|320:304|272:304,1,112.5
180,260,363543,2,0,P|168:216|176:168,1,87.5
272,84,364468,5,0,0:0:0:0:
296,180,364687,1,0,0:0:0:0:
180,176,364858,1,0,0:0:0:0:
336,264,365126,1,0,0:0:0:0:
336,264,365296,1,0,0:0:0:0:
376,184,365491,2,0,P|424:204|456:212,1,75
85,192,366270,38,14,P|68:156|64:116,1,75
236,84,366587,1,10,0:0:0:0:
428,132,366781,1,10,0:0:0:0:
180,160,367025,1,10,0:0:0:0:
272,0,367268,1,10,0:0:0:0:
196,316,367585,1,0,0:0:0:0:
148,72,375669,6,0,P|92:152|296:84,1,612.5
316,80,377179,2,0,P|368:112|228:88,1,650
256,192,378640,12,0,381489,0:0:0:0:
200,160,381792,6,0,P|192:176|148:196,1,62.5
112,212,382073,2,0,P|116:244|160:256,1,75.0000028610231
184,236,382401,2,0,P|224:252|256:328,1,121.875004649162
204,348,382916,1,0,0:0:0:0:
168,358,383010,1,0,0:0:0:0:
130,358,383104,5,0,0:0:0:0:
95,346,383197,1,0,0:0:0:0:
65,323,383291,1,0,0:0:0:0:
76,180,383572,2,0,L|164:180,1,84.3750032186509
184,144,383877,1,0,0:0:0:0:
206,114,383970,1,0,0:0:0:0:
228,76,384064,5,0,0:0:0:0:
264,67,384158,1,0,0:0:0:0:
301,66,384251,1,0,0:0:0:0:
338,72,384345,1,0,0:0:0:0:
373,85,384439,1,0,0:0:0:0:
420,144,384603,2,0,L|432:160,7,18.7500007152558
309,155,385071,6,0,P|298:141|299:93,1,65.6250025033952
268,124,385352,2,0,P|238:113|208:148,1,84.3750032186509
240,176,385680,2,0,P|208:205|126:201,1,121.875004649162
96,140,386195,1,0,0:0:0:0:
113,106,386289,1,0,0:0:0:0:
139,80,386383,5,0,0:0:0:0:
172,63,386476,1,0,0:0:0:0:
208,57,386570,1,0,0:0:0:0:
308,68,386851,2,0,P|352:84|364:108,1,75.0000028610231
316,164,387179,2,0,P|340:184|360:228,1,75.0000028610231
368,300,387460,1,0,0:0:0:0:
232,312,387648,6,0,B|176:348|176:348|168:336,1,75.0000028610231
60,192,388257,2,0,L|80:224,1,37.5000014305115
244,120,388749,6,0,P|296:92|376:108,1,131.999999597168
464,200,389100,2,0,L|464:228,1,16.499999949646
424,84,389287,2,0,L|416:108,1,16.499999949646
364,248,389498,2,0,P|356:264|344:256,1,32.999999899292
252,128,389732,2,0,P|236:136|228:128,1,16.499999949646
324,76,389990,1,0,0:0:0:0:
381,47,390084,1,0,0:0:0:0:
441,70,390177,5,0,0:0:0:0:
466,129,390271,1,0,0:0:0:0:
464,204,390388,2,0,P|424:240|352:236,1,115.499999647522
292,220,390669,2,0,P|256:184|136:208,1,181.499999446106
128,232,391161,6,0,P|106:263|110:275,3,49.499999848938
276,220,391512,2,0,P|300:208|300:176,4,49.499999848938
248,212,391817,1,0,0:0:0:0:
243,176,391911,1,0,0:0:0:0:
222,147,392004,1,0,0:0:0:0:
189,132,392098,1,0,0:0:0:0:
153,135,392192,1,0,0:0:0:0:
124,156,392285,1,0,0:0:0:0:
108,188,392379,5,0,0:0:0:0:
110,224,392473,1,0,0:0:0:0:
129,254,392566,1,0,0:0:0:0:
161,271,392660,1,0,0:0:0:0:
284,288,392777,2,0,P|364:288|412:264,1,131.999999597168
340,228,393035,2,0,P|348:324|472:240,1,313.499999043274
428,180,393550,2,0,L|384:148,1,49.499999848938
68,180,393902,2,0,L|68:204,10,16.499999949646
92,72,394417,5,0,0:0:0:0:
180,292,394628,2,0,L|184:308,11,16.499999949646
232,32,395213,1,0,0:0:0:0:
308,256,395424,2,0,L|316:276,6,16.499999949646
232,84,395729,6,0,L|220:60,6,16.499999949646
140,132,396056,1,0,0:0:0:0:
200,216,396338,2,0,L|220:224,8,16.499999949646
320,116,396806,1,0,0:0:0:0:
412,180,397040,2,0,L|420:208,11,16.499999949646
352,244,397462,1,0,0:0:0:0:
244,204,397649,1,0,0:0:0:0:
204,136,397790,1,0,0:0:0:0:
192,101,397883,1,0,0:0:0:0:
167,75,397977,1,0,0:0:0:0:
133,62,398071,5,0,0:0:0:0:
97,65,398165,1,0,0:0:0:0:
66,82,398258,1,0,0:0:0:0:
44,111,398352,5,14,0:0:0:0:
37,146,398446,5,0,0:0:0:0:
45,181,398539,1,0,0:0:0:0:
67,209,398633,1,0,0:0:0:0:
99,226,398727,1,0,0:0:0:0:
232,292,398984,2,0,P|272:300|340:280,1,98.999999697876
396,76,399523,2,0,L|420:72,9,16.499999949646
312,132,399945,1,0,0:0:0:0:
160,56,400249,6,0,P|120:72|144:40,1,98.999999697876
244,96,400600,2,0,P|232:116|260:100,1,82.49999974823
348,140,400882,1,12,0:0:0:0:
375,156,400975,1,0,0:0:0:0:
400,175,401069,1,0,0:0:0:0:
413,203,401163,1,0,0:0:0:0:
400,230,401256,5,0,0:0:0:0:
371,244,401350,1,0,0:0:0:0:
340,249,401444,1,0,0:0:0:0:
308,249,401537,1,0,0:0:0:0:
204,248,401725,2,0,L|96:248,1,98.999999697876
64,244,401912,1,14,0:0:0:0:
260,280,402427,2,0,P|272:260|288:260,1,32.999999899292
424,96,402709,2,0,P|440:100|440:84,1,32.999999899292
372,144,402966,2,0,P|400:176|348:256,2,148.499999546814
264,92,403528,6,0,L|240:84,6,16.499999949646
356,164,403809,2,0,L|432:208,1,82.49999974823
436,344,404090,2,0,L|460:344,9,16.499999949646
352,316,404442,2,0,B|328:352|328:352|312:328|312:328|268:364|268:364|244:344|244:344|224:328,1,181.499999446106
292,216,404887,1,0,0:0:0:0:
164,92,405098,1,0,0:0:0:0:
124,80,405308,6,0,L|116:104,6,16.499999949646
296,240,405613,1,0,0:0:0:0:
304,240,405707,2,0,L|416:240,1,98.999999697876
212,188,406105,1,0,0:0:0:0:
212,188,406199,6,0,L|124:176,1,82.49999974823
208,304,406526,2,0,L|224:312,9,16.499999949646
184,292,406784,1,0,0:0:0:0:
152,274,406878,1,0,0:0:0:0:
129,246,406971,1,0,0:0:0:0:
119,212,407065,1,0,0:0:0:0:
122,176,407159,5,0,0:0:0:0:
139,144,407253,1,0,0:0:0:0:
167,121,407346,1,0,0:0:0:0:
292,72,407463,2,0,P|344:56|448:64,1,148.499999546814
416,228,407815,2,0,P|372:264|320:272,1,98.999999697876
184,212,408166,6,0,P|112:180|120:136,1,131.999999597168
240,104,408471,1,0,0:0:0:0:
294,121,408564,1,0,0:0:0:0:
349,139,408658,1,0,0:0:0:0:
140,340,408916,1,0,0:0:0:0:
96,310,409009,1,0,0:0:0:0:
75,261,409103,5,0,0:0:0:0:
82,209,409197,1,0,0:0:0:0:
117,169,409290,1,0,0:0:0:0:
220,80,409407,2,0,P|252:44|304:32,1,98.999999697876
168,160,409782,6,0,L|68:160,1,98.999999697876
232,232,410157,2,0,P|312:228|328:236,1,98.999999697876
384,312,410462,2,0,L|396:324,6,16.499999949646
148,276,410813,1,0,0:0:0:0:
103,241,410907,1,0,0:0:0:0:
89,186,411000,1,0,0:0:0:0:
111,134,411094,1,0,0:0:0:0:
161,107,411188,5,0,0:0:0:0:
217,115,411281,1,0,0:0:0:0:
255,157,411375,1,0,0:0:0:0:
260,208,411445,2,0,L|264:308,2,98.999999697876
256,120,411867,2,0,P|192:148|308:132,1,560.999998287964
136,196,418964,6,0,L|124:208,1,16.499999949646
88,156,419128,2,0,L|100:144,1,16.499999949646
76,92,419292,2,0,L|64:108,1,16.499999949646
44,100,419620,1,0,0:0:0:0:
43,152,419714,1,0,0:0:0:0:
66,198,419807,5,0,0:0:0:0:
109,228,419901,1,0,0:0:0:0:
184,256,420041,2,0,P|248:264|304:280,1,115.499999647522
228,220,420346,2,0,P|340:216|364:204,1,131.999999597168
412,160,420650,2,0,P|444:104|396:52,1,131.999999597168
276,44,421049,1,0,0:0:0:0:
220,32,421142,1,0,0:0:0:0:
32,332,421541,1,0,0:0:0:0:
61,302,421634,1,0,0:0:0:0:
90,273,421728,1,0,0:0:0:0:
220,208,421986,2,0,L|236:200,19,16.499999949646
144,156,422618,6,0,L|124:160,5,16.499999949646
192,104,422876,2,0,L|208:96,6,16.499999949646
196,208,423204,2,0,L|196:228,8,16.499999949646
232,128,423555,2,0,L|228:104,9,16.499999949646
268,180,423906,2,0,P|288:224|260:272,1,98.999999697876
188,272,424187,1,0,0:0:0:0:
139,265,424281,1,0,0:0:0:0:
103,232,424375,1,0,0:0:0:0:
91,185,424468,5,0,0:0:0:0:
108,140,424562,1,0,0:0:0:0:
140,120,424632,2,0,P|192:92|284:100,1,148.499999546814
392,220,425148,2,0,L|404:232,12,16.499999949646
276,220,425640,6,0,P|260:252|152:232,1,164.99999949646
140,196,425944,2,0,P|192:156|272:192,1,148.499999546814
300,284,426342,2,0,L|312:300,13,16.499999949646
212,248,426834,1,0,0:0:0:0:
168,224,426928,1,0,0:0:0:0:
140,180,427021,5,0,0:0:0:0:
131,136,427115,1,0,0:0:0:0:
145,89,427209,1,0,0:0:0:0:
300,144,427490,2,0,L|384:160,1,82.49999974823
288,232,427794,2,0,L|384:196,1,98.999999697876
396,96,428099,2,0,L|504:152,1,115.499999647522
284,236,428474,2,0,L|280:252,6,16.499999949646
168,240,428825,1,0,0:0:0:0:
132,207,428919,1,0,0:0:0:0:
119,160,429012,1,0,0:0:0:0:
132,114,429106,1,0,0:0:0:0:
167,80,429200,1,0,0:0:0:0:
214,70,429293,5,0,0:0:0:0:
259,85,429387,1,0,0:0:0:0:
260,144,429575,6,0,B|252:232|176:256|76:332|264:400|448:320|300:248|288:240,1,393.750015020371
132,216,431308,6,0,P|72:192|72:144,1,118.75
168,96,432268,1,0,0:0:0:0:
188,81,432362,1,0,0:0:0:0:
210,70,432456,1,0,0:0:0:0:
235,65,432549,5,0,0:0:0:0:
260,64,432643,1,0,0:0:0:0:
284,68,432737,1,0,0:0:0:0:
308,77,432830,1,0,0:0:0:0:
329,90,432924,1,0,0:0:0:0:
348,116,433065,2,0,P|388:152|356:228,1,143.75
304,212,433861,2,0,L|208:212,2,93.75
360,184,434845,2,0,L|372:176,11,12.5
340,228,435641,1,0,0:0:0:0:
310,255,435735,1,0,0:0:0:0:
272,267,435828,5,0,0:0:0:0:
232,263,435922,1,0,0:0:0:0:
197,241,436016,1,0,0:0:0:0:
92,152,436273,2,0,B|-32:56|168:-28|368:68|240:160,1,406.25
192,232,438382,2,0,P|144:256|88:312,2,131.25
260,236,439693,2,0,P|336:264|368:296,2,121.875004649162
200,184,440536,1,0,0:0:0:0:
158,189,440630,1,0,0:0:0:0:
123,167,440724,1,0,0:0:0:0:
112,127,440818,5,0,0:0:0:0:
129,89,440911,1,0,0:0:0:0:
300,80,441122,2,0,L|328:84,3,21.2500004053116
200,52,441590,6,0,P|176:96|224:176,1,150
356,184,442129,1,0,0:0:0:0:
361,212,442223,1,0,0:0:0:0:
348,238,442317,1,0,0:0:0:0:
324,255,442410,1,0,0:0:0:0:
297,268,442504,5,0,0:0:0:0:
270,277,442598,1,0,0:0:0:0:
241,285,442691,1,0,0:0:0:0:
212,291,442785,1,0,0:0:0:0:
183,297,442879,1,0,0:0:0:0:
154,299,442972,5,0,0:0:0:0:
125,298,443066,1,0,0:0:0:0:
95,297,443160,1,0,0:0:0:0:
66,296,443254,1,0,0:0:0:0:
172,116,443652,2,0,P|268:88|356:88,1,184.500002815247
272,144,444120,6,0,P|344:104|424:112,1,153.750002346039
384,208,444565,1,0,0:0:0:0:
359,245,444659,1,0,0:0:0:0:
315,255,444753,1,0,0:0:0:0:
292,244,444799,2,0,P|264:220|120:204,2,184.500002815247
200,312,445572,2,0,L|184:324,6,15.3750002346039
292,244,445924,2,0,L|360:184,2,76.8750011730194
144,272,446439,2,0,L|120:280,1,15.3750002346039
256,176,446673,2,0,L|280:168,1,15.3750002346039
100,128,446907,6,0,B|84:112|84:112|88:88,1,46.1250007038117
232,204,447212,2,0,B|224:221|224:221|236:233,1,30.7500004692078
288,88,447493,1,0,0:0:0:0:
327,132,447587,1,0,0:0:0:0:
313,190,447680,1,0,0:0:0:0:
258,212,447774,1,0,0:0:0:0:
168,188,447962,2,0,P|136:168|168:280,1,322.875004926682
280,220,448711,2,0,P|300:184|320:240,1,123.000001876831
260,300,449086,2,0,L|236:316,6,15.3750002346039
228,168,449484,2,0,L|236:152,11,15.3750002346039
124,244,449929,2,0,B|96:200|156:184|108:124,1,123.000001876831
136,184,450327,6,0,P|160:160|264:144,1,138.375002111435
328,196,450702,2,0,B|436:192|472:364|280:352|372:276|288:260,1,276.75000422287
200,236,451311,1,0,0:0:0:0:
139,232,451405,1,0,0:0:0:0:
92,194,451498,1,0,0:0:0:0:
74,136,451592,1,0,0:0:0:0:
93,79,451686,5,0,0:0:0:0:
141,42,451779,1,0,0:0:0:0:
202,40,451873,1,0,0:0:0:0:
253,72,451967,1,0,0:0:0:0:
256,168,452154,2,0,L|264:272,1,92.2500014076233
136,320,452529,1,0,0:0:0:0:
116,332,452693,6,0,P|72:284|80:232,1,107.625001642227
164,204,453302,6,0,P|288:136|304:160,1,215.250003284454
340,276,453864,2,0,L|348:292,5,15.3750002346039
308,200,454169,1,0,0:0:0:0:
298,176,454262,1,0,0:0:0:0:
289,152,454356,1,0,0:0:0:0:
280,128,454450,1,0,0:0:0:0:
271,104,454543,5,0,0:0:0:0:
262,80,454637,1,0,0:0:0:0:
252,56,454731,1,0,0:0:0:0:
156,60,454918,2,0,P|112:64|84:84,1,76.8750011730194
32,132,455293,1,0,0:0:0:0:
40,168,455457,6,0,B|128:128|52:228|168:184,1,138.375002111435
272,156,455902,1,0,0:0:0:0:
92,84,456277,1,8,0:0:0:0:
88,145,456370,1,8,0:0:0:0:
104,203,456464,1,8,0:0:0:0:
140,253,456558,5,2,0:0:0:0:
190,289,456651,1,2,0:0:0:0:
249,305,456745,1,2,0:0:0:0:
310,302,456839,5,4,0:0:0:0:
366,278,456932,1,4,0:0:0:0:
411,236,457026,1,14,0:0:0:0:
140,140,474851,6,2,L|124:148,10,12.5
264,136,475319,2,8,L|280:152,10,12.5
152,220,475764,2,4,P|128:240|116:268,7,62.5
256,192,476678,12,0,479653,0:0:0:0:
282,299,479832,5,0,0:0:0:0:
282,299,479910,6,0,P|232:296|180:264,1,112.5
120,60,480384,1,0,0:0:0:0:
120,60,480463,6,0,P|140:96|212:128,1,112.5
380,272,480956,1,0,0:0:0:0:
380,272,481035,6,0,P|420:264|473:205,1,112.5
312,124,481430,2,0,P|272:96|188:120,2,137.5
44,292,482239,2,0,L|32:308,4,12.5
100,216,482436,2,0,L|156:128,1,100
269,250,482811,2,0,L|281:266,4,12.5
219,174,483008,2,0,L|163:86,1,100
292,204,483502,2,0,L|308:216,6,12.5
224,160,483719,6,0,P|160:104|104:80,2,137.5
112,184,484350,2,0,P|144:224|219:257,1,125
264,260,484745,1,0,0:0:0:0:
298,245,484824,1,0,0:0:0:0:
328,223,484903,1,0,0:0:0:0:
380,140,485061,1,0,0:0:0:0:
394,112,485140,5,0,0:0:0:0:
409,84,485219,1,0,0:0:0:0:
244,64,485495,1,0,0:0:0:0:
193,50,485574,1,0,0:0:0:0:
142,63,485653,1,0,0:0:0:0:
105,101,485732,5,0,0:0:0:0:
91,151,485811,1,0,0:0:0:0:
160,256,486067,2,0,P|216:272|272:256,2,112.5
52,220,486758,2,0,L|48:204,1,12.5
52,220,486876,6,0,L|56:200,1,12.5
52,220,486994,2,0,L|68:208,1,12.5
52,220,487113,2,0,L|72:216,1,12.5
168,172,487389,2,0,P|208:144|312:160,1,150
324,268,487843,1,0,0:0:0:0:
258,284,487922,1,0,0:0:0:0:
199,252,488001,1,0,0:0:0:0:
184,140,488277,2,0,L|176:84,1,50
196,140,488455,6,0,L|204:84,1,50
208,144,488632,2,0,L|240:96,1,50
224,148,488810,2,0,L|272:120,1,50
236,160,489027,2,0,L|308:148,1,62.5
372,160,489303,6,0,P|420:172|440:172,3,62.5
480,132,489797,2,0,P|432:164|372:164,1,112.5
184,204,490171,2,0,B|152:148|92:136|56:152|56:152|112:108,1,212.5
200,72,490704,1,0,0:0:0:0:
247,56,490783,1,0,0:0:0:0:
297,59,490862,5,0,0:0:0:0:
342,80,490941,1,0,0:0:0:0:
377,115,491020,1,0,0:0:0:0:
404,184,491158,2,0,B|444:252|444:252|452:228,1,100
320,256,491572,2,0,P|260:280|208:272,1,112.5
148,224,491908,1,0,0:0:0:0:
132,177,491987,1,0,0:0:0:0:
96,143,492066,1,0,0:0:0:0:
96,143,492303,6,0,P|76:120|92:104,1,50
112,140,492520,2,0,P|120:124|144:124,1,37.5
136,164,492717,2,0,P|156:144|192:152,1,62.5
232,208,492993,2,0,P|232:224|264:232,1,50
264,192,493191,2,0,P|280:204|328:200,1,62.5
308,172,493348,2,0,P|328:176|364:144,1,62.5
300,136,493585,2,0,P|320:88|304:24,1,112.5
176,68,493901,2,0,P|132:44|68:52,2,112.5
312,152,494434,1,0,0:0:0:0:
312,152,494513,1,0,0:0:0:0:
184,196,494690,2,0,L|180:180,1,12.5
184,196,494809,6,0,L|188:176,1,12.5
184,196,494927,2,0,L|200:184,1,12.5
184,196,495045,2,0,L|204:192,1,12.5
184,196,495164,2,0,L|180:180,1,12.5
184,196,495282,2,0,L|188:176,1,12.5
184,196,495401,2,0,L|200:184,1,12.5
184,196,495519,2,0,L|204:192,1,12.5
212,105,495776,1,0,0:0:0:0:
260,97,495854,1,0,0:0:0:0:
301,124,495933,5,0,0:0:0:0:
400,240,496131,2,0,B|472:252|472:248|460:204|460:200|440:176,1,125
340,132,496545,2,0,P|284:104|252:104,1,87.5
164,88,496881,1,0,0:0:0:0:
102,132,496959,1,0,0:0:0:0:
121,206,497038,1,0,0:0:0:0:
164,292,497236,2,0,P|240:312|300:276,1,150
264,192,497650,2,0,P|224:136|176:128,2,112.5
264,192,498143,6,0,P|319:220|339:252,2,100
264,192,498578,2,0,P|205:188|177:234,2,112.5
156,156,499150,2,0,L|120:140,3,37.5
352,88,504517,6,0,P|372:136|324:224,1,150
164,276,505030,5,0,0:0:0:0:
104,237,505109,1,0,0:0:0:0:
121,169,505188,1,0,0:0:0:0:
228,80,505405,2,0,L|224:64,1,12.5
228,80,505523,6,0,L|232:60,1,12.5
228,80,505642,2,0,L|244:68,1,12.5
228,80,505760,2,0,L|248:76,1,12.5
384,91,505977,1,0,0:0:0:0:
468,168,506194,2,0,B|492:192|492:192|356:192,1,162.5
240,200,506629,2,0,B|204:244|256:300|184:336|120:304|176:248|136:204,1,225
60,104,507181,2,0,P|88:72|192:80,1,150
268,144,507556,1,0,0:0:0:0:
299,164,507635,5,0,0:0:0:0:
330,184,507714,1,0,0:0:0:0:
300,224,507872,2,0,L|368:244,1,62.5
448,352,508128,2,0,B|528:292|460:296|392:264|456:268|440:208,1,175
304,120,508641,2,0,L|232:80,1,75
56,36,509036,2,0,L|28:24,5,25
112,164,509470,1,0,0:0:0:0:
165,207,509549,1,0,0:0:0:0:
229,182,509628,5,0,0:0:0:0:
239,114,509707,1,0,0:0:0:0:
185,72,509786,1,0,0:0:0:0:
68,88,510200,2,0,P|72:128|160:188,1,150
324,128,510693,2,0,P|360:108|396:144,1,87.5
368,192,510930,2,0,P|400:156|400:204,1,112.5
368,232,511167,6,0,P|324:196|360:244,1,175
480,360,511660,1,0,0:0:0:0:
472,240,511818,1,0,0:0:0:0:
344,184,512055,2,0,P|380:180|336:240,3,175
148,212,513081,2,0,P|92:172|256:104,1,375
264,152,513851,1,0,0:0:0:0:
268,201,513930,1,0,0:0:0:0:
271,251,514009,5,0,0:0:0:0:
275,301,514087,1,0,0:0:0:0:
278,351,514166,1,0,0:0:0:0:
320,340,514226,6,0,L|332:344,20,12.5
64,148,515173,5,0,0:0:0:0:
88,148,515252,1,0,0:0:0:0:
112,148,515331,1,0,0:0:0:0:
136,148,515410,5,0,0:0:0:0:
160,148,515488,1,0,0:0:0:0:
192,148,515587,1,0,0:0:0:0:
216,148,515666,1,0,0:0:0:0:
240,148,515745,1,0,0:0:0:0:
276,152,515863,2,0,B|320:176|320:176|204:184,1,162.5
172,196,516238,1,0,0:0:0:0:
148,204,516317,1,0,0:0:0:0:
132,220,516396,5,0,0:0:0:0:
112,236,516475,1,0,0:0:0:0:
100,256,516554,1,0,0:0:0:0:
88,268,516613,2,0,B|176:281|176:281|195:308|195:308|209:304,1,137.5
248,296,516949,1,0,0:0:0:0:
268,284,517028,1,0,0:0:0:0:
292,276,517107,1,0,0:0:0:0:
312,264,517186,5,0,0:0:0:0:
336,256,517264,1,0,0:0:0:0:
356,240,517343,1,0,0:0:0:0:
420,200,517462,6,0,L|436:200,6,12.5
352,184,517797,1,0,0:0:0:0:
328,196,517876,5,0,0:0:0:0:
304,204,517955,1,0,0:0:0:0:
280,212,518034,1,0,0:0:0:0:
256,224,518113,1,0,0:0:0:0:
220,232,518231,2,0,P|160:236|132:224,1,87.5
116,212,518448,1,0,0:0:0:0:
100,196,518527,1,0,0:0:0:0:
88,172,518606,5,0,0:0:0:0:
76,148,518685,1,0,0:0:0:0:
80,124,518764,1,0,0:0:0:0:
92,104,518843,1,0,0:0:0:0:
156,104,519040,2,0,P|200:128|248:128,1,100
336,176,519356,2,0,P|296:204|236:192,1,112.5
128,216,519711,6,0,L|144:228,8,12.5
288,156,520047,1,0,0:0:0:0:
268,124,520126,1,0,0:0:0:0:
244,92,520205,5,0,0:0:0:0:
220,60,520284,1,0,0:0:0:0:
184,44,520362,1,0,0:0:0:0:
144,44,520441,1,0,0:0:0:0:
104,56,520520,1,0,0:0:0:0:
56,92,520639,2,0,L|60:180,1,87.5
52,240,520895,1,0,0:0:0:0:
76,272,520974,1,0,0:0:0:0:
100,304,521053,1,0,0:0:0:0:
132,324,521132,1,0,0:0:0:0:
172,328,521211,5,0,0:0:0:0:
204,308,521290,1,0,0:0:0:0:
240,272,521389,2,0,L|236:172,1,100
236,72,521704,1,0,0:0:0:0:
200,88,521783,1,0,0:0:0:0:
164,104,521862,1,0,0:0:0:0:
132,128,521941,1,0,0:0:0:0:
104,156,522020,5,0,0:0:0:0:
88,192,522099,1,0,0:0:0:0:
84,232,522178,1,0,0:0:0:0:
118,281,522296,2,0,B|194:289|194:289|246:269,1,125
352,228,522651,5,0,0:0:0:0:
288,192,522750,2,0,P|280:112|292:76,1,112.5
356,104,523046,2,0,P|416:72|472:64,2,125
332,176,523539,1,0,0:0:0:0:
308,232,523618,1,0,0:0:0:0:
280,284,523697,5,0,0:0:0:0:
236,324,523776,1,0,0:0:0:0:
140,228,523954,2,0,L|80:224,1,50
288,112,524329,2,0,L|292:168,1,50
344,256,524546,2,0,P|296:276|272:272,1,75
219,65,525000,2,0,L|199:69,12,12.5
288,48,525414,6,0,B|376:32|376:32|360:60,1,112.5
340,108,525671,2,0,B|372:136|372:136|276:88,1,150
264,176,526026,2,0,P|188:132|212:92,1,150
248,32,526361,2,0,B|276:4|276:4|196:16,1,112.5
184,72,526618,2,0,P|132:92|104:124,2,100
284,112,527052,1,0,0:0:0:0:
333,117,527131,1,0,0:0:0:0:
382,127,527210,5,0,0:0:0:0:
430,143,527289,1,0,0:0:0:0:
467,176,527368,1,0,0:0:0:0:
376,260,527506,2,0,P|328:280|272:284,1,100
196,268,527762,1,0,0:0:0:0:
166,227,527841,1,0,0:0:0:0:
132,191,527920,5,0,0:0:0:0:
92,161,527999,1,0,0:0:0:0:
56,112,528117,2,0,B|32:72|32:72|144:116,1,162.5
224,192,528591,1,0,0:0:0:0:
261,224,528670,1,0,0:0:0:0:
309,235,528749,5,0,0:0:0:0:
357,222,528828,1,0,0:0:0:0:
140,328,529144,2,0,P|112:312|108:280,1,62.5
188,244,529361,2,0,P|204:220|184:204,1,50
88,152,529597,2,0,L|40:120,1,50
220,108,529913,1,0,0:0:0:0:
324,128,530268,1,0,0:0:0:0:
364,99,530347,1,0,0:0:0:0:
412,106,530426,5,0,0:0:0:0:
448,140,530505,1,0,0:0:0:0:
459,188,530584,1,0,0:0:0:0:
437,232,530663,5,0,0:0:0:0:
391,251,530742,1,0,0:0:0:0:
342,249,530821,1,0,0:0:0:0:
293,238,530900,5,0,0:0:0:0:
245,223,530979,1,0,0:0:0:0:
199,204,531058,1,0,0:0:0:0:
153,184,531137,1,0,0:0:0:0:
108,162,531215,5,0,0:0:0:0:
64,138,531294,1,0,0:0:0:0:
40,100,531413,2,0,P|60:48|104:52,1,100
140,156,531867,1,0,0:0:0:0:
167,197,531946,1,0,0:0:0:0:
206,227,532024,5,0,0:0:0:0:
254,242,532103,1,0,0:0:0:0:
304,239,532182,1,0,0:0:0:0:
344,212,532301,2,0,B|376:192|376:192|376:112|376:112|384:100,1,125
408,80,532597,2,0,L|464:36,2,62.5
356,64,532873,1,0,0:0:0:0:
308,49,532952,5,0,0:0:0:0:
259,38,533031,1,0,0:0:0:0:
209,31,533110,5,0,0:0:0:0:
160,29,533189,1,0,0:0:0:0:
110,37,533268,1,0,0:0:0:0:
64,56,533347,5,0,0:0:0:0:
31,92,533426,1,0,0:0:0:0:
27,141,533504,1,0,0:0:0:0:
63,171,533583,5,0,0:0:0:0:
111,159,533662,1,0,0:0:0:0:
192,160,533820,2,0,P|236:132|344:128,1,162.5
340,232,534353,2,0,L|344:284,1,50
184,264,534767,1,0,0:0:0:0:
156,252,534925,6,0,P|116:224|112:188,1,87.5
156,100,535320,2,0,L|212:64,1,62.5
300,143,535636,2,0,L|232:181,1,75
182,78,535971,2,0,L|249:47,1,62.5
306,179,536306,2,0,L|217:204,1,87.5
168,192,536583,2,0,B|116:144|8:232|120:320|160:272,1,225
208,244,537096,1,0,0:0:0:0:
255,186,537175,5,0,0:0:0:0:
319,147,537254,1,0,0:0:0:0:
368,92,537451,2,0,L|380:76,9,12.5
228,108,537905,1,0,0:0:0:0:
228,108,538161,6,0,L|232:204,1,87.5
236,248,538438,2,0,L|240:284,1,25
236,248,538615,2,0,L|272:240,1,37.5
236,248,538793,2,0,L|208:252,1,25
236,248,538951,2,0,L|232:212,1,25
136,264,539266,2,0,B|112:224|196:196|56:188|158:101,1,175
247,68,539700,2,0,P|299:48|351:60,1,100
433,97,540016,5,0,0:0:0:0:
116,68,561130,5,0,0:0:0:0:
174,68,561209,1,0,0:0:0:0:
233,68,561288,1,0,0:0:0:0:
291,68,561367,1,0,0:0:0:0:
350,68,561446,1,0,0:0:0:0:
388,68,561683,6,0,L|412:72,13,18.7500007152558
304,116,562393,1,0,0:0:0:0:
268,140,562472,1,0,0:0:0:0:
228,160,562551,1,0,0:0:0:0:
44,248,563005,2,0,L|44:272,6,18.7500007152558
168,324,563459,1,0,0:0:0:0:
227,313,563538,1,0,0:0:0:0:
262,268,563617,5,0,0:0:0:0:
297,220,563695,1,0,0:0:0:0:
351,193,563774,1,0,0:0:0:0:
328,80,563952,2,0,P|276:72|232:52,1,93.7500035762788
308,168,564347,2,0,P|256:156|216:128,1,103.125003933907
128,44,564741,1,0,0:0:0:0:
128,44,564899,1,0,0:0:0:0:
80,124,565136,2,0,L|152:84,1,75.0000028610231
96,200,565629,2,0,L|168:152,1,84.3750032186509
220,88,566024,1,0,0:0:0:0:
220,88,566162,5,0,0:0:0:0:
296,88,566359,2,0,L|360:104,1,65.6250025033952
336,128,566557,2,0,P|392:144|400:156,1,75.0000028610231
348,172,566813,2,0,P|392:216|384:228,1,93.7500035762788
320,204,567129,2,0,L|184:204,1,131.25000500679
100,208,567563,2,0,P|94:165|135:151,1,93.7500035762788
80,140,567859,2,0,P|106:114|143:112,1,75.0000028610231
116,88,568076,2,0,L|180:72,1,65.6250025033952
260,76,568352,2,0,B|224:60|224:60|392:48|392:48|376:76,1,234.375008940697
304,156,569043,2,0,L|316:220,1,65.6250025033952
416,232,569359,6,0,P|392:272|324:252,2,121.875004649162
288,152,570089,2,0,L|236:96,1,75.0000028610231
212,180,570464,2,0,L|160:120,1,75.0000028610231
316,116,570839,2,0,L|320:132,25,12.5
256,84,571825,6,0,B|168:68|168:68|184:96,1,112.5
220,152,572082,2,0,B|252:180|252:180|156:132,1,150
188,232,572437,2,0,P|264:188|240:148,1,150
324,116,572772,2,0,B|296:88|296:88|376:100,1,112.5
392,164,573029,2,0,P|444:184|472:216,2,100
288,164,573463,1,0,0:0:0:0:
238,169,573542,1,0,0:0:0:0:
189,179,573621,5,0,0:0:0:0:
141,195,573700,1,0,0:0:0:0:
104,228,573779,1,0,0:0:0:0:
120,348,573917,2,0,P|168:368|224:372,1,100
356,316,574174,1,0,0:0:0:0:
385,275,574252,5,0,0:0:0:0:
419,239,574331,1,0,0:0:0:0:
459,209,574410,1,0,0:0:0:0:
496,160,574529,2,0,B|520:120|520:120|408:164,1,162.5
328,240,575002,1,0,0:0:0:0:
290,272,575081,5,0,0:0:0:0:
242,283,575160,5,0,0:0:0:0:
194,270,575239,1,0,0:0:0:0:
340,344,575555,2,0,P|368:328|372:296,1,62.5
248,232,575772,2,0,P|232:208|252:192,1,50
420,148,576009,2,0,L|468:116,1,50
332,156,576324,1,0,0:0:0:0:
228,176,576680,5,0,0:0:0:0:
187,147,576758,5,0,0:0:0:0:
139,154,576837,5,0,0:0:0:0:
103,188,576916,5,0,0:0:0:0:
92,236,576995,5,0,0:0:0:0:
114,280,577074,5,0,0:0:0:0:
160,299,577153,5,0,0:0:0:0:
209,297,577232,5,0,0:0:0:0:
258,286,577311,5,0,0:0:0:0:
306,271,577390,5,0,0:0:0:0:
352,252,577469,5,0,0:0:0:0:
398,232,577548,5,0,0:0:0:0:
443,210,577627,5,0,0:0:0:0:
487,186,577706,5,0,0:0:0:0:
512,148,577824,2,0,P|492:96|448:100,1,100
412,204,578278,1,0,0:0:0:0:
384,245,578357,1,0,0:0:0:0:
345,275,578436,5,0,0:0:0:0:
297,290,578515,1,0,0:0:0:0:
247,287,578594,1,0,0:0:0:0:
208,260,578712,2,0,B|176:240|176:240|176:160|176:160|168:148,1,125
144,128,579008,2,0,L|88:84,2,62.5
184,164,579284,1,0,0:0:0:0:
231,149,579363,5,0,0:0:0:0:
280,138,579442,1,0,0:0:0:0:
330,131,579521,1,0,0:0:0:0:
379,129,579600,1,0,0:0:0:0:
429,137,579679,1,0,0:0:0:0:
475,156,579758,5,0,0:0:0:0:
508,192,579837,1,0,0:0:0:0:
512,241,579916,1,0,0:0:0:0:
476,271,579995,1,0,0:0:0:0:
428,259,580074,1,0,0:0:0:0:
360,208,580231,2,0,P|316:180|208:176,1,162.5
212,280,580764,2,0,L|208:332,1,50
368,312,581258,1,0,0:0:0:0:
396,300,581336,6,0,P|436:272|440:236,1,87.5
396,148,581731,2,0,L|340:112,1,62.5
251,191,582047,2,0,L|318:229,1,75
369,126,582382,2,0,L|301:95,1,75
245,227,582718,2,0,L|333:251,1,87.5
384,240,582994,2,0,B|436:192|544:280|432:368|392:320,1,225
344,292,583507,1,0,0:0:0:0:
296,256,583586,1,0,0:0:0:0:
245,227,583665,1,0,0:0:0:0:
184,140,583862,2,0,L|172:124,9,12.5
296,348,584553,6,0,B|354:364|354:364|343:333,1,89.9999972534181
284,249,584809,2,0,B|265:230|265:230|323:257,1,89.9999972534181
272,132,585165,2,0,P|220:135|216:175,1,89.9999972534181
332,280,585500,2,0,B|356:298|356:298|289:283,1,89.9999972534181
192,272,585757,2,0,P|167:261|159:242,2,44.999998626709
284,272,586191,5,0,0:0:0:0:
333,266,586270,5,0,0:0:0:0:
382,256,586349,5,0,0:0:0:0:
430,240,586428,5,0,0:0:0:0:
467,207,586506,5,0,0:0:0:0:
376,124,586645,2,0,P|362:112|319:104,1,59.9999981689454
196,116,586901,5,0,0:0:0:0:
166,156,586980,5,0,0:0:0:0:
132,192,587059,5,0,0:0:0:0:
92,222,587138,5,0,0:0:0:0:
56,272,587256,2,0,B|44:289|44:289|118:263,1,89.9999972534181
224,192,587730,5,0,0:0:0:0:
261,159,587809,5,0,0:0:0:0:
309,148,587888,5,0,0:0:0:0:
357,161,587967,5,0,0:0:0:0:
212,88,588282,2,0,L|180:136,1,44.999998626709
304,200,588499,2,0,L|300:240,1,29.9999990844727
132,284,588736,2,0,L|100:303,1,29.9999990844727
220,276,589052,1,0,0:0:0:0:
324,256,589407,5,0,0:0:0:0:
364,284,589486,5,0,0:0:0:0:
412,277,589565,5,0,0:0:0:0:
448,243,589644,5,0,0:0:0:0:
459,195,589723,5,0,0:0:0:0:
437,151,589802,5,0,0:0:0:0:
391,132,589881,5,0,0:0:0:0:
342,134,589960,5,0,0:0:0:0:
293,145,590039,5,0,0:0:0:0:
245,160,590118,5,0,0:0:0:0:
199,179,590196,5,0,0:0:0:0:
153,199,590275,5,0,0:0:0:0:
108,221,590354,5,0,0:0:0:0:
64,245,590433,5,0,0:0:0:0:
40,284,590552,2,0,P|49:314|85:308,1,59.9999981689454
140,228,591005,5,0,0:0:0:0:
167,186,591084,5,0,0:0:0:0:
206,156,591163,5,0,0:0:0:0:
254,141,591242,5,0,0:0:0:0:
304,144,591321,5,0,0:0:0:0:
344,172,591440,2,0,B|376:192|376:192|352:232|352:232|353:233,1,74.9999977111817
440,316,591736,2,0,L|456:324,9,14.9999995422363
388,284,592012,5,0,0:0:0:0:
340,298,592091,5,0,0:0:0:0:
291,309,592170,5,0,0:0:0:0:
241,316,592249,5,0,0:0:0:0:
192,318,592328,5,0,0:0:0:0:
142,310,592407,5,0,0:0:0:0:
96,291,592485,5,0,0:0:0:0:
63,255,592564,5,0,0:0:0:0:
59,206,592643,5,0,0:0:0:0:
95,176,592722,5,0,0:0:0:0:
143,188,592801,5,0,0:0:0:0:
192,224,592959,2,0,P|236:252|344:256,1,149.999995422363
340,152,593492,2,0,L|344:100,1,44.999998626709
160,40,593827,1,0,0:0:0:0:
156,132,594064,6,0,P|116:160|112:196,1,74.9999977111817
156,284,594459,2,0,L|212:320,1,59.9999981689454
300,240,594774,2,0,L|232:202,1,74.9999977111817
182,305,595110,2,0,L|249:336,1,59.9999981689454
306,204,595445,2,0,L|217:179,1,89.9999972534181
168,192,595722,2,0,B|116:240|8:152|120:64|160:112,1,224.999993133545
208,140,596235,1,0,0:0:0:0:
255,197,596314,1,0,0:0:0:0:
319,236,596393,1,0,0:0:0:0:
368,292,596590,2,0,L|380:308,9,14.9999995422363
228,276,597162,1,0,0:0:0:0:
228,276,597300,6,0,L|232:180,1,89.9999972534181
236,136,597576,2,0,L|240:100,1,29.9999990844727
236,136,597754,2,0,L|272:144,1,29.9999990844727
236,136,597932,2,0,L|208:132,1,14.9999995422363
236,136,598090,2,0,L|232:172,1,29.9999990844727
136,120,598405,2,0,B|112:160|196:188|56:196|120:256,1,149.999995422363
232,300,598958,2,0,P|284:320|336:308,1,104.999996795654
416,256,599234,5,4,0:0:0:0:
312,196,604187,5,0,0:0:0:0:
128,228,604811,6,0,L|132:112,1,112.5
128,80,605324,2,0,B|104:52|104:52|184:84,1,112.5
228,108,605916,2,0,P|264:116|292:136,1,62.5
312,160,606271,1,0,0:0:0:0:
336,192,606429,2,0,B|352:240|332:304|260:268|272:200,1,175
208,132,607377,2,0,P|180:108|96:116,2,125
220,168,608324,1,0,0:0:0:0:
232,216,608521,2,0,L|300:216,1,62.5
280,240,608916,6,0,B|272:252|272:252|332:252,1,75
296,280,609350,2,0,B|292:292|292:292|356:288,1,75
256,268,609863,1,0,0:0:0:0:
256,268,610100,6,0,P|188:196|188:168,1,125
180,108,610771,1,0,0:0:0:0:
244,56,611087,1,0,0:0:0:0:
328,48,611403,2,0,B|428:48|428:48|400:72,2,137.5
268,56,612508,2,0,B|272:28|224:-8|160:48|260:104|216:100|220:132,1,162.5
216,196,613495,2,0,L|220:232,1,25
224,304,613890,2,0,L|224:332,1,25
240,352,614324,2,0,L|236:232,1,112.5
192,160,615034,1,0,0:0:0:0:
192,160,615192,6,0,L|260:112,1,75
288,100,615587,1,0,0:0:0:0:
336,84,615784,2,0,B|368:72|368:72|324:160,1,125
304,184,616337,1,0,0:0:0:0:
280,224,616534,2,0,P|236:256|168:248,2,125
288,204,617403,2,0,L|304:184,1,25
324,160,617600,2,0,P|364:144|372:136,1,50
372,112,617877,2,0,B|364:72|360:72|360:72|308:144,1,125
288,176,618469,5,0,0:0:0:0:
228,252,618705,1,0,0:0:0:0:
180,188,618903,1,0,0:0:0:0:
236,144,619061,1,0,0:0:0:0:
236,144,619219,1,0,0:0:0:0:
284,200,619416,2,0,L|356:200,1,62.5
256,268,619890,1,0,0:0:0:0:
256,268,620008,6,0,P|188:196|188:168,1,125
180,108,620679,1,0,0:0:0:0:
244,56,620995,1,0,0:0:0:0:
328,48,621311,2,0,B|428:48|428:48|400:72,1,137.5
336,120,621942,1,0,0:0:0:0:
240,184,622219,2,0,P|204:224|148:192,1,125
132,116,622811,2,0,L|104:52,2,62.5
176,204,623442,1,0,0:0:0:0:
176,204,623561,1,0,0:0:0:0:
288,272,623877,1,0,0:0:0:0:
288,272,624034,1,0,0:0:0:0:
392,216,624311,2,0,L|384:132,1,75
280,148,624824,6,0,P|224:108|168:116,1,125
96,160,625534,1,0,0:0:0:0:
56,228,625811,1,0,0:0:0:0:
32,304,626087,2,0,P|124:292|140:252,2,137.5
132,252,627350,1,0,0:0:0:0:
204,164,627745,1,0,0:0:0:0:
300,196,628100,2,0,P|304:264|136:224,1,312.5
216,228,629363,1,0,0:0:0:0:
336,104,629955,6,0,P|368:104|424:200,1,150
412,264,630666,1,0,0:0:0:0:
364,292,630863,1,0,0:0:0:0:
324,260,631061,1,0,0:0:0:0:
304,188,631337,2,0,P|296:124|184:80,2,187.5
208,284,632995,2,0,P|176:324|140:312,2,87.5
260,172,633982,2,0,P|260:112|372:136,1,212.5
232,148,634929,5,0,0:0:0:0:
340,114,635324,1,0,0:0:0:0:
404,180,635640,2,0,L|452:252,1,87.5
480,304,636192,2,0,P|388:292|372:252,1,137.5
344,176,636942,2,0,P|324:120|304:112,1,75
248,156,637455,2,0,B|200:204|200:204|152:164,1,125
108,76,638205,1,0,0:0:0:0:
220,96,638600,1,0,0:0:0:0:
120,168,639034,1,0,0:0:0:0:
236,216,639469,1,0,0:0:0:0:
176,104,640061,6,0,P|144:104|88:200,1,150
100,264,640771,1,0,0:0:0:0:
148,292,640969,1,0,0:0:0:0:
188,260,641166,1,0,0:0:0:0:
208,188,641442,2,0,P|216:124|328:80,1,187.5
404,140,642390,2,0,B|440:184|440:184|424:204,1,75
304,284,643100,2,0,P|336:324|372:312,2,87.5
224,252,643969,1,0,0:0:0:0:
140,176,644363,2,0,P|168:132|316:172,1,225
356,244,645311,1,0,0:0:0:0:
320,160,645469,6,0,L|252:112,1,75
224,100,645863,1,0,0:0:0:0:
176,84,646061,2,0,B|144:72|144:72|188:160,1,125
208,184,646613,1,0,0:0:0:0:
232,224,646811,2,0,P|276:256|344:248,2,125
224,204,647679,2,0,L|208:184,1,25
188,160,647877,2,0,P|148:144|140:136,1,50
140,112,648153,2,0,B|148:72|152:72|152:72|204:144,1,125
224,176,648745,5,0,0:0:0:0:
284,252,648982,1,0,0:0:0:0:
332,188,649179,1,0,0:0:0:0:
276,144,649337,1,0,0:0:0:0:
276,144,649495,1,0,0:0:0:0:
228,200,649692,2,0,L|156:200,1,62.5
256,268,650166,1,0,0:0:0:0:
256,268,650284,6,0,P|324:196|324:168,1,125
332,108,650955,1,0,0:0:0:0:
268,56,651271,1,0,0:0:0:0:
184,48,651587,2,0,B|84:48|84:48|112:72,1,137.5
176,120,652219,1,0,0:0:0:0:
272,184,652495,2,0,P|308:224|364:192,1,125
380,116,653087,2,0,L|408:52,2,62.5
336,204,653719,1,0,0:0:0:0:
336,204,653837,1,0,0:0:0:0:
224,272,654153,1,0,0:0:0:0:
224,272,654311,1,0,0:0:0:0:
120,216,654587,6,0,L|128:132,1,75
280,236,655140,6,0,P|224:276|168:268,1,125
96,224,655850,1,0,0:0:0:0:
56,156,656127,1,0,0:0:0:0:
32,80,656403,2,0,P|124:92|140:132,2,137.5
132,132,657666,1,0,0:0:0:0:
204,220,658061,1,0,0:0:0:0:
300,188,658416,2,0,P|304:120|136:160,1,312.5
216,156,659679,1,0,0:0:0:0:
336,280,660271,6,0,P|368:280|424:184,1,150
412,120,660982,1,0,0:0:0:0:
364,92,661179,1,0,0:0:0:0:
324,124,661377,1,0,0:0:0:0:
304,196,661653,2,0,P|296:260|184:304,2,187.5
208,100,663311,2,0,P|176:60|140:72,2,87.5
260,212,664298,2,0,P|260:272|372:248,1,212.5
224,252,665284,5,0,0:0:0:0:
366,317,665600,2,0,P|324:320|304:284,2,87.5
428,198,666627,2,0,B|440:184|440:184|404:140,1,75
318,77,667219,2,0,P|232:101|208:188,1,187.5
188,260,668087,1,0,0:0:0:0:
148,292,668284,1,0,0:0:0:0:
100,264,668482,1,0,0:0:0:0:
86,193,668719,2,0,P|106:124|176:104,1,150
236,216,669784,1,0,0:0:0:0:
120,168,670219,1,0,0:0:0:0:
220,96,670653,5,0,0:0:0:0:
108,76,671048,1,0,0:0:0:0:
156,167,671403,2,0,B|200:204|200:204|248:156,1,125
313,114,672074,2,0,P|340:139|344:176,1,75
372,260,672627,2,0,P|414:311|480:304,1,137.5
452,252,673337,2,0,L|404:180,1,87.5
340,114,673929,1,0,0:0:0:0:
232,148,674324,1,0,0:0:0:0:
140,176,674719,2,0,P|168:132|244:168,1,150
288,216,675429,5,0,0:0:0:0:
288,216,675705,1,0,0:0:0:0:
288,216,675982,1,0,0:0:0:0:
196,152,676377,2,0,P|172:116|120:128,3,100
188,284,677916,2,0,P|288:280|352:228,1,175
256,216,678784,1,0,0:0:0:0:
156,204,679140,2,0,P|208:144|336:168,1,212.5
144,144,680482,6,0,P|124:176|164:220,2,100
280,144,681587,2,0,L|308:120,1,37.5
368,212,682100,2,0,L|400:188,1,37.5
332,144,682495,1,0,0:0:0:0:
188,120,683008,5,0,0:0:0:0:
188,120,683245,1,0,0:0:0:0:
120,232,683482,1,0,0:0:0:0:
120,232,683719,1,0,0:0:0:0:
268,228,683995,2,0,P|336:172|300:148,1,162.5
164,144,684784,1,0,0:0:0:0:
164,144,685021,1,0,0:0:0:0:
288,128,685455,2,0,P|316:92|348:92,1,75
356,180,686008,5,0,0:0:0:0:
356,180,686363,1,0,0:0:0:0:
228,228,686837,2,0,L|200:232,1,25
148,204,687113,2,0,L|176:192,1,25
184,148,687350,2,0,L|168:152,1,12.5
332,116,687982,2,0,P|440:104|464:120,2,137.5
256,228,689324,1,0,0:0:0:0:
256,228,689521,1,0,0:0:0:0:
256,228,689719,1,0,0:0:0:0:
256,228,690113,6,0,L|256:112,1,112.5
392,80,690824,1,0,0:0:0:0:
304,192,691179,1,0,0:0:0:0:
136,68,691692,2,0,P|108:88|112:132,1,75
208,180,692205,2,0,P|200:224|212:232,1,62.5
209,230,692561,1,0,0:0:0:0:
88,100,692995,1,0,0:0:0:0:
153,64,693153,1,0,0:0:0:0:
227,54,693311,5,0,0:0:0:0:
300,71,693469,1,0,0:0:0:0:
363,111,693627,1,0,0:0:0:0:
256,148,693903,2,0,L|180:152,1,75
128,204,694574,2,0,P|200:228|300:200,2,175
216,180,704525,5,0,0:0:0:0:
216,180,704801,1,0,0:0:0:0:
216,180,705078,1,0,0:0:0:0:
216,180,705354,1,0,0:0:0:0:
308,204,705768,6,0,L|296:116,1,87.5
88,72,706242,2,0,P|48:88|36:152,2,112.5
240,144,706854,2,0,P|308:188|320:180,1,100
412,92,707229,1,0,0:0:0:0:
312,236,707505,1,0,0:0:0:0:
216,92,707781,1,0,0:0:0:0:
96,108,708334,6,0,P|140:72|160:68,1,75
276,148,708670,2,0,P|320:156|324:148,1,62.5
424,96,708946,2,0,P|444:128|368:212,1,162.5
276,240,709360,2,0,P|232:272|196:280,1,87.5
96,180,709735,2,0,B|128:132|128:132|136:148|136:148|140:152,1,75
208,240,710051,1,0,0:0:0:0:
304,180,710229,1,0,0:0:0:0:
176,84,710821,6,0,B|128:80|116:64|116:64|72:100,1,112.5
156,196,711196,2,0,B|192:228|216:216|216:216|240:228,2,87.5
52,124,711670,2,0,B|24:124|24:124|92:168,1,100
180,184,711985,1,0,0:0:0:0:
236,140,712124,1,0,0:0:0:0:
288,92,712262,1,0,0:0:0:0:
348,128,712400,1,0,0:0:0:0:
404,168,712538,1,0,0:0:0:0:
456,216,712676,2,0,B|472:236|468:236|468:232|468:232|392:236,1,100
188,216,713249,6,0,B|124:208|120:208|108:180,1,87.5
208,108,713624,2,0,B|240:88|280:72|272:52|316:52|324:68|304:76|328:160,1,200
388,268,714196,2,0,L|428:304,3,50
284,280,714709,2,0,L|208:284,1,75
140,212,715025,2,0,L|64:208,1,75
36,116,715341,2,0,L|80:116,1,37.5
320,156,715893,5,0,0:0:0:0:
320,156,716031,2,0,L|316:68,1,87.5
208,84,716387,1,0,0:0:0:0:
158,82,716466,1,0,0:0:0:0:
110,96,716545,1,0,0:0:0:0:
56,180,716742,2,0,B|36:216|36:212|36:212|32:212|120:172,1,125
200,152,717117,6,0,B|248:132|248:132|284:152,1,87.5
376,236,717512,2,0,P|428:296|468:192,1,237.5
396,120,718084,1,0,0:0:0:0:
396,120,718262,1,0,0:0:0:0:
308,168,718459,2,0,B|192:224|192:224|176:188|232:192,1,187.5
264,84,718972,6,0,P|284:64|320:56,1,62.5
380,152,719308,2,0,P|416:156|436:132,1,62.5
328,80,719643,2,0,P|368:48|392:56,1,75
412,172,719979,2,0,P|456:168|468:156,1,62.5
432,88,720255,2,0,P|312:144|304:184,1,175
336,84,720985,6,0,B|384:80|396:64|396:64|440:100,1,112.5
356,196,721360,2,0,B|320:228|296:216|296:216|272:228,2,87.5
460,124,721834,2,0,B|488:124|488:124|420:168,1,100
332,184,722150,1,0,0:0:0:0:
276,140,722288,1,0,0:0:0:0:
224,92,722426,1,0,0:0:0:0:
164,128,722564,1,0,0:0:0:0:
108,168,722703,1,0,0:0:0:0:
56,216,722841,2,0,B|40:236|44:236|44:232|44:232|120:236,1,100
308,216,723314,2,0,B|192:160|192:160|176:196|232:192,1,187.5
264,300,723828,6,0,P|284:320|320:328,1,62.5
380,232,724163,2,0,P|416:228|436:252,1,62.5
328,304,724499,2,0,P|368:336|392:328,1,75
412,212,724854,2,0,P|456:216|468:228,1,62.5
436,304,725110,2,0,P|316:248|308:208,1,175
348,188,726038,6,0,P|320:124|192:108,1,200
116,188,726512,1,0,0:0:0:0:
304,128,726768,2,0,B|372:88|424:84|424:84|464:108,1,175
412,224,727222,2,0,P|356:264|292:264,1,125
232,252,727518,1,0,0:0:0:0:
136,200,727656,1,0,0:0:0:0:
284,168,727854,1,0,0:0:0:0:
172,84,728308,6,0,B|152:44|152:44|128:156,1,150
200,244,728703,1,0,0:0:0:0:
316,240,728860,2,0,P|384:184|320:88,1,225
168,176,729453,1,0,0:0:0:0:
72,228,729591,2,0,P|108:276|300:240,2,275
408,180,731150,6,0,P|384:216|360:232,1,62.5
340,108,731406,2,0,P|316:144|292:160,1,62.5
240,52,731663,2,0,P|216:88|192:104,1,62.5
88,144,731920,1,0,0:0:0:0:
88,144,732078,1,0,0:0:0:0:
160,200,732196,2,0,P|184:236|208:252,1,62.5
268,148,732453,2,0,L|272:76,1,62.5
328,192,732709,2,0,L|328:248,1,50
428,152,732966,1,0,0:0:0:0:
132,100,733360,6,0,P|100:160|160:232,1,162.5
204,152,733735,2,0,P|188:192|280:240,1,162.5
324,152,734130,2,0,P|344:100|472:152,3,225
316,236,735433,1,0,0:0:0:0:
84,216,735906,2,0,L|88:144,1,62.5
164,188,741196,6,0,P|192:124|320:108,1,200
396,188,741670,1,0,0:0:0:0:
208,128,741926,2,0,B|140:88|88:84|88:84|48:108,1,175
100,224,742380,2,0,P|156:264|220:264,1,125
280,252,742676,1,0,0:0:0:0:
376,200,742814,1,0,0:0:0:0:
228,168,743012,1,0,0:0:0:0:
340,84,743466,6,0,B|360:44|360:44|384:156,1,150
312,244,743860,1,0,0:0:0:0:
196,240,744018,2,0,P|128:184|192:88,1,225
344,176,744610,1,0,0:0:0:0:
440,228,744749,2,0,P|404:276|212:240,2,275
104,180,746308,6,0,P|128:216|152:232,1,62.5
172,108,746564,2,0,P|196:144|220:160,1,62.5
272,52,746821,2,0,P|296:88|320:104,1,62.5
424,144,747078,1,0,0:0:0:0:
424,144,747235,1,0,0:0:0:0:
352,200,747354,2,0,P|328:236|304:252,1,62.5
244,148,747610,2,0,L|240:76,1,62.5
184,192,747867,2,0,L|184:248,1,50
84,152,748124,1,0,0:0:0:0:
380,100,748518,6,0,P|412:160|352:232,1,162.5
308,152,748893,2,0,P|324:192|232:240,1,162.5
188,152,749288,2,0,P|168:100|40:152,3,225
196,236,750591,1,0,0:0:0:0:
140,100,751222,6,0,P|160:84|332:80,1,206.250007867813
360,96,751775,1,0,0:0:0:0:
388,112,751893,1,0,0:0:0:0:
412,136,752012,2,0,B|440:160|440:160|368:208,1,121.875004649162
280,224,752584,2,0,P|236:256|104:200,2,206.250007867813
236,180,753670,1,0,0:0:0:0:
220,164,753749,1,0,0:0:0:0:
204,148,753828,1,0,0:0:0:0:
188,132,753906,1,0,0:0:0:0:
180,112,753985,1,0,0:0:0:0:
192,92,754064,5,0,0:0:0:0:
204,72,754143,1,0,0:0:0:0:
224,64,754222,2,0,P|280:36|444:160,1,290.625011086464
376,192,755091,2,0,P|332:244|196:252,2,206.250007867813
268,220,756275,6,0,L|264:16,2,196.875007510186
164,240,757380,1,0,0:0:0:0:
144,156,757696,1,0,0:0:0:0:
208,96,757992,1,0,0:0:0:0:
296,84,758308,1,0,0:0:0:0:
384,100,758624,1,0,0:0:0:0:
452,152,758939,1,0,0:0:0:0:
256,192,759018,12,0,760696,0:0:0:0:
180,220,760893,6,0,P|172:192|224:156,1,100
244,236,761268,6,0,P|260:148|296:112,1,137.5
408,64,761643,2,0,P|464:48|496:52,1,87.5
276,116,762078,2,0,P|312:92|360:84,1,87.5
160,60,762472,2,0,P|208:36|260:36,2,100
68,168,762966,1,0,0:0:0:0:
200,208,763222,1,0,0:0:0:0:
352,128,763874,6,0,P|336:108|272:100,2,87.5
148,256,764466,2,0,P|112:268|64:248,2,87.5
316,212,764979,1,0,0:0:0:0:
372,120,765117,1,0,0:0:0:0:
236,84,765295,2,0,P|128:88|88:112,1,150
228,192,765729,2,0,P|264:200|304:176,3,75
120,72,766360,5,0,0:0:0:0:
120,72,766578,2,0,L|224:128,1,112.5
219,125,766972,1,0,0:0:0:0:
372,188,767189,1,0,0:0:0:0:
108,208,767545,2,0,L|92:144,1,62.5
160,284,767841,2,0,L|168:212,1,62.5
128,368,768137,2,0,L|104:308,1,62.5
232,156,768808,6,0,B|196:136|196:136|204:132|204:132|204:136|204:136|256:120|280:128,1,125
364,156,769242,2,0,B|432:192|432:192|420:188|420:188,1,87.5
240,216,769617,2,0,P|200:252|168:252,1,87.5
96,196,769874,1,0,0:0:0:0:
124,96,770012,1,0,0:0:0:0:
240,124,770170,1,0,0:0:0:0:
196,236,770328,1,0,0:0:0:0:
104,180,770466,2,0,B|64:160|64:160|24:192|28:136|28:136|24:128,1,112.5
164,72,770841,1,0,0:0:0:0:
248,140,771492,5,0,0:0:0:0:
248,140,771709,2,0,L|248:216,2,75
248,140,772143,1,0,0:0:0:0:
248,140,772321,1,0,0:0:0:0:
144,80,772479,1,0,0:0:0:0:
144,80,772775,5,0,0:0:0:0:
308,104,772992,1,0,0:0:0:0:
308,104,773091,1,0,0:0:0:0:
428,164,773268,2,0,P|412:208|336:220,1,125
52,36,773920,1,0,0:0:0:0:
52,36,774078,5,0,0:0:0:0:
52,36,774235,1,0,0:0:0:0:
124,184,774453,1,0,0:0:0:0:
124,184,774610,5,0,0:0:0:0:
124,184,774768,1,0,0:0:0:0:
244,72,774985,2,0,P|296:40|400:72,2,175
132,152,775716,2,0,B|112:188|112:188|132:224,1,75
340,104,776150,1,0,0:0:0:0:
160,128,776466,6,0,P|176:108|240:100,2,87.5
364,256,777058,2,0,P|400:268|448:248,2,87.5
196,212,777571,1,0,0:0:0:0:
140,120,777709,1,0,0:0:0:0:
276,84,777887,2,0,P|384:88|424:112,1,150
284,192,778321,2,0,P|248:200|208:176,3,75
460,36,778992,1,0,0:0:0:0:
460,36,779150,5,0,0:0:0:0:
460,36,779308,1,0,0:0:0:0:
388,184,779525,1,0,0:0:0:0:
388,184,779683,5,0,0:0:0:0:
388,184,779841,1,0,0:0:0:0:
268,72,780058,2,0,P|216:40|112:72,2,175
380,152,780788,2,0,B|400:188|400:188|380:224,1,75
172,104,781222,1,0,0:0:0:0:
236,192,801453,38,0,B|220:204|220:204|252:204|252:204|236:188|236:188|240:104|240:104|248:104|248:104|228:104|228:104|240:88,1,200
148,168,801977,2,0,P|200:212|232:216,1,100
328,240,802311,1,0,0:0:0:0:
370,214,802390,1,0,0:0:0:0:
410,184,802469,1,0,0:0:0:0:
460,124,802606,2,0,P|464:80|428:60,1,87.5
352,76,802881,1,0,0:0:0:0:
303,87,802960,1,0,0:0:0:0:
260,111,803039,1,0,0:0:0:0:
164,172,803235,2,0,P|144:208|152:256,2,87.5
216,72,803707,1,0,0:0:0:0:
240,172,803884,1,0,0:0:0:0:
252,72,804061,1,0,0:0:0:0:
324,100,804435,6,4,L|276:124,1,50
216,144,804631,2,0,L|160:150,1,50
112,204,804847,2,0,L|56:220,1,50
116,260,805044,2,0,L|168:272,1,50
244,264,805260,1,0,0:0:0:0:
260,216,805339,1,0,0:0:0:0:
244,170,805418,1,0,0:0:0:0:
202,143,805496,5,0,0:0:0:0:
154,147,805575,1,0,0:0:0:0:
76,272,805830,2,0,P|152:328|204:272,1,187.5
280,112,806322,21,0,0:0:0:0:
280,112,806460,1,0,0:0:0:0:
128,144,806735,2,0,L|128:172,9,25
260,188,807325,2,0,P|304:224|352:216,1,100
384,152,807620,2,0,P|360:112|300:108,1,100
240,136,807914,1,0,0:0:0:0:
201,167,807993,5,0,0:0:0:0:
162,199,808072,1,0,0:0:0:0:
80,288,808288,2,0,L|56:308,3,25
208,252,808681,2,0,L|228:236,6,25
208,252,809192,85,0,0:0:0:0:
132,204,809350,2,0,P|152:164|176:148,1,75
268,160,809625,2,0,L|319:190,1,50
388,188,809841,2,0,P|380:236|312:220,1,125
224,164,810234,85,0,0:0:0:0:
224,164,810352,2,0,L|188:104,2,62.5
268,280,810844,1,0,0:0:0:0:
243,322,810922,1,0,0:0:0:0:
197,340,811001,1,0,0:0:0:0:
150,327,811080,1,0,0:0:0:0:
176,200,811296,2,0,B|184:192|184:192|184:208|184:208|192:200|192:200|152:200,1,75
232,196,811552,2,0,B|216:188|220:188|220:188|216:204|216:204|224:200|224:200|260:200,1,75
280,88,811866,2,0,P|244:88|220:96,1,62.5
116,100,812122,1,0,0:0:0:0:
116,100,812279,6,0,P|72:112|32:148,1,100
136,180,812594,2,0,P|164:192|180:216,1,50
80,260,812829,2,0,P|84:284|96:312,1,50
200,276,813065,2,0,P|228:312|264:288,1,87.5
300,196,813360,1,0,0:0:0:0:
300,196,813439,1,0,0:0:0:0:
228,116,813616,2,0,P|184:116|104:152,2,125
332,200,814225,1,0,0:0:0:0:
332,200,814284,1,0,0:0:0:0:
432,156,814442,2,0,P|396:144|340:156,1,87.5
412,208,814697,6,0,P|460:136|420:76,1,162.5
316,80,815110,2,0,P|272:120|256:148,1,87.5
188,152,815346,2,0,P|201:209|232:227,1,87.5
160,280,815602,2,0,P|232:288|280:248,1,137.5
316,176,815995,1,0,0:0:0:0:
326,127,816073,5,0,0:0:0:0:
359,91,816152,1,0,0:0:0:0:
440,104,816270,2,0,L|456:112,6,12.5
384,168,816506,2,0,P|348:172|288:160,1,87.5
76,76,816978,38,0,P|60:140|64:152,1,75
224,184,817332,2,0,P|236:220|236:260,1,75
168,260,817548,2,0,P|164:312|188:348,1,87.5
264,352,817804,2,0,B|324:336|324:336|348:308,1,87.5
388,232,818079,2,0,B|404:208|400:208|400:200|400:200|316:240,1,125
168,244,818492,2,0,B|196:340|200:340|208:340|208:340|272:296,1,175
283,195,818924,1,0,0:0:0:0:
310,153,819003,1,0,0:0:0:0:
353,128,819081,5,0,0:0:0:0:
402,123,819160,1,0,0:0:0:0:
439,223,819298,2,0,P|375:243|318:238,1,125
221,219,819691,1,0,0:0:0:0:
172,210,819770,1,0,0:0:0:0:
130,184,819848,5,0,0:0:0:0:
100,144,819927,1,0,0:0:0:0:
188,64,820084,2,0,L|160:64,3,25
264,156,820458,54,0,P|280:120|324:96,1,87.5
312,236,820792,2,0,P|268:280|248:276,1,87.5
188,204,821067,2,0,P|172:168|192:136,1,75
312,124,821362,2,0,P|336:132|356:152,1,50
360,260,821598,5,0,0:0:0:0:
192,320,821854,1,0,0:0:0:0:
192,320,821991,1,0,0:0:0:0:
36,24,822247,1,0,0:0:0:0:
36,24,822463,6,0,P|88:84|104:88,1,100
212,92,822778,2,0,P|288:104|296:108,1,87.5
244,172,823033,2,0,P|280:172|336:204,1,100
236,248,823348,2,0,P|304:264|340:304,1,125
252,320,823662,1,0,0:0:0:0:
207,340,823741,1,0,0:0:0:0:
158,334,823820,1,0,0:0:0:0:
119,304,823898,5,0,0:0:0:0:
101,258,823977,1,0,0:0:0:0:
204,128,824213,2,0,L|216:104,4,25
128,188,824508,5,0,0:0:0:0:
143,224,824586,1,0,0:0:0:0:
172,248,824665,1,0,0:0:0:0:
207,230,824744,1,0,0:0:0:0:
238,204,824822,5,0,0:0:0:0:
270,180,824901,1,0,0:0:0:0:
308,170,824980,1,0,0:0:0:0:
344,184,825058,1,0,0:0:0:0:
371,214,825137,1,0,0:0:0:0:
388,260,825215,2,0,P|416:328|440:352,1,100
356,312,825491,6,0,L|332:312,5,25
248,264,825825,1,0,0:0:0:0:
172,168,826002,1,0,0:0:0:0:
112,280,826179,1,0,0:0:0:0:
56,188,826336,1,0,0:0:0:0:
212,104,826592,1,0,0:0:0:0:
276,176,826729,1,0,0:0:0:0:
216,236,826847,1,0,0:0:0:0:
296,288,826985,1,0,0:0:0:0:
296,288,827201,6,0,P|360:316|416:284,1,137.5
440,148,827614,2,0,B|424:108|448:56|368:12|292:56|340:112|312:148,1,237.5
312,252,828145,2,0,B|304:308|340:360|260:344,1,137.5
144,300,828538,2,0,B|112:288|64:296|64:296|104:276|104:276|120:236,1,162.5
124,120,828971,6,0,L|124:52,1,62.5
188,164,829246,6,0,L|188:60,1,100
236,208,829619,6,0,L|232:80,1,125
288,240,830052,6,0,L|280:88,1,150
216,60,830465,5,0,0:0:0:0:
166,64,830543,1,0,0:0:0:0:
126,93,830622,1,0,0:0:0:0:
106,139,830701,5,0,0:0:0:0:
112,188,830779,1,0,0:0:0:0:
141,227,830858,1,0,0:0:0:0:
187,247,830937,1,0,0:0:0:0:
312,256,831114,2,0,L|380:256,2,62.5
220,260,831448,1,0,0:0:0:0:
172,271,831526,1,0,0:0:0:0:
125,256,831605,1,0,0:0:0:0:
94,217,831684,1,0,0:0:0:0:
90,168,831762,5,0,0:0:0:0:
113,124,831841,1,0,0:0:0:0:
156,100,831920,5,0,0:0:0:0:
205,103,831998,1,0,0:0:0:0:
204,200,832136,2,0,P|256:232|292:240,1,87.5
199,268,832470,5,0,0:0:0:0:
180,143,832785,1,0,0:0:0:0:
223,207,832962,5,0,0:0:0:0:
217,332,833276,1,0,0:0:0:0:
272,292,833433,5,0,0:0:0:0:
306,171,833748,1,0,0:0:0:0:
247,95,833964,5,0,0:0:0:0:
329,0,834279,1,0,0:0:0:0:
184,96,834672,5,0,0:0:0:0:
172,108,834731,1,0,0:0:0:0:
160,120,834770,1,0,0:0:0:0:
160,188,834987,2,0,L|248:192,14,87.5
220,80,837189,1,0,0:0:0:0:
240,92,837248,1,0,0:0:0:0:
260,104,837287,1,0,0:0:0:0:
408,224,837719,5,0,0:0:0:0:
388,236,837759,1,0,0:0:0:0:
364,244,837818,1,0,0:0:0:0:
220,236,838447,2,0,B|196:184|196:184|200:160,1,75
228,112,838702,2,0,B|316:92|316:92|340:120,1,125
332,172,839017,2,0,B|292:264|292:264|264:244,1,125
192,188,839449,1,0,0:0:0:0:
184,88,839784,1,0,0:0:0:0:
164,100,839862,1,0,0:0:0:0:
144,116,839941,1,0,0:0:0:0:
124,132,840020,1,0,0:0:0:0:
112,152,840098,5,0,0:0:0:0:
108,176,840177,1,0,0:0:0:0:
112,200,840256,1,0,0:0:0:0:
124,220,840334,1,0,0:0:0:0:
220,148,840826,6,0,B|180:168|180:168|172:200|172:200|216:160|216:160|256:200|256:200|260:176|260:176|216:148|216:148|212:116|212:116|216:36|216:32|204:32|204:32|216:16|216:16|224:36|224:36,1,425
236,324,841848,1,14,0:0:0:0:
256,336,842261,6,0,P|232:300|228:256,1,87.5
308,232,842516,1,0,0:0:0:0:
160,132,842772,1,0,0:0:0:0:
340,56,843028,2,0,P|424:112|404:224,1,225
324,260,843499,2,0,P|276:280|224:264,2,100
382,105,844030,1,0,0:0:0:0:
380,195,844148,1,0,0:0:0:0:
383,119,844247,1,0,0:0:0:0:
380,223,844384,1,0,0:0:0:0:
248,328,844718,2,0,B|216:296|284:268|236:244|252:236|248:224,1,100
188,128,845033,70,0,P|148:152|216:144,1,212.5
344,104,845544,5,0,0:0:0:0:
412,184,845701,1,0,0:0:0:0:
432,228,845780,1,0,0:0:0:0:
419,275,845859,5,0,0:0:0:0:
378,302,845937,1,0,0:0:0:0:
208,180,846252,1,0,0:0:0:0:
177,140,846331,1,0,0:0:0:0:
137,110,846409,5,0,0:0:0:0:
92,89,846488,1,0,0:0:0:0:
64,260,846724,2,0,P|76:312|136:320,1,112.5
340,244,847235,5,0,0:0:0:0:
384,223,847314,1,0,0:0:0:0:
411,181,847392,1,0,0:0:0:0:
412,132,847471,1,0,0:0:0:0:
387,90,847550,1,0,0:0:0:0:
344,67,847628,5,0,0:0:0:0:
294,70,847707,1,0,0:0:0:0:
255,99,847785,1,0,0:0:0:0:
132,140,847982,2,0,L|52:176,2,87.5
232,100,848415,1,0,0:0:0:0:
281,90,848493,1,0,0:0:0:0:
330,81,848572,5,0,0:0:0:0:
376,96,848650,1,0,0:0:0:0:
422,116,848729,1,0,0:0:0:0:
468,136,848808,1,0,0:0:0:0:
356,208,848985,2,0,P|324:280|304:296,1,100
268,164,849319,6,0,P|256:224|212:256,1,112.5
100,200,849712,2,0,L|80:212,6,12.5
208,148,850007,2,0,L|224:152,10,12.5
116,96,850361,2,0,L|100:104,6,12.5
256,44,850695,2,0,L|268:52,13,12.5
72,48,851226,1,0,0:0:0:0:
50,92,851305,1,0,0:0:0:0:
51,142,851383,1,0,0:0:0:0:
75,185,851462,5,0,0:0:0:0:
208,252,851659,1,0,0:0:0:0:
328,236,851816,5,0,0:0:0:0:
220,156,851993,1,0,0:0:0:0:
132,240,852150,1,0,0:0:0:0:
68,72,852386,1,0,0:0:0:0:
144,144,852524,1,0,0:0:0:0:
216,220,852661,2,0,P|264:236|324:224,1,112.5
272,276,852936,6,0,P|236:184|240:168,1,112.5
324,92,853271,2,0,B|360:56|392:60|484:120|356:240|272:100,1,287.5
172,56,853919,1,0,0:0:0:0:
123,47,853998,1,0,0:0:0:0:
83,75,854077,5,0,0:0:0:0:
74,123,854155,1,0,0:0:0:0:
172,284,854450,2,0,P|212:312|268:328,1,100
132,176,854883,1,0,0:0:0:0:
246,115,855197,1,0,0:0:0:0:
180,68,855453,2,0,L|184:224,1,150
128,332,855866,2,0,L|116:348,6,12.5
188,272,856102,6,0,L|200:256,10,12.5
52,284,856495,1,0,0:0:0:0:
120,176,856692,1,0,0:0:0:0:
44,120,856908,6,0,P|32:88|52:56,1,75
228,80,857281,1,0,0:0:0:0:
332,128,857360,1,0,0:0:0:0:
392,208,857616,1,0,0:0:0:0:
304,252,857753,2,0,B|196:260|196:260|236:240|236:240,1,150
328,208,858127,1,0,0:0:0:0:
472,116,858363,1,0,0:0:0:0:
475,66,858441,1,0,0:0:0:0:
436,62,858520,5,0,0:0:0:0:
387,70,858599,1,0,0:0:0:0:
284,92,858756,2,0,P|200:104|148:140,1,150
120,292,859208,1,0,0:0:0:0:
157,324,859287,1,0,0:0:0:0:
204,339,859365,1,0,0:0:0:0:
253,333,859444,5,0,0:0:0:0:
295,307,859523,1,0,0:0:0:0:
323,266,859601,1,0,0:0:0:0:
331,217,859680,1,0,0:0:0:0:
232,204,859818,2,0,L|216:208,11,12.5
280,152,860152,6,0,L|300:140,10,12.5
120,148,860584,2,0,P|72:180|88:244,1,125
212,284,860977,2,0,B|328:324|328:324|320:296,1,150
296,196,861371,1,0,0:0:0:0:
286,147,861449,1,0,0:0:0:0:
257,107,861528,5,0,0:0:0:0:
214,83,861607,1,0,0:0:0:0:
72,212,861882,2,0,L|72:284,1,62.5
304,276,862314,6,0,P|372:276|412:164,1,200
280,208,862826,2,0,P|204:192|176:80,1,200
312,108,863337,2,0,P|344:112|392:148,1,87.5
328,320,863750,2,0,L|372:352,8,50
412,256,864634,5,0,0:0:0:0:
369,201,864713,5,0,0:0:0:0:
318,152,864792,5,0,0:0:0:0:
269,103,864870,5,0,0:0:0:0:
266,43,864949,5,0,0:0:0:0:
88,60,865126,2,0,B|80:156|80:156|156:208,1,187.5
240,216,865539,6,0,P|228:192|268:224,1,187.5
200,92,876948,5,0,0:0:0:0:
208,156,877591,1,0,0:0:0:0:
220,224,878234,1,0,0:0:0:0:
212,168,878876,1,0,0:0:0:0:
108,316,879519,1,0,0:0:0:0:
260,316,880162,1,0,0:0:0:0:
412,316,880805,1,0,0:0:0:0:
300,148,881126,1,0,0:0:0:0:
100,144,881448,1,0,0:0:0:0:
100,144,881769,1,0,0:0:0:0:
300,140,882090,1,0,0:0:0:0:
300,140,882412,5,0,0:0:0:0:
140,260,882733,1,0,0:0:0:0:
140,260,883054,1,0,0:0:0:0:
196,68,883376,1,0,0:0:0:0:
196,68,883697,1,0,0:0:0:0:
372,168,884019,1,0,0:0:0:0:
372,168,884340,1,0,0:0:0:0:
172,152,884661,1,0,0:0:0:0:
172,152,884983,1,0,0:0:0:0:
236,4,885304,1,0,0:0:0:0:
236,4,885626,1,0,0:0:0:0:
256,192,885947,12,0,887855,0:0:0:0:
316,128,898059,6,0,P|344:100|424:84,1,119.625001003933
272,132,898541,1,0,0:0:0:0:
160,64,898782,1,0,0:0:0:0:
184,292,899204,5,0,0:0:0:0:
184,276,899365,2,0,L|192:204,1,65.2500005475998
151,226,899686,2,0,L|194:169,1,65.2500005475998
145,188,900008,2,0,L|206:149,1,65.2500005475998
380,132,900490,1,0,0:0:0:0:
380,132,900671,1,0,0:0:0:0:
372,160,900871,6,0,L|248:196,1,119.625001003933
88,236,901414,2,0,P|40:256|32:296,1,87.0000007301331
152,284,901795,2,0,L|180:248,1,43.5000003650665
308,260,902117,2,0,L|344:233,1,43.5000003650665
224,176,902438,2,0,L|266:160,1,43.5000003650665
144,112,902760,2,0,L|189:108,1,43.5000003650665
296,104,903041,2,0,P|352:100|416:160,2,141.375001186466
216,156,903744,2,0,B|132:220|132:220|208:288,1,206.625001734066
207,287,904266,1,0,0:0:0:0:
356,196,904587,1,0,0:0:0:0:
184,228,904909,1,0,0:0:0:0:
184,228,905230,5,0,0:0:0:0:
184,228,905552,1,0,0:0:0:0:
184,228,905873,2,0,B|156:256|156:256|104:236|96:200|96:200|76:184,1,141.375001186466
284,144,906516,1,0,0:0:0:0:
284,144,906677,1,0,0:0:0:0:
256,192,906837,12,0,908143,0:0:0:0:
248,136,909187,6,0,B|272:96|272:96|324:56,1,112.5
360,156,909529,1,0,0:0:0:0:
280,204,909669,1,0,0:0:0:0:
204,256,909810,1,0,0:0:0:0:
104,264,909971,2,0,B|128:228|128:228|44:184|84:136|84:136|88:108|392:228|268:68,1,462.5
88,96,911015,1,0,0:0:0:0:
156,152,911156,1,0,0:0:0:0:
228,200,911296,1,0,0:0:0:0:
288,260,911437,6,0,B|356:296|356:296|392:268,1,112.5
316,136,911859,2,0,P|260:192|244:192,1,100
334,167,912241,2,0,P|259:193|245:186,1,100
338,194,912642,2,0,P|258:194|247:183,1,100
100,160,913044,2,0,P|173:131|180:117,1,100
93,133,913446,2,0,P|172:130|183:118,1,100
100,160,913847,2,0,P|173:131|180:117,1,100
248,212,914189,1,0,0:0:0:0:
448,48,914510,5,0,0:0:0:0:
308,136,914711,2,0,B|280:168|280:168|264:204,1,75
220,96,915013,2,0,B|176:152|176:152|176:168,1,87.5
148,60,915334,2,0,B|128:72|128:72|100:136,1,87.5
80,36,915635,2,0,B|52:44|52:44|24:128|24:128|24:200|24:200|144:252|144:252|224:184,1,425
256,192,916559,12,0,918869,0:0:0:0:
276,200,919191,6,0,P|220:248|160:232,1,137.5
292,192,919632,1,0,0:0:0:0:
152,248,919874,1,0,0:0:0:0:
269,208,920094,2,0,P|197:224|152:182,1,137.5
287,208,920535,1,0,0:0:0:0:
137,192,920777,1,0,0:0:0:0:
252,120,920998,2,0,P|316:68|404:80,2,175
216,200,921701,1,0,0:0:0:0:
216,200,921862,1,0,0:0:0:0:
208,212,922063,6,0,B|156:212|120:196|120:196|100:136,1,150
240,88,922545,2,0,L|336:84,1,87.5
224,156,922887,2,0,L|132:160,1,87.5
236,220,923228,2,0,L|356:220,1,112.5
224,168,923630,2,0,P|172:104|80:80,2,175
236,252,924333,2,0,P|272:328|404:304,1,237.5
404,276,924875,1,0,0:0:0:0:
228,208,925176,1,0,0:0:0:0:
140,156,925337,1,0,0:0:0:0:
344,152,976237,6,0,B|296:116|272:88|272:88|228:188|136:128,1,262.5
268,128,977452,2,0,B|281:186|297:219|297:219|187:219|205:327,1,262.5
144,248,978584,1,0,0:0:0:0:
152,152,978852,2,0,B|200:120|208:72|256:136|256:136|308:112,2,187.5
176,268,980416,2,0,P|200:296|312:284,2,156.25
184,80,982537,1,0,0:0:0:0:
304,76,982866,1,0,0:0:0:0:
56,312,983813,1,0,0:0:0:0:
56,312,984039,6,0,B|140:260|96:216|92:216|88:212|88:212|172:144,1,231.25
304,96,985192,2,0,B|360:64|360:64|384:32|432:24,1,143.75
428,192,986119,2,0,B|448:264|448:264|420:240|412:244|412:244|360:304,1,193.75
256,248,987086,1,0,0:0:0:0:
208,212,987251,1,0,0:0:0:0:
168,168,987416,1,0,0:0:0:0:
160,108,987580,1,0,0:0:0:0:
204,64,987745,1,0,0:0:0:0:
264,64,987910,1,0,0:0:0:0:
324,68,988074,1,0,0:0:0:0:
384,76,988239,1,0,0:0:0:0:
436,108,988404,5,0,0:0:0:0:
376,212,988733,1,0,0:0:0:0:
300,120,989063,1,0,0:0:0:0:
256,232,989392,1,0,0:0:0:0:
228,116,989721,1,0,0:0:0:0:
192,232,990051,1,0,0:0:0:0:
168,116,990380,1,0,0:0:0:0:
116,224,990710,1,0,0:0:0:0:
256,192,990957,12,0,996268,0:0:0:0:
248,120,996474,6,0,P|232:144|300:116,2,237.5
260,316,997524,1,0,0:0:0:0:
256,192,1087262,12,0,1089258,0:0:0:0:
192,212,1089541,6,0,B|140:184|160:120|160:124,1,100
296,8,1090109,1,0,0:0:0:0:
292,28,1090223,2,0,B|396:80|396:80|360:84,1,150
228,112,1090820,2,0,P|176:160|168:176,2,87.5
336,64,1091445,2,0,B|416:56|416:56|392:80|392:80|380:128,1,162.5
364,144,1091928,1,0,0:0:0:0:
80,328,1092382,1,0,0:0:0:0:
248,196,1092808,2,0,P|272:156|304:132,1,87.5
360,108,1093121,1,0,0:0:0:0:
228,84,1093376,2,0,L|164:84,1,62.5
116,240,1093774,2,0,L|104:200,1,37.5
264,200,1094058,2,0,L|280:160,1,37.5
336,28,1094342,1,0,0:0:0:0:
52,200,1094825,5,0,0:0:0:0:
200,200,1099683,5,0,0:0:0:0:
216,200,1099854,1,0,0:0:0:0:
228,200,1100053,2,0,P|264:136|316:128,1,125
384,156,1100450,1,0,0:0:0:0:
460,224,1100621,1,0,0:0:0:0:
328,336,1100905,2,0,P|296:352|224:344,1,100
72,236,1101501,1,0,0:0:0:0:
84,168,1101700,5,0,0:0:0:0:
84,168,1101899,2,0,B|80:236|52:252|92:256|92:256|120:288,1,137.5
184,308,1102354,1,0,0:0:0:0:
277,260,1102553,1,0,0:0:0:0:
191,200,1102751,1,0,0:0:0:0:
312,88,1103121,2,0,P|328:48|368:8,2,100
288,175,1103746,2,0,P|240:175|208:139,1,100
323,108,1104200,2,0,P|359:76|407:80,1,87.5
374,147,1104541,1,0,0:0:0:0:
430,217,1104712,1,0,0:0:0:0:
353,264,1104882,1,0,0:0:0:0:
263,277,1105053,2,0,P|283:305|359:305,1,112.5
223,334,1105564,5,0,0:0:0:0:
394,112,1105962,1,0,0:0:0:0:
133,261,1106530,2,0,L|109:277,2,25
261,182,1106928,2,0,P|297:158|349:150,2,87.5
302,262,1107496,1,0,0:0:0:0:
210,314,1107695,1,0,0:0:0:0:
81,106,1108036,1,0,0:0:0:0:
162,67,1108206,1,0,0:0:0:0:
92,208,1108462,5,0,0:0:0:0:
179,50,1108803,1,0,0:0:0:0:
179,50,1108973,1,0,0:0:0:0:
179,50,1109144,1,0,0:0:0:0:
147,211,1109456,2,0,P|130:253|142:290,2,75
220,227,1109939,2,0,L|276:161,1,87.5
439,27,1110649,1,0,0:0:0:0:
444,131,1110848,5,0,0:0:0:0:
377,212,1111047,1,0,0:0:0:0:
417,99,1111274,1,0,0:0:0:0:
309,151,1111501,2,0,P|277:195|217:219,1,112.5
144,172,1112126,2,0,P|108:148|52:164,2,100
244,237,1112808,2,0,L|256:241,5,12.5
234,175,1113121,2,0,L|194:147,7,37.5
436,144,1114769,5,0,0:0:0:0:
348,144,1114967,1,0,0:0:0:0:
404,196,1115138,1,0,0:0:0:0:
304,208,1115365,2,0,P|260:236|196:212,1,125
204,188,1115763,1,0,0:0:0:0:
128,124,1115990,1,0,0:0:0:0:
212,100,1116189,1,0,0:0:0:0:
156,168,1116388,2,0,B|128:100|124:92|124:92|160:100,1,112.5
36,56,1116928,2,0,P|64:84|132:96,1,100
312,80,1117609,1,0,0:0:0:0:
220,128,1118007,6,0,P|172:136|164:188,2,100
276,188,1118774,1,0,0:0:0:0:
276,188,1118973,2,0,P|312:248|384:260,1,137.5
220,256,1119797,6,0,P|172:248|164:196,2,100
276,196,1120564,1,0,0:0:0:0:
276,196,1120763,2,0,P|312:136|384:124,1,137.5
334,23,1122041,5,0,0:0:0:0:
345,73,1122240,1,0,0:0:0:0:
343,119,1122411,1,0,0:0:0:0:
336,176,1122638,2,0,P|330:228|270:261,1,125
240,224,1123036,1,0,0:0:0:0:
176,300,1123263,1,0,0:0:0:0:
140,220,1123462,1,0,0:0:0:0:
75,301,1123661,2,0,B|5:279|-3:277|-3:277|25:254,1,112.5
88,229,1124200,2,0,P|128:225|181:181,1,100
206,77,1124882,1,0,0:0:0:0:
292,140,1125280,2,0,P|340:168|304:216,1,125
216,240,1125933,2,0,P|188:236|132:264,2,87.5
348,188,1126530,6,0,P|328:140|424:176,1,237.5
200,256,1127609,2,0,L|236:276,1,37.5
260,288,1127865,2,0,L|304:312,2,50
340,328,1128234,2,0,L|384:348,3,37.5
364,148,1128973,1,0,0:0:0:0:
364,148,1129342,6,0,B|328:216|312:104|240:164,1,137.5
164,220,1129854,2,0,P|136:256|212:300,1,150
320,228,1130479,2,0,P|336:160|272:136,1,150
88,212,1131274,2,0,L|32:208,1,50
128,154,1131587,2,0,L|128:86,1,62.5
205,162,1131928,1,0,0:0:0:0:
205,162,1132098,2,0,P|273:162|289:146,1,87.5
354,94,1132467,1,0,0:0:0:0:
354,94,1132638,2,0,P|298:58|250:82,1,125
206,142,1133064,1,0,0:0:0:0:
206,142,1133234,2,0,P|174:210|174:250,2,112.5
264,136,1134001,6,0,P|312:140|344:172,1,87.5
232,284,1134342,2,0,B|188:312|136:260|112:328,2,137.5
426,178,1135394,1,0,0:0:0:0:
288,60,1135649,1,0,0:0:0:0:
288,60,1135905,5,0,0:0:0:0:
288,60,1136132,1,0,0:0:0:0:
188,140,1136359,2,0,P|156:192|240:236,1,175
384,140,1137013,2,0,B|408:196|448:240|448:240|408:220,1,162.5
212,100,1137808,2,0,P|152:140|148:196,1,125
340,92,1138291,2,0,L|396:88,1,50
140,124,1138746,6,0,P|136:192|216:236,2,162.5
388,164,1139854,2,0,L|392:100,2,62.5
312,252,1140308,2,0,L|316:320,2,62.5
256,104,1140820,2,0,B|240:60|240:60|208:40,2,75
260,268,1141388,2,0,L|268:328,2,50
304,116,1141842,1,0,0:0:0:0:
273,108,1142297,2,0,L|232:108,2,37.5
205,109,1142553,2,0,L|155:110,2,50
116,113,1142922,2,0,L|68:117,2,37.5
244,112,1143320,6,0,P|312:120|344:152,1,112.5
324,244,1143774,1,0,0:0:0:0:
244,84,1144030,1,0,0:0:0:0:
384,176,1144257,1,0,0:0:0:0:
324,244,1144484,6,0,P|356:191|272:148,1,175
128,244,1145138,2,0,B|104:188|64:144|64:144|104:163,1,162.5
300,284,1145706,1,0,0:0:0:0:
300,284,1145933,2,0,P|360:244|364:188,1,125
100,200,1146672,2,0,L|48:204,4,50
168,108,1147382,1,0,0:0:0:0:
216,100,1147496,1,0,0:0:0:0:
264,96,1147609,5,0,0:0:0:0:
312,100,1147723,1,0,0:0:0:0:
356,124,1147837,1,0,0:0:0:0:
400,144,1147950,1,0,0:0:0:0:
292,340,1148263,2,0,B|328:264|216:260|252:240|168:228|144:280,1,225
232,324,1148916,6,0,B|284:288|284:288|192:224,1,175
68,124,1149541,1,0,0:0:0:0:
96,68,1150308,5,0,0:0:0:0:
284,320,1150536,1,0,0:0:0:0:
0,164,1150820,1,0,0:0:0:0:
304,96,1151047,1,0,0:0:0:0:
64,328,1151445,1,0,0:0:0:0:
116,88,1151871,2,0,L|112:28,1,50
264,300,1152212,2,0,L|328:312,1,62.5
68,184,1152609,2,0,L|4:164,1,62.5
152,204,1152950,1,0,0:0:0:0:
256,192,1153178,2,0,L|276:132,2,62.5
204,156,1153888,2,0,P|172:112|136:108,2,87.5
84,240,1154541,6,0,P|68:168|88:144,1,100
256,208,1155053,2,0,P|260:164|188:100,1,137.5
152,112,1155450,2,0,P|135:169|215:256,1,187.5
312,240,1156047,1,0,0:0:0:0:
260,100,1156217,1,0,0:0:0:0:
188,268,1156445,1,0,0:0:0:0:
332,200,1156644,1,0,0:0:0:0:
168,196,1156899,2,0,B|108:136|104:112|104:112,2,100
244,244,1157524,2,0,B|268:280|268:280|264:328,2,87.5
84,104,1158234,2,0,B|60:72|60:72|180:96,1,162.5
448,352,1159030,5,0,0:0:0:0:
252,180,1172638,6,0,L|252:200,10,12.5
52,76,1173462,2,0,P|52:144|88:144,1,112.5
244,108,1174058,2,0,B|268:104|312:112|332:124,2,87.5
208,116,1174570,1,0,0:0:0:0:
136,183,1174683,1,0,0:0:0:0:
96,296,1174911,1,0,0:0:0:0:
156,292,1175024,1,0,0:0:0:0:
240,168,1175308,2,0,L|232:136,6,25
352,216,1175876,1,0,0:0:0:0:
440,172,1176132,6,0,L|432:132,3,37.5
308,96,1176587,2,0,P|232:76|168:88,3,137.5
104,136,1177695,2,0,L|76:156,6,25
292,124,1178376,1,0,0:0:0:0:
424,248,1178717,1,0,0:0:0:0:
132,220,1178945,2,0,P|168:248|176:276,1,75
216,196,1179286,2,0,L|216:172,3,25
160,64,1179683,1,0,0:0:0:0:
136,168,1179882,1,0,0:0:0:0:
304,144,1180109,2,0,P|324:80|408:80,1,162.5
420,96,1180536,2,0,L|452:128,8,37.5
304,224,1181473,6,0,P|232:224|264:108,1,225
288,116,1182070,2,0,L|352:136,2,62.5
164,176,1182780,2,0,L|160:240,3,62.5
228,192,1183916,2,0,P|224:128|272:152,2,137.5
412,180,1184939,2,0,L|416:136,3,37.5
380,144,1185365,5,0,0:0:0:0:
308,168,1185706,2,0,P|252:200|168:156,1,162.5
124,116,1186303,2,0,P|44:80|44:80,2,87.5
188,168,1186984,2,0,P|272:168|216:288,1,262.5
180,264,1187695,2,0,L|156:244,3,25
224,292,1188263,2,0,P|260:260|340:248,2,125
124,312,1189200,6,0,B|84:224|152:180|152:180|116:100|116:100|252:8|252:8|384:96|384:96|344:196|344:196|424:268|528:372|168:332|168:332|264:252|264:252|256:132,1,1312.5000500679
252,196,1195081,6,0,P|244:120|268:100,1,112.500004291535
296,256,1197382,5,0,0:0:0:0:
296,256,1197695,2,0,P|248:288|200:288,1,100
112,192,1198149,2,0,P|88:148|32:128,1,112.5
112,192,1198575,2,0,P|116:120|160:92,1,125
352,248,1199286,2,0,L|372:256,6,12.5
272,276,1199598,2,0,P|224:304|164:296,1,112.5
136,188,1200053,2,0,P|96:152|88:104,1,100
192,152,1200479,2,0,P|160:112|180:80,1,87.5
300,160,1200933,2,0,P|368:172|432:224,2,150
136,168,1202041,1,0,0:0:0:0:
136,168,1202382,6,0,P|156:216|280:216,1,187.5
332,120,1203007,2,0,P|360:76|412:72,2,100
320,248,1203689,2,0,P|300:280|260:300,1,75
388,292,1204058,2,0,P|372:248|300:200,1,125
192,312,1204626,2,0,P|136:268|156:224,1,125
96,192,1205024,2,0,L|44:200,1,50
124,124,1205337,2,0,P|208:104|288:160,2,187.5
324,272,1206899,6,0,P|360:280|392:292,2,62.5
244,272,1207325,2,0,L|184:300,2,62.5
284,188,1207780,2,0,L|280:120,2,62.5
164,236,1208291,2,0,B|68:176|68:176|72:168|72:168|56:156|56:156|68:148|68:148|64:140|64:140|72:132|72:132|72:116|72:116|88:108|88:108|88:96|88:96|104:88|104:88|184:100,1,312.5
284,176,1209229,2,0,L|360:200,1,75
284,176,1209712,2,0,L|228:216,1,62.5
284,176,1210053,2,0,L|284:96,1,75
240,276,1210592,2,0,P|204:312|168:312,1,87.5
324,140,1211019,2,0,P|368:132|404:140,1,75
428,168,1211331,5,0,0:0:0:0:
384,208,1211530,1,0,0:0:0:0:
324,140,1211729,2,0,P|356:193|272:236,1,175
128,140,1212382,2,0,B|104:196|64:240|64:240|104:221,1,162.5
300,100,1212950,1,0,0:0:0:0:
300,100,1213178,2,0,P|360:140|364:196,1,125
172,93,1213661,2,0,L|116:88,1,50
104,216,1214115,6,0,L|144:220,7,37.5
299,294,1214854,1,0,0:0:0:0:
354,273,1214967,1,0,0:0:0:0:
396,230,1215081,1,0,0:0:0:0:
414,173,1215195,1,0,0:0:0:0:
292,44,1215507,2,0,B|328:120|216:124|252:144|168:156|144:104,1,225
124,144,1216161,5,0,0:0:0:0:
104,172,1216274,1,0,0:0:0:0:
140,176,1216388,1,0,0:0:0:0:
92,240,1216672,2,0,L|56:284,1,50
96,316,1217553,5,0,0:0:0:0:
284,64,1217780,1,0,0:0:0:0:
0,220,1218064,1,0,0:0:0:0:
304,288,1218291,1,0,0:0:0:0:
64,56,1218689,1,0,0:0:0:0:
116,296,1219115,2,0,L|112:356,1,50
264,84,1219456,2,0,L|328:72,1,62.5
68,200,1219854,2,0,L|4:220,1,62.5
320,136,1220195,2,0,P|384:228|376:280,1,162.5
232,336,1220848,1,0,0:0:0:0:
204,228,1221132,2,0,P|172:272|136:276,2,87.5
84,84,1221871,6,0,P|152:104|204:140,1,125
264,180,1222297,2,0,P|268:224|224:232,1,87.5
140,188,1222695,2,0,P|160:132|212:104,1,112.5
280,76,1223121,2,0,L|300:124,1,50
260,284,1223462,1,0,0:0:0:0:
188,116,1223689,1,0,0:0:0:0:
332,184,1223888,1,0,0:0:0:0:
168,188,1224144,2,0,B|108:248|112:252|112:252,1,75
116,332,1224428,2,0,P|180:356|180:356,1,62.5
248,304,1224740,2,0,L|232:216,1,87.5
128,236,1225138,6,0,P|96:256|96:256,3,37.5
192,204,1225536,2,0,P|268:152|332:148,1,150
388,196,1226075,2,0,P|440:224|456:244,1,75
308,196,1226558,2,0,L|148:192,2,150
236,184,1243497,5,0,0:0:0:0:
32,368,1243860,1,0,0:0:0:0:
336,132,1244252,1,0,0:0:0:0:
252,216,1245344,2,0,L|244:116,1,100
44,180,1245959,1,0,0:0:0:0:
216,216,1246295,1,0,0:0:0:0:
168,136,1246463,1,0,0:0:0:0:
340,256,1246855,2,0,P|352:224|344:164,1,87.5
184,108,1247386,2,0,P|144:92|96:104,2,87.5
288,168,1248002,2,0,P|328:236|404:212,2,162.5
164,84,1249010,1,0,0:0:0:0:
188,92,1249457,6,0,P|164:116|136:172,2,87.5
264,60,1250157,1,0,0:0:0:0:
356,128,1250437,1,0,0:0:0:0:
404,183,1250549,1,0,0:0:0:0:
352,235,1250661,1,0,0:0:0:0:
288,232,1250913,1,0,0:0:0:0:
193,116,1251025,1,0,0:0:0:0:
132,116,1251556,2,0,P|92:112|148:168,2,200
368,228,1253431,1,0,0:0:0:0:
284,192,1253767,1,0,0:0:0:0:
304,112,1254075,2,0,L|372:96,1,62.5
384,160,1254439,2,0,B|420:176|420:176|312:208,1,150
216,224,1255138,6,0,B|128:240|128:240|144:208,1,125
208,80,1255950,1,0,0:0:0:0:
304,124,1256342,1,0,0:0:0:0:
344,160,1256538,1,0,0:0:0:0:
384,188,1256733,1,0,0:0:0:0:
312,232,1257041,2,0,P|272:252|192:232,3,125
116,196,1258217,1,0,0:0:0:0:
148,164,1258385,1,0,0:0:0:0:
112,132,1258552,1,0,0:0:0:0:
80,100,1258720,2,0,B|60:80|60:80|136:76,1,100
296,196,1259700,5,0,0:0:0:0:
104,68,1260567,2,0,L|40:32,2,62.5
208,120,1261267,1,0,0:0:0:0:
268,148,1261519,1,0,0:0:0:0:
344,200,1261855,2,0,P|384:224|420:208,1,87.5
304,132,1262442,2,0,B|232:96|232:96|192:96,2,112.5
244,224,1263366,1,0,0:0:0:0:
192,128,1263786,2,0,L|152:88,5,50
140,196,1264737,2,0,P|176:256|232:264,1,125
352,228,1265521,1,0,0:0:0:0:
381,196,1265633,1,0,0:0:0:0:
403,164,1265745,5,0,0:0:0:0:
369,137,1265857,1,0,0:0:0:0:
335,109,1265969,1,0,0:0:0:0:
264,84,1266248,2,0,P|228:64|104:112,1,175
88,160,1266864,1,0,0:0:0:0:
236,308,1267648,1,0,0:0:0:0:
236,308,1267732,6,0,B|284:288|288:264|284:264|312:256,1,87.5
256,196,1268207,2,0,B|208:160|208:160|160:152,1,100
108,176,1268683,2,0,P|80:228|128:260,1,125
232,244,1269355,2,0,P|272:240|348:260,3,112.5
216,288,1270586,38,0,B|120:256|68:224|32:116|104:24|192:132|192:132|284:24|348:96|324:176|260:248|172:292,1,755.624965410234
168,200,1273580,6,0,B|136:304|136:304|20:332,2,225.000008583069
240,92,1275567,2,0,B|280:32|280:32|424:156,1,262.500010013581
276,204,1277135,2,0,B|292:296|292:296|304:304,2,103.125003933907
264,100,1278282,2,0,L|252:32,2,65.6250025033952
184,216,1279373,2,0,P|252:248|224:148,1,234.375008940697
224,200,1280185,2,0,P|192:176|224:196,1,140.625005364418
223,193,1281025,6,0,P|184:132|164:124,1,93.7500035762788
140,128,1281444,1,0,0:0:0:0:
108,124,1281612,2,0,B|56:144|56:144|136:60,1,168.750006437302
176,52,1282340,2,0,P|272:48|356:72,3,178.12500679493
288,120,1284355,2,0,B|316:136|316:136|224:148|252:124|200:180,1,159.375006079674
192,232,1285110,2,0,L|192:284,2,46.8750017881394
192,196,1285558,1,0,0:0:0:0:
192,196,1285726,5,0,0:0:0:0:
104,80,1286454,1,0,0:0:0:0:
364,264,1286929,1,0,0:0:0:0:
160,288,1287237,1,0,0:0:0:0:
132,172,1287825,2,0,P|152:136|212:116,1,103.125003933907
304,200,1288748,2,0,P|336:232|440:204,1,159.375006079674
456,132,1289616,1,0,0:0:0:0:
476,56,1290008,2,0,B|492:28|492:28|384:68,1,140.625005364418
308,144,1290987,2,0,P|240:200|204:196,1,121.875004649162
140,192,1291687,5,0,0:0:0:0:
140,192,1291939,2,0,L|136:260,1,65.6250025033952
248,324,1292778,2,0,B|272:352|272:352|272:240,1,140.625005364418
276,116,1293870,2,0,L|272:28,2,84.3750032186509
296,244,1295017,6,0,P|388:280|304:180,1,356.25001358986
160,260,1296892,2,0,P|124:304|156:208,1,403.125015377999
288,240,1298795,2,0,P|352:260|436:228,1,159.375006079674
444,124,1299775,1,0,0:0:0:0:
444,124,1300026,2,0,L|344:124,1,93.7500035762788
228,124,1300894,2,0,L|200:124,1,28.1250010728836
256,192,1301566,12,0,1304196,0:0:0:0:
208,200,1309569,6,0,B|204:156|232:132|264:160|264:200,1,112.500004291535
204,264,1310297,2,0,P|176:292|116:196,1,196.875007510186
172,132,1311276,1,0,0:0:0:0:
288,76,1311808,2,0,B|348:56|344:56|344:56|404:84,1,121.875004649162
420,220,1312760,2,0,P|360:240|328:232,1,93.7500035762788
216,164,1313599,2,0,P|196:152|164:156,1,56.2500021457673
100,292,1314411,2,0,B|196:264|196:264|232:288|232:288|272:260|272:260|372:256,1,290.625011086464
372,124,1315838,2,0,P|400:100|344:48,2,131.25000500679
244,204,1317265,2,0,P|208:232|136:148,1,178.12500679493
352,72,1318804,2,0,P|392:64|412:172,1,178.12500679493
276,220,1319980,2,0,L|184:252,2,93.7500035762788
200,104,1321127,6,0,B|240:60|240:60|192:208,1,215.625008225441
188,296,1322135,2,0,B|168:340|168:336|168:336|248:288,1,131.25000500679
308,228,1322918,1,0,0:0:0:0:
308,228,1323142,1,0,0:0:0:0:
184,164,1323730,1,0,0:0:0:0:
184,164,1323954,1,0,0:0:0:0:
256,192,1324122,12,0,1325969,0:0:0:0:
200,260,1326332,6,0,L|228:260,1,28.1250010728836
350,260,1327004,2,0,L|444:260,1,93.7500035762788
444,260,1327536,1,0,0:0:0:0:
435,155,1328039,2,0,P|363:124|288:144,1,159.375006079674
154,179,1329215,2,0,P|16:137|160:124,1,403.125015377999
303,203,1331230,6,0,P|425:156|296:140,1,356.25001358986
272,352,1332937,2,0,L|276:268,2,84.3750032186509
272,135,1334112,2,0,B|272:32|272:32|248:60,1,140.625005364418
136,126,1335176,2,0,L|140:192,1,65.6250025033952
140,192,1335623,5,0,0:0:0:0:
211,185,1335959,2,0,P|270:193|308:240,1,121.875004649162
390,318,1336883,2,0,B|492:356|492:356|476:328,1,140.625005364418
456,252,1337694,1,0,0:0:0:0:
437,175,1338086,2,0,P|368:142|304:184,1,159.375006079674
224,240,1338982,2,0,L|208:264,1,28.1250010728836
216,64,1339933,2,0,L|232:48,1,18.7500007152558
352,156,1340661,2,0,B|388:188|388:188|264:204,1,168.750006437302
88,148,1341976,2,0,B|56:112|56:112|176:128,1,168.750006437302
276,252,1343151,2,0,B|456:176|504:40|412:28|412:28|384:24|320:60|320:60|280:16|248:36|248:36|176:76|192:176|344:248,1,806.250030755998
212,196,1346146,2,0,P|160:168|92:204,2,140.625005364418
392,104,1347853,6,0,L|400:232,1,121.875004649162
256,200,1348860,1,0,0:0:0:0:
116,204,1349420,2,0,L|104:100,1,103.125003933907
272,84,1350455,1,0,0:0:0:0:
116,256,1351435,2,0,P|136:140|388:272,1,534.375020384789
260,100,1353926,1,0,0:0:0:0:
260,348,1354989,2,0,L|260:212,1,131.25000500679
256,192,1355717,12,0,1358487,0:0:0:0:
60,48,1358627,5,0,0:0:0:0:
188,140,1358991,2,0,L|236:168,1,56.2500021457673
292,128,1359691,2,0,L|312:112,4,18.7500007152558
180,204,1360194,1,0,0:0:0:0:
256,192,1447682,12,0,1450099,0:0:0:0:
208,176,1450465,6,0,P|148:168|168:28,1,237.5
232,88,1451146,1,0,0:0:0:0:
80,196,1451439,2,0,P|108:232|192:240,1,125
240,120,1451950,2,0,P|180:84|136:88,1,112.5
224,112,1452413,1,0,0:0:0:0:
356,260,1452802,1,0,0:0:0:0:
306,193,1453094,6,0,P|366:183|457:264,1,187.5
309,284,1453630,1,0,0:0:0:0:
423,136,1453995,2,0,P|385:110|303:127,1,125
292,256,1454506,2,0,P|360:273|401:256,2,112.5
204,196,1455116,2,0,B|88:120|108:128,1,112.5
248,128,1455554,1,0,0:0:0:0:
276,136,1455822,1,0,0:0:0:0:
144,116,1456309,6,0,B|144:116|144:116|112:192,1,75
220,128,1456577,2,0,B|220:128|220:128|188:188,1,62.5
296,152,1456844,2,0,L|252:248,1,100
100,152,1457283,2,0,P|76:124|104:64,1,100
256,152,1457721,1,0,0:0:0:0:
305,155,1457818,1,0,0:0:0:0:
355,163,1457915,5,0,0:0:0:0:
403,177,1458013,1,0,0:0:0:0:
449,196,1458110,1,0,0:0:0:0:
288,236,1458330,2,0,P|228:264|140:224,2,162.5
308,212,1459109,1,0,0:0:0:0:
381,243,1459328,6,0,B|381:243|381:243|396:162,1,75
225,239,1459863,2,0,L|248:136,1,100
416,198,1460302,2,0,P|446:221|431:285,2,100
65,227,1461129,1,0,0:0:0:0:
215,155,1461349,2,0,P|268:115|362:136,2,162.5
100,236,1462177,2,0,L|148:276,1,62.5
356,160,1462640,5,0,0:0:0:0:
244,160,1462835,1,0,0:0:0:0:
148,312,1463151,5,0,0:0:0:0:
36,312,1463346,1,0,0:0:0:0:
172,216,1463638,5,0,0:0:0:0:
60,216,1463833,1,0,0:0:0:0:
152,112,1464077,6,0,L|272:60,1,125
196,164,1464491,2,0,L|272:60,1,125
268,184,1464904,2,0,L|272:60,1,125
284,44,1465343,5,0,0:0:0:0:
104,260,1465732,6,0,P|96:192|116:132,1,125
104,260,1466146,2,0,P|112:184|144:144,1,125
100,264,1466560,2,0,P|120:208|172:160,1,125
100,264,1466974,2,0,P|136:208|188:188,1,125
324,124,1467413,1,0,0:0:0:0:
324,124,1467534,1,0,0:0:0:0:
192,216,1467729,5,0,0:0:0:0:
320,60,1467973,5,0,0:0:0:0:
124,88,1468265,5,0,0:0:0:0:
124,88,1468411,2,0,L|156:148,1,62.5
360,200,1468801,2,0,P|396:152|416:144,1,75
284,204,1469166,2,0,P|300:244|352:280,1,100
212,204,1469604,2,0,P|216:164|256:112,1,100
148,216,1470018,2,0,B|204:272|204:272|260:276,1,125
136,200,1470481,2,0,B|188:120|188:120|252:120,1,150
112,196,1471017,1,0,0:0:0:0:
140,176,1471601,6,0,P|124:128|80:92,1,100
152,96,1471893,2,0,L|200:96,1,37.5
360,164,1472258,1,0,0:0:0:0:
344,176,1472404,2,0,P|316:212|236:196,1,125
168,96,1472867,2,0,L|96:136,1,75
252,112,1473257,2,0,L|188:144,1,62.5
316,132,1473573,2,0,L|264:160,1,50
152,204,1473890,2,0,B|108:236|128:344|216:304,2,175
232,116,1474767,1,0,0:0:0:0:
216,128,1475059,6,0,L|336:128,1,112.5
156,132,1475570,1,0,0:0:0:0:
336,136,1475862,1,0,0:0:0:0:
232,132,1476033,2,0,L|352:132,1,112.5
164,132,1476544,1,0,0:0:0:0:
344,132,1476836,1,0,0:0:0:0:
240,128,1477007,2,0,L|360:128,1,112.5
172,132,1477518,1,0,0:0:0:0:
352,128,1477810,1,0,0:0:0:0:
200,120,1478054,2,0,L|272:120,2,62.5
108,220,1478517,5,0,0:0:0:0:
276,96,1478857,1,0,0:0:0:0:
164,172,1479077,5,0,0:0:0:0:
328,44,1479417,1,0,0:0:0:0:
256,96,1479564,5,0,0:0:0:0:
336,56,1479904,5,0,0:0:0:0:
212,164,1480172,6,0,P|176:220|124:220,1,112.5
156,100,1480586,2,0,L|200:60,1,50
236,148,1480830,2,0,L|192:180,1,50
356,172,1481195,2,0,P|364:104|428:72,1,137.5
252,200,1481804,2,0,L|184:280,2,100
156,92,1482413,1,0,0:0:0:0:
272,104,1482607,2,0,L|380:96,2,100
160,160,1483192,2,0,L|104:240,1,87.5
160,160,1483533,2,0,L|212:80,1,87.5
240,204,1483898,2,0,P|284:264|268:124,1,437.5
276,117,1484896,5,0,0:0:0:0:
136,156,1485140,2,0,B|120:216|128:244|128:244|128:288,1,125
132,188,1485529,2,0,B|116:248|124:276|124:276|124:320,1,125
132,220,1485919,2,0,B|116:280|124:308|124:308|124:352,2,125
132,56,1486674,2,0,L|132:128,1,62.5
124,276,1487064,1,0,0:0:0:0:
248,200,1487307,2,0,P|296:160|388:172,1,150
248,180,1487818,5,0,0:0:0:0:
198,178,1487915,1,0,0:0:0:0:
148,176,1488012,1,0,0:0:0:0:
312,188,1488257,1,0,0:0:0:0:
192,168,1488452,5,0,0:0:0:0:
142,166,1488549,1,0,0:0:0:0:
92,164,1488646,1,0,0:0:0:0:
256,176,1488891,1,0,0:0:0:0:
136,172,1489085,5,0,0:0:0:0:
86,170,1489182,1,0,0:0:0:0:
36,168,1489279,1,0,0:0:0:0:
200,180,1489524,1,0,0:0:0:0:
320,180,1489718,5,0,0:0:0:0:
368,179,1489815,1,0,0:0:0:0:
400,142,1489912,1,0,0:0:0:0:
394,94,1490010,1,0,0:0:0:0:
354,66,1490107,1,0,0:0:0:0:
312,60,1490180,2,0,L|196:60,2,112.5
200,76,1490814,5,0,0:0:0:0:
112,192,1491057,2,0,L|160:272,1,87.5
200,76,1491422,5,0,0:0:0:0:
112,192,1491665,2,0,L|160:272,1,87.5
200,76,1492031,5,0,0:0:0:0:
112,192,1492274,2,0,L|160:272,1,87.5
200,76,1492591,5,0,0:0:0:0:
112,192,1492834,2,0,L|160:272,2,87.5
128,108,1615964,6,0,L|132:208,2,100
212,108,1616951,1,0,0:0:0:0:
276,132,1617434,1,0,0:0:0:0:
276,132,1617785,6,0,P|328:160|340:232,1,137.5
240,256,1618969,2,0,P|180:264|152:260,2,87.5
304,184,1620263,2,0,L|240:148,1,68.75
176,104,1621074,1,14,0:0:0:0:
176,104,1621666,6,0,B|224:76|264:88|264:88|332:116|368:100,1,200
204,180,1622346,1,0,0:0:0:0:
120,276,1622565,2,0,B|80:228|80:228|56:180|124:144|64:80,1,212.5
164,84,1623114,2,0,L|196:64,1,37.5
320,72,1623399,2,0,L|288:92,1,37.5
140,228,1623815,2,0,B|96:216|96:216|60:152|-32:256|56:336|88:304,1,250
200,228,1624429,2,0,L|224:212,1,25
276,132,1624605,2,0,B|328:84|304:44|264:0|464:16|376:64,1,212.5
320,172,1625153,1,0,0:0:0:0:
200,212,1625329,2,0,L|184:180,1,25
180,76,1625526,2,0,L|192:96,1,12.5
344,236,1625833,1,0,0:0:0:0:
344,236,1626008,6,0,P|296:272|248:272,1,100
292,204,1626293,2,0,B|324:172|324:172|300:144|232:160,1,137.5
104,252,1626754,2,0,B|56:204|60:196|60:196|128:148|128:148|120:132|48:112|104:52,1,275
236,72,1627434,2,0,P|280:76|300:96,1,75
344,168,1627785,1,0,0:0:0:0:
344,168,1628004,1,0,0:0:0:0:
244,196,1628136,2,0,L|212:232,1,37.5
136,144,1628355,2,0,L|112:192,1,50
88,48,1628596,2,0,L|52:56,1,37.5
264,212,1629013,2,0,P|332:184|360:144,1,125
136,132,1629473,2,0,P|88:164|84:252,1,150
204,260,1629890,1,0,0:0:0:0:
204,260,1630000,5,0,0:0:0:0:
204,260,1630109,1,0,0:0:0:0:
204,260,1630241,2,0,B|196:216|176:188|264:224|296:236|280:136|280:136|292:128,1,200
112,68,1630833,1,0,0:0:0:0:
78,103,1630921,1,0,0:0:0:0:
75,152,1631008,1,0,0:0:0:0:
104,191,1631096,1,0,0:0:0:0:
140,228,1631184,2,0,L|216:284,1,87.5
348,216,1631600,1,0,0:0:0:0:
373,173,1631688,1,0,0:0:0:0:
374,123,1631776,1,0,0:0:0:0:
360,76,1631864,2,0,P|340:52|244:48,1,125
156,100,1632280,1,0,0:0:0:0:
360,156,1632653,1,0,0:0:0:0:
100,244,1633114,1,0,0:0:0:0:
272,224,1633421,6,0,P|248:128|336:72,1,212.5
240,248,2260963,6,0,L|240:232,1,12.5
256,192,2261463,12,0,2267713,0:0:0:0:
