osu file format v14

[General]
AudioFilename: audio.mp3
AudioLeadIn: 0
PreviewTime: 53751
Countdown: 0
SampleSet: Soft
StackLeniency: 0.7
Mode: 0
LetterboxInBreaks: 0
WidescreenStoryboard: 0

[Editor]
Bookmarks: 41246
DistanceSpacing: 0.9
BeatDivisor: 4
GridSize: 4
TimelineZoom: 1.7

[Metadata]
Title:Merry * Xex Mas
TitleUnicode:Merry * Xex Mas
Artist:Nico Nico Douga feat. Mizuhu
ArtistUnicode:Nico Nico Douga feat. Mizuhu
Creator:Tuffiii
Version:Merry Merry christmas!
Source:
Tags:
BeatmapID:1878338
BeatmapSetID:899171

[Difficulty]
HPDrainRate:6
CircleSize:3.9
OverallDifficulty:9.2
ApproachRate:9.3
SliderMultiplier:1.8
SliderTickRate:1

[Events]
//Background and Video events
0,0,"b0ffd8a97fdafd0d2654abcdb6f62873.jpg",0,0
//Break Periods
//Storyboard Layer 0 (Background)
//Storyboard Layer 1 (Fail)
//Storyboard Layer 2 (Pass)
//Storyboard Layer 3 (Foreground)
//Storyboard Sound Samples

[TimingPoints]
1247,333.333333333333,4,2,0,100,1,0
1247,-133.333333333333,4,2,0,100,0,0
9321,-100,4,2,0,100,0,0
10168,-117.647058823529,4,2,0,100,0,0
10835,-100,4,2,0,100,0,0
16830,-142.857142857143,4,2,0,100,0,0
17496,-100,4,2,0,100,0,0
40496,-142.857142857143,4,2,0,100,0,0
41496,-100,4,2,0,100,0,0
44085,-133.333333333333,4,2,0,100,0,0
48996,-117.647058823529,4,2,0,100,0,0
50330,-105.263157894737,4,2,0,100,0,0
52335,-100,4,2,0,100,0,0
53746,-100,4,2,0,100,0,1
69913,-142.857142857143,4,2,0,100,0,1
70913,-100,4,2,0,100,0,1
75830,-71.4285714285714,4,2,0,100,0,1
76330,-90.9090909090909,4,2,0,100,0,1
86746,-100,4,2,0,100,0,0

[Colours]
Combo1 : 214,227,213
Combo2 : 230,85,43
Combo3 : 168,38,38
Combo4 : 218,191,7
Combo5 : 49,118,234

[HitObjects]
107,229,1247,5,0,0:0:0:0:
107,229,1580,2,0,P|97:192|107:153,1,67.5000025749208
308,192,1913,2,0,L|232:192,1,67.5000025749208
255,102,2246,5,0,0:0:0:0:
256,268,2413,1,0,0:0:0:0:
255,102,2580,1,0,0:0:0:0:
382,264,2746,6,0,L|382:331,1,67.5000025749208
512,194,3080,2,0,L|511:261,1,67.5000025749208
382,118,3413,1,0,0:0:0:0:
382,118,3580,2,0,L|382:187,1,67.5000025749208
255,271,3913,6,0,L|255:202,1,67.5000025749208
123,327,4246,2,0,L|123:259,1,67.5000025749208
104,290,4580,2,0,L|104:222,1,67.5000025749208
224,251,4913,5,0,0:0:0:0:
14,253,5080,1,0,0:0:0:0:
224,251,5247,1,0,0:0:0:0:
40,152,5413,1,0,0:0:0:0:
40,152,5496,1,0,0:0:0:0:
40,152,5580,2,0,P|111:148|170:103,1,135.000005149842
20,84,6080,2,0,P|74:42|143:42,1,135.000005149842
328,40,6580,5,0,0:0:0:0:
130,285,6746,1,0,0:0:0:0:
256,299,6913,6,0,L|256:380,1,67.5000025749208
362,280,7246,2,0,L|443:280,1,67.5000025749208
330,192,7580,2,0,L|411:192,2,67.5000025749208
365,105,8080,1,0,0:0:0:0:
365,105,8246,2,0,L|283:105,1,67.5000025749208
186,38,8580,6,0,L|254:38,1,67.5000025749208
186,125,8913,2,0,L|118:125,1,67.5000025749208
255,212,9246,2,0,L|255:295,1,67.5000025749208
40,110,9580,6,0,P|129:145|133:308,1,270
118,50,10246,6,0,P|156:137|91:248,1,229.500004377365
260,86,10913,6,0,P|225:175|114:207,1,180
159,109,11413,1,0,0:0:0:0:
159,109,11496,1,0,0:0:0:0:
159,109,11580,1,0,0:0:0:0:
255,173,11746,1,0,0:0:0:0:
348,34,11913,2,0,L|348:130,1,90
348,350,12246,6,0,L|348:260,1,90
256,75,12580,2,0,L|152:75,1,90
14,75,12913,5,0,0:0:0:0:
184,246,13080,1,0,0:0:0:0:
9,357,13246,6,0,P|0:305|9:266,1,90
130,112,13580,5,0,0:0:0:0:
157,360,13746,1,0,0:0:0:0:
268,122,13913,6,0,P|277:174|268:213,1,90
37,123,14246,5,0,0:0:0:0:
346,51,14413,1,0,0:0:0:0:
166,51,14580,5,0,0:0:0:0:
475,123,14747,1,0,0:0:0:0:
136,191,14913,6,0,L|136:280,1,90
326,127,15246,2,0,L|326:232,1,90
186,92,15580,6,0,P|111:84|81:93,1,90
279,284,15913,2,0,P|353:292|384:283,1,90
332,26,16246,5,0,0:0:0:0:
60,249,16413,1,0,0:0:0:0:
399,59,16580,5,0,0:0:0:0:
287,353,16746,1,0,0:0:0:0:
192,60,16913,6,0,L|101:45,1,62.9999980773926
320,324,17246,2,0,L|411:339,1,62.9999980773926
144,148,17580,6,0,L|27:148,1,90
332,148,17913,2,0,P|390:150|430:186,1,90
256,237,18246,5,0,0:0:0:0:
255,2,18413,1,0,0:0:0:0:
103,192,18580,2,0,P|96:238|104:321,1,90
178,112,18913,5,0,0:0:0:0:
397,311,19080,1,0,0:0:0:0:
257,44,19246,6,0,P|303:37|386:45,1,90
475,261,19580,5,0,0:0:0:0:
166,333,19747,1,0,0:0:0:0:
346,322,19914,5,0,0:0:0:0:
37,250,20081,1,0,0:0:0:0:
187,7,20246,5,0,0:0:0:0:
166,333,20413,1,0,0:0:0:0:
325,7,20580,5,0,0:0:0:0:
348,334,20746,1,0,0:0:0:0:
348,334,20830,1,0,0:0:0:0:
348,334,20913,2,0,L|456:334,1,90
337,192,21413,5,0,0:0:0:0:
337,192,21746,5,0,0:0:0:0:
36,192,21913,1,0,0:0:0:0:
395,282,22246,2,0,L|395:337,3,45
256,284,22580,2,0,L|256:229,3,45
269,150,22913,6,0,P|323:150|361:205,1,90
256,239,23246,2,0,L|155:239,1,90
37,239,23580,1,0,0:0:0:0:
141,351,23746,1,0,0:0:0:0:
88,89,23913,1,0,0:0:0:0:
192,201,24079,1,0,0:0:0:0:
20,151,24246,5,0,0:0:0:0:
160,28,24413,1,0,0:0:0:0:
256,138,24580,2,0,L|363:138,1,90
256,240,24913,2,0,L|148:240,1,90
30,240,25246,2,0,P|53:323|135:351,1,180
314,327,25746,5,0,0:0:0:0:
314,327,25913,2,0,P|269:323|225:330,1,90
357,232,26246,1,0,0:0:0:0:
461,344,26412,1,0,0:0:0:0:
408,82,26579,1,0,0:0:0:0:
512,194,26745,1,0,0:0:0:0:
295,118,26913,5,0,0:0:0:0:
507,112,27080,1,0,0:0:0:0:
310,29,27246,2,0,P|265:28|205:81,1,90
126,148,27580,6,0,L|225:148,1,90
356,156,27913,2,0,L|434:156,1,45
290,219,28080,2,0,L|211:219,1,45
381,249,28246,2,0,P|393:294|381:356,1,90
286,296,28580,5,0,0:0:0:0:
142,292,28746,1,0,0:0:0:0:
226,185,28913,1,0,0:0:0:0:
82,181,29080,1,0,0:0:0:0:
274,298,29246,5,0,0:0:0:0:
118,294,29412,1,0,0:0:0:0:
209,177,29579,1,0,0:0:0:0:
54,177,29746,2,0,P|41:126|54:81,1,90
183,51,30080,5,0,0:0:0:0:
183,51,30246,2,0,L|285:51,1,90
373,150,30580,2,0,L|271:150,1,90
385,51,30913,2,0,P|442:59|469:99,1,90
463,185,31246,2,0,L|463:300,1,90
372,231,31580,2,0,L|372:331,1,90
281,277,31913,2,0,L|281:377,1,90
282,158,32246,5,0,0:0:0:0:
138,287,32413,1,0,0:0:0:0:
149,121,32580,1,0,0:0:0:0:
17,227,32746,1,0,0:0:0:0:
200,225,32913,1,0,0:0:0:0:
19,125,33080,1,0,0:0:0:0:
30,372,33246,1,0,0:0:0:0:
30,372,33330,1,0,0:0:0:0:
30,372,33413,1,0,0:0:0:0:
30,372,33496,2,0,L|30:327,1,45
245,352,33746,5,0,0:0:0:0:
160,24,33913,1,0,0:0:0:0:
460,191,34413,5,0,0:0:0:0:
460,191,34580,2,0,P|468:145|447:89,1,90
306,234,34913,2,0,L|195:234,1,90
216,234,35246,1,0,0:0:0:0:
94,42,35413,1,0,0:0:0:0:
94,42,35580,2,0,L|184:43,1,90
509,43,35913,2,0,L|417:43,1,90
499,256,36413,5,0,0:0:0:0:
218,156,36580,2,0,P|241:114|295:100,1,90
394,265,36913,1,0,0:0:0:0:
302,183,37080,1,0,0:0:0:0:
188,321,37246,1,0,0:0:0:0:
96,239,37413,2,0,P|78:192|96:137,1,90
283,24,37746,2,0,P|301:71|283:125,1,90
265,344,38080,2,0,P|247:303|254:259,1,90
420,159,38413,2,0,L|420:41,1,90
420,69,38663,1,0,0:0:0:0:
420,69,38746,1,0,0:0:0:0:
256,228,38913,6,0,L|256:343,1,90
189,58,39246,1,0,0:0:0:0:
61,191,39413,1,0,0:0:0:0:
196,192,39580,1,0,0:0:0:0:
26,280,39746,1,0,0:0:0:0:
161,281,39913,1,0,0:0:0:0:
74,178,40080,1,0,0:0:0:0:
268,149,40246,2,0,P|283:191|269:259,1,90
210,339,40580,6,0,L|298:347,1,62.9999980773926
450,150,40913,2,0,L|387:144,1,62.9999980773926
51,168,41246,2,0,L|113:173,1,62.9999980773926
271,79,41746,5,0,0:0:0:0:
271,79,41913,2,0,P|226:46|140:50,1,135
149,46,42246,1,0,0:0:0:0:
212,183,42413,1,0,0:0:0:0:
332,141,42580,2,0,P|391:132|431:143,1,90
255,268,42913,2,0,L|195:268,2,60
403,254,43246,2,0,L|463:254,2,60
310,192,43580,2,0,P|273:130|224:108,1,90
216,196,43913,2,0,P|154:204|113:241,1,90
207,331,44246,6,0,B|309:272|329:353|430:320,1,202.500007724762
472,260,44913,2,0,P|437:236|389:237,1,67.5000025749208
258,232,45246,2,0,P|227:207|223:171,1,67.5000025749208
309,164,45496,1,0,0:0:0:0:
309,164,45580,2,0,P|357:154|384:126,1,67.5000025749208
411,63,45913,2,0,L|344:63,1,67.5000025749208
188,62,46246,2,0,L|256:62,1,67.5000025749208
123,149,46580,2,0,L|56:149,1,67.5000025749208
334,55,46913,6,0,L|382:262,1,202.500007724762
254,286,47580,6,0,L|384:118,1,202.500007724762
257,157,48246,2,0,P|197:105|35:187,1,270.000010299683
196,261,49080,5,0,0:0:0:0:
196,261,49163,1,0,0:0:0:0:
196,261,49246,2,0,P|234:268|301:259,1,76.5000014591217
434,79,49580,2,0,P|396:72|329:81,1,76.5000014591217
392,333,49913,1,0,0:0:0:0:
282,146,50080,2,0,P|244:140|206:146,1,76.5000014591217
470,192,50413,1,0,0:0:0:0:
335,45,50580,1,0,0:0:0:0:
281,276,50746,2,0,P|243:282|196:267,1,85.4999977169037
102,72,51080,1,0,0:0:0:0:
102,72,51246,2,0,P|142:59|184:64,1,85.4999977169037
25,193,51580,5,0,0:0:0:0:
245,193,51746,1,0,0:0:0:0:
183,328,51913,5,0,0:0:0:0:
257,86,52080,1,0,0:0:0:0:
340,326,52246,1,0,0:0:0:0:
364,17,52413,1,0,0:0:0:0:
427,310,52580,1,0,0:0:0:0:
124,183,52746,1,0,0:0:0:0:
439,226,52913,6,0,L|491:226,1,45
351,157,53080,2,0,L|298:157,1,45
269,156,53246,1,0,0:0:0:0:
476,48,53413,1,0,0:0:0:0:
182,263,54413,5,0,0:0:0:0:
182,263,54496,1,0,0:0:0:0:
182,263,54580,2,0,P|228:260|243:212,1,90
152,70,54913,6,0,P|199:59|271:78,1,90
365,310,55246,5,0,0:0:0:0:
356,25,55413,1,0,0:0:0:0:
438,237,55580,5,0,0:0:0:0:
188,64,55746,1,0,0:0:0:0:
222,324,55913,5,0,0:0:0:0:
287,45,56080,1,0,0:0:0:0:
79,266,56246,5,0,0:0:0:0:
345,152,56413,2,0,P|349:209|349:249,1,90
134,129,56746,2,0,P|77:125|38:131,1,90
228,320,57080,5,0,0:0:0:0:
222,30,57246,1,0,0:0:0:0:
384,237,57413,1,0,0:0:0:0:
208,243,57580,2,0,P|164:251|123:237,1,90
172,174,57913,1,0,0:0:0:0:
172,174,57996,1,0,0:0:0:0:
172,174,58080,2,0,L|172:129,2,45
342,85,58413,5,0,0:0:0:0:
348,355,58580,2,0,P|296:356|226:346,1,90
20,246,58913,5,0,0:0:0:0:
389,264,59080,1,0,0:0:0:0:
21,156,59247,5,0,0:0:0:0:
396,129,59414,1,0,0:0:0:0:
181,361,59580,5,0,0:0:0:0:
166,30,59746,1,0,0:0:0:0:
283,365,59913,5,0,0:0:0:0:
343,32,60079,1,0,0:0:0:0:
255,225,60246,6,0,P|201:231|137:225,1,90
365,147,60580,2,0,P|419:141|482:146,1,90
474,258,60913,5,0,0:0:0:0:
340,24,61080,1,0,0:0:0:0:
218,202,61246,5,0,0:0:0:0:
512,168,61413,1,0,0:0:0:0:
352,363,61580,5,0,0:0:0:0:
350,125,61746,1,0,0:0:0:0:
236,353,61913,5,0,0:0:0:0:
202,117,62080,1,0,0:0:0:0:
103,246,62246,2,0,P|50:251|6:246,1,90
59,122,62580,2,0,L|59:30,1,90
213,192,62913,6,0,P|224:243|212:314,1,90
96,259,63246,5,0,0:0:0:0:
372,261,63413,1,0,0:0:0:0:
244,360,63580,5,0,0:0:0:0:
242,126,63746,1,0,0:0:0:0:
351,337,63913,5,0,0:0:0:0:
347,95,64079,1,0,0:0:0:0:
134,187,64246,5,0,0:0:0:0:
454,85,64413,1,0,0:0:0:0:
172,268,64580,5,0,0:0:0:0:
482,270,64746,1,0,0:0:0:0:
229,78,64913,1,0,0:0:0:0:
229,78,64996,1,0,0:0:0:0:
229,78,65080,2,0,P|166:71|133:78,1,90
19,225,65413,1,0,0:0:0:0:
229,160,65580,6,0,P|276:154|342:173,1,90
427,318,65913,5,0,0:0:0:0:
319,28,66080,1,0,0:0:0:0:
476,133,66246,5,0,0:0:0:0:
110,94,66413,1,0,0:0:0:0:
460,238,66580,5,0,0:0:0:0:
89,225,66747,1,0,0:0:0:0:
145,44,66913,6,0,P|144:107|136:140,1,90
351,129,67246,2,0,P|348:196|353:231,1,90
437,364,67580,1,0,0:0:0:0:
443,120,67746,5,0,0:0:0:0:
223,249,67913,2,0,P|244:306|277:335,1,90
487,248,68246,5,0,0:0:0:0:
275,84,68413,1,0,0:0:0:0:
351,308,68580,5,0,0:0:0:0:
401,57,68746,1,0,0:0:0:0:
223,221,68913,1,0,0:0:0:0:
466,173,69080,1,0,0:0:0:0:
114,178,69246,6,0,P|102:225|109:283,1,90
343,85,69580,2,0,P|354:131|348:190,1,90
144,61,69913,6,0,L|68:55,1,62.9999980773926
328,270,70246,2,0,L|266:276,1,62.9999980773926
429,56,70580,2,0,L|367:61,1,62.9999980773926
94,191,70913,6,0,P|86:146|104:74,1,90
236,150,71246,2,0,L|342:150,1,90
276,336,71580,5,0,0:0:0:0:
256,72,71746,1,0,0:0:0:0:
118,251,71913,5,0,0:0:0:0:
380,139,72080,1,0,0:0:0:0:
109,140,72246,2,0,L|12:140,1,90
244,353,72580,5,0,0:0:0:0:
195,67,72746,1,0,0:0:0:0:
326,350,72913,5,0,0:0:0:0:
334,24,73079,1,0,0:0:0:0:
464,363,73246,5,0,0:0:0:0:
467,62,73413,1,0,0:0:0:0:
362,297,73580,2,0,P|268:331|185:278,1,180
276,210,73996,1,0,0:0:0:0:
276,210,74080,1,0,0:0:0:0:
276,210,74163,2,0,L|276:271,1,45
441,123,74413,5,0,0:0:0:0:
98,132,74580,1,0,0:0:0:0:
437,210,74746,2,0,P|448:263|437:311,1,90
336,41,75080,1,0,0:0:0:0:
341,345,75246,1,0,0:0:0:0:
70,79,75580,5,0,0:0:0:0:
321,139,75913,6,0,P|317:254|277:226,1,251.999992309571
176,28,76413,5,0,0:0:0:0:
145,338,76580,1,0,0:0:0:0:
374,199,76746,5,0,0:0:0:0:
25,265,76913,1,0,0:0:0:0:
374,121,77080,5,0,0:0:0:0:
25,55,77247,1,0,0:0:0:0:
445,166,77413,5,0,0:0:0:0:
96,166,77580,2,0,L|-4:166,1,99.0000030212403
251,244,77913,2,0,P|284:225|302:162,1,99.0000030212403
0,119,78246,5,0,0:0:0:0:
254,38,78413,1,0,0:0:0:0:
0,263,78580,5,0,0:0:0:0:
253,148,78747,1,0,0:0:0:0:
76,344,78913,6,0,L|175:344,1,99.0000030212403
426,293,79246,2,0,L|327:293,1,99.0000030212403
142,325,79580,5,0,0:0:0:0:
413,112,79746,1,0,0:0:0:0:
256,342,79913,5,0,0:0:0:0:
103,81,80080,1,0,0:0:0:0:
377,335,80246,5,0,0:0:0:0:
184,28,80413,1,0,0:0:0:0:
49,307,80580,5,0,0:0:0:0:
303,26,80746,1,0,0:0:0:0:
24,231,80913,5,0,0:0:0:0:
471,179,81080,1,0,0:0:0:0:
25,139,81246,5,0,0:0:0:0:
445,79,81413,1,0,0:0:0:0:
122,51,81580,6,0,P|57:36|8:51,1,99.0000030212403
265,195,81913,6,0,P|330:210|379:195,1,99.0000030212403
251,25,82246,5,0,0:0:0:0:
136,346,82413,1,0,0:0:0:0:
166,26,82580,5,0,0:0:0:0:
277,347,82747,1,0,0:0:0:0:
80,189,82913,5,0,0:0:0:0:
392,188,83080,1,0,0:0:0:0:
110,75,83246,6,0,P|32:72|1:110,1,99.0000030212403
222,171,83580,2,0,P|266:190|313:178,1,99.0000030212403
443,28,83913,5,0,0:0:0:0:
443,328,84080,1,0,0:0:0:0:
279,28,84246,5,0,0:0:0:0:
61,321,84413,1,0,0:0:0:0:
334,163,84580,1,0,0:0:0:0:
334,163,84663,1,0,0:0:0:0:
334,163,84746,1,0,0:0:0:0:
22,45,84913,1,0,0:0:0:0:
132,376,85080,1,0,0:0:0:0:
235,23,85246,1,0,0:0:0:0:
309,360,85413,1,0,0:0:0:0:
18,185,85746,5,0,0:0:0:0:
409,185,85913,1,0,0:0:0:0:
254,353,86246,5,0,0:0:0:0:
256,53,86413,2,0,L|256:4,3,49.5000015106202
