osu file format v14

[General]
AudioFilename: audio.mp3
AudioLeadIn: 0
PreviewTime: 53751
Countdown: 0
SampleSet: Soft
StackLeniency: 0.7
Mode: 0
LetterboxInBreaks: 0
WidescreenStoryboard: 1

[Editor]
Bookmarks: 41246
DistanceSpacing: 0.6
BeatDivisor: 4
GridSize: 4
TimelineZoom: 1.7

[Metadata]
Title:Merry * Xex Mas
TitleUnicode:Merry * Xex Mas
Artist:Nico Nico Douga feat. Mizuhu
ArtistUnicode:Nico Nico Douga feat. Mizuhu
Creator:Tuffiii
Version:Insane
Source:
Tags:
BeatmapID:2103190
BeatmapSetID:899171

[Difficulty]
HPDrainRate:5
CircleSize:3.8
OverallDifficulty:8.3
ApproachRate:8.7
SliderMultiplier:1.7
SliderTickRate:1

[Events]
//Background and Video events
0,0,"b0ffd8a97fdafd0d2654abcdb6f62873.jpg",0,0
//Break Periods
//Storyboard Layer 0 (Background)
//Storyboard Layer 1 (Fail)
//Storyboard Layer 2 (Pass)
//Storyboard Layer 3 (Foreground)
//Storyboard Sound Samples

[TimingPoints]
1247,333.333333333333,4,2,0,100,1,0
1247,-133.333333333333,4,2,0,100,0,0
9321,-100,4,2,0,100,0,0
10168,-117.647058823529,4,2,0,100,0,0
10835,-100,4,2,0,100,0,0
12080,-90.9090909090909,4,2,0,100,0,0
16830,-142.857142857143,4,2,0,100,0,0
17496,-90.9090909090909,4,2,0,100,0,0
22830,-100,4,2,0,100,0,0
40496,-142.857142857143,4,2,0,100,0,0
41496,-100,4,2,0,100,0,0
42802,-125,4,2,0,100,0,0
44085,-133.333333333333,4,2,0,100,0,0
48996,-117.647058823529,4,2,0,100,0,0
50330,-105.263157894737,4,2,0,100,0,0
52335,-100,4,2,0,100,0,0
53751,-100,4,2,0,100,0,1
59496,-142.857142857143,4,2,0,100,0,1
60246,-100,4,2,0,100,0,1
69913,-142.857142857143,4,2,0,100,0,1
70913,-100,4,2,0,100,0,1
75830,-71.4285714285714,4,2,0,100,0,1
76163,-90.9090909090909,4,2,0,100,0,1
80830,-142.857142857143,4,2,0,100,0,1
81580,-90.9090909090909,4,2,0,100,0,1
86781,-100,4,2,0,100,0,0

[HitObjects]
428,153,1247,6,0,L|428:81,1,63.7500024318696
427,259,1580,2,0,P|387:273|343:268,1,63.7500024318696
238,146,1913,6,0,L|238:225,1,63.7500024318696
237,329,2246,1,0,0:0:0:0:
151,172,2413,1,0,0:0:0:0:
87,284,2580,2,0,P|51:267|32:227,2,63.7500024318696
226,224,3080,1,0,0:0:0:0:
226,224,3246,2,0,L|313:224,1,63.7500024318696
409,147,3580,6,0,P|381:133|345:131,1,63.7500024318696
469,220,3913,1,0,0:0:0:0:
419,53,4080,1,0,0:0:0:0:
375,234,4246,2,0,L|375:301,1,63.7500024318696
269,155,4580,2,0,L|269:232,1,63.7500024318696
170,115,4913,2,0,P|191:78|223:63,2,63.7500024318696
172,268,5413,1,0,0:0:0:0:
172,268,5580,6,0,P|89:267|61:212,1,127.500004863739
145,192,6080,2,0,P|131:110|180:72,1,127.500004863739
314,22,6580,1,0,0:0:0:0:
272,192,6746,6,0,L|266:127,1,63.7500024318696
442,192,7080,2,0,L|447:128,1,63.7500024318696
354,192,7413,6,0,L|359:256,1,63.7500024318696
187,192,7747,2,0,L|181:255,1,63.7500024318696
276,112,8080,2,0,L|282:34,2,63.7500024318696
255,245,8580,1,0,0:0:0:0:
255,245,8746,2,0,L|174:245,1,63.7500024318696
30,242,9080,1,0,0:0:0:0:
270,115,9246,2,0,P|276:157|255:192,1,63.7500024318696
148,134,9580,2,0,P|167:70|349:83,1,255
434,67,10246,2,0,P|402:125|255:92,1,216.750004134178
330,249,10913,2,0,L|288:249,1,42.5
288,249,11080,2,0,P|288:291|332:343,1,85
175,251,11413,6,0,L|69:251,1,85
51,106,11746,2,0,L|136:106,1,85
339,192,12246,6,0,L|468:192,1,93.5000028533936
346,81,12580,2,0,L|217:81,1,93.5000028533936
124,110,12913,6,0,P|121:53|153:12,1,93.5000028533936
179,203,13246,2,0,P|121:217|48:195,1,93.5000028533936
302,292,13580,6,0,L|302:191,1,93.5000028533936
448,228,13913,2,0,L|448:127,1,93.5000028533936
445,18,14246,5,0,0:0:0:0:
307,140,14413,1,0,0:0:0:0:
286,19,14580,5,0,0:0:0:0:
148,141,14747,1,0,0:0:0:0:
58,41,14913,6,0,L|58:150,1,93.5000028533936
232,111,15246,2,0,L|232:218,1,93.5000028533936
71,339,15580,6,0,P|44:288|58:231,1,93.5000028533936
160,282,15913,2,0,L|286:282,1,93.5000028533936
401,276,16246,5,0,0:0:0:0:
256,166,16413,1,0,0:0:0:0:
458,147,16580,5,0,0:0:0:0:
313,37,16747,1,0,0:0:0:0:
389,192,16913,6,0,L|306:192,1,59.4999981842042
123,117,17246,2,0,L|182:117,1,59.4999981842042
420,66,17580,6,0,P|473:108|473:170,1,93.5000028533936
372,269,17913,2,0,L|372:158,1,93.5000028533936
256,242,18246,6,0,L|256:335,1,93.5000028533936
129,259,18580,2,0,P|108:209|115:158,1,93.5000028533936
235,37,18913,6,0,P|264:87|256:133,1,93.5000028533936
194,224,19246,2,0,P|244:233|321:214,1,93.5000028533936
337,66,19580,1,0,0:0:0:0:
243,144,19746,5,0,0:0:0:0:
105,22,19913,1,0,0:0:0:0:
383,147,20080,5,0,0:0:0:0:
245,25,20246,2,0,P|202:42|159:96,1,93.5000028533936
237,229,20580,2,0,P|280:212|322:157,1,93.5000028533936
118,168,20913,6,0,P|108:221|118:271,2,93.5000028533936
257,81,21413,1,0,0:0:0:0:
355,135,21746,6,0,P|364:190|355:246,1,93.5000028533936
226,196,22246,6,0,P|181:204|119:192,1,93.5000028533936
185,121,22580,6,0,L|185:75,2,46.7500014266968
184,282,22913,2,0,L|184:373,1,85
290,268,23246,2,0,L|379:268,1,85
463,268,23580,1,0,0:0:0:0:
376,192,23746,1,0,0:0:0:0:
483,171,23913,1,0,0:0:0:0:
396,95,24079,1,0,0:0:0:0:
296,153,24246,6,0,P|251:161|209:151,1,85
169,48,24580,2,0,P|214:40|255:49,1,85
218,141,24913,2,0,L|90:141,1,127.5
132,167,25246,2,0,P|127:211|132:252,1,85
275,263,25580,1,0,0:0:0:0:
170,341,25746,6,0,P|114:344|61:305,1,85
63,243,26080,1,0,0:0:0:0:
133,150,26246,1,0,0:0:0:0:
174,254,26413,1,0,0:0:0:0:
275,157,26580,2,0,L|275:257,1,85
378,229,26913,6,0,L|378:337,1,85
454,198,27246,2,0,P|453:138|408:108,1,85
328,136,27580,2,0,P|281:146|226:132,1,85
287,59,27913,1,0,0:0:0:0:
287,59,27996,1,0,0:0:0:0:
287,59,28080,2,0,L|287:10,2,42.5
155,88,28413,5,0,0:0:0:0:
155,88,28580,2,0,L|155:207,1,85
183,290,28913,2,0,P|231:294|277:290,1,85
376,197,29246,2,0,P|331:192|282:197,1,85
388,309,29580,5,0,0:0:0:0:
488,222,29746,1,0,0:0:0:0:
397,98,29913,2,0,P|442:93|491:98,1,85
304,173,30246,6,0,L|166:173,1,127.5
219,57,30580,2,0,P|223:104|219:153,1,85
60,106,30913,2,0,P|46:157|60:208,1,85
103,278,31246,6,0,B|51:284|51:284|2:278,1,85
165,176,31580,2,0,B|157:124|157:124|161:75,1,85,0|0,2:0|2:0,2:0:0:0:
267,189,31913,2,0,B|319:184|319:184|368:190,1,85,0|0,2:0|2:0,2:0:0:0:
268,341,32246,2,0,P|216:349|176:341,1,85
336,283,32580,5,0,0:0:0:0:
349,147,32746,1,0,0:0:0:0:
414,272,32913,1,0,0:0:0:0:
426,107,33080,1,0,0:0:0:0:
481,239,33246,2,0,L|482:301,2,42.5
303,250,33746,5,0,0:0:0:0:
247,39,33913,1,0,0:0:0:0:
204,278,34580,6,0,P|206:222|195:161,1,85
351,193,34913,2,0,P|348:137|360:76,1,85
462,24,35246,6,0,L|371:24,1,85
146,24,35580,2,0,L|237:24,1,85
236,204,35913,1,0,0:0:0:0:
342,119,36080,1,0,0:0:0:0:
342,119,36163,1,0,0:0:0:0:
342,119,36246,1,0,0:0:0:0:
406,283,36413,5,0,0:0:0:0:
406,283,36580,2,0,L|321:283,1,85
177,284,36913,2,0,P|195:239|224:210,1,85
354,191,37246,1,0,0:0:0:0:
354,191,37413,6,0,P|355:98|322:58,1,127.5
329,103,37746,2,0,L|235:103,1,85
37,192,38080,1,0,0:0:0:0:
37,192,38246,2,0,L|131:192,1,85
270,193,38580,2,0,L|312:193,2,42.5
299,307,39080,5,0,0:0:0:0:
426,234,39246,2,0,P|429:192|426:132,1,85
321,81,39580,6,0,P|323:132|321:179,1,85
160,103,39913,2,0,P|157:154|160:201,1,85
243,251,40246,1,0,0:0:0:0:
241,155,40413,1,0,0:0:0:0:
208,36,40580,6,0,P|150:29|82:36,2,118.999996368408
322,175,41746,5,0,0:0:0:0:
322,175,41913,2,0,L|322:278,1,85
154,192,42246,6,0,L|251:192,1,85
154,280,42580,6,0,L|57:280,1,85
244,321,42913,2,0,L|292:321,2,45.3333333333333
315,248,43246,2,0,L|361:248,2,45.3333333333333
385,330,43580,6,0,L|494:330,1,102
459,284,43913,2,0,P|457:242|437:195,1,68
309,128,44246,6,0,P|388:127|433:34,1,191.250007295609
237,50,44913,2,0,P|231:83|237:127,1,63.7500024318696
309,128,45246,2,0,P|315:161|309:205,1,63.7500024318696
190,164,45580,2,0,P|179:224|190:293,3,127.500004863739
295,130,46913,6,0,P|360:130|420:250,1,191.250007295609
255,264,47580,2,0,P|190:264|130:144,1,191.250007295609
224,41,48246,2,0,P|246:114|183:232,1,191.250007295609
154,299,49246,6,0,P|194:305|251:294,1,72.2500013780594
352,165,49580,2,0,P|312:159|255:170,1,72.2500013780594
308,297,49913,5,0,0:0:0:0:
124,146,50080,2,0,P|159:141|195:147,1,72.2500013780594
167,243,50413,5,0,0:0:0:0:
292,185,50580,1,0,0:0:0:0:
292,185,50746,2,0,P|298:117|276:79,1,80.7499978437424
122,71,51080,1,0,0:0:0:0:
215,191,51246,5,0,0:0:0:0:
215,191,51413,2,0,P|225:242|215:300,1,80.7499978437424
47,208,51746,1,0,0:0:0:0:
47,208,51913,6,0,P|37:168|39:128,1,80.7499978437424
199,47,52246,2,0,P|254:47|287:81,1,80.7499978437424
279,257,52580,2,0,P|224:257|191:223,1,80.7499978437424
368,141,52913,1,0,0:0:0:0:
456,276,53080,2,0,L|456:224,2,42.5
432,51,53413,2,0,P|343:41|258:55,1,170
69,265,54913,6,0,L|69:175,1,85
200,148,55246,2,0,L|200:233,1,85
278,340,55580,5,0,0:0:0:0:
325,171,55746,1,0,0:0:0:0:
367,340,55913,5,0,0:0:0:0:
414,171,56079,1,0,0:0:0:0:
256,227,56246,6,0,L|154:227,1,85
61,136,56580,2,0,P|98:114|162:114,1,85
285,27,56913,6,0,P|293:67|285:129,1,85
385,165,57246,2,0,P|354:191|293:199,1,85
152,191,57580,2,0,P|105:182|44:191,1,85
104,258,57913,2,0,L|104:305,2,42.5
278,230,58246,2,0,P|285:188|275:147,1,85
214,57,58580,2,0,P|259:48|333:57,1,85
409,59,58913,5,0,0:0:0:0:
254,148,59080,1,0,0:0:0:0:
456,163,59246,5,0,0:0:0:0:
301,252,59413,1,0,0:0:0:0:
398,301,59580,6,0,L|463:301,1,59.4999981842042
254,161,59913,2,0,L|181:161,1,59.4999981842042
77,318,60246,6,0,P|120:326|163:323,1,85
299,240,60580,2,0,P|256:232|213:235,1,85
77,183,60913,2,0,L|77:74,1,85
207,127,61246,2,0,L|207:18,2,85
259,278,61746,1,0,0:0:0:0:
259,278,61913,6,0,P|299:244|311:206,1,85
381,59,62246,2,0,L|381:154,1,85
477,219,62580,2,0,L|477:314,1,85
315,161,62913,6,0,B|261:115|218:181|143:133,1,170
253,323,63413,1,0,0:0:0:0:
253,323,63580,6,0,L|253:236,1,85
86,191,63913,2,0,L|86:276,1,85
168,130,64246,5,0,0:0:0:0:
168,130,64413,2,0,L|168:37,1,85
281,191,64746,1,0,0:0:0:0:
185,290,64913,1,0,0:0:0:0:
185,290,64996,1,0,0:0:0:0:
185,290,65080,1,0,0:0:0:0:
322,288,65246,2,0,L|425:288,1,85
256,98,65580,6,0,P|248:144|256:194,1,85
397,127,65913,2,0,P|401:85|394:44,1,85
292,205,66246,5,0,0:0:0:0:
199,27,66413,1,0,0:0:0:0:
212,219,66580,5,0,0:0:0:0:
307,41,66747,1,0,0:0:0:0:
176,143,66913,6,0,P|128:145|75:139,1,85
17,56,67246,1,0,0:0:0:0:
18,211,67413,1,0,0:0:0:0:
18,211,67580,2,0,L|18:307,1,85
132,237,67913,5,0,0:0:0:0:
206,314,68080,1,0,0:0:0:0:
244,220,68246,5,0,0:0:0:0:
318,298,68413,1,0,0:0:0:0:
348,212,68580,2,0,L|358:97,1,85
243,41,68913,2,0,L|232:155,1,85
339,57,69246,1,0,0:0:0:0:
339,57,69413,6,0,B|393:11|436:77|511:29,1,170
381,164,69913,2,0,L|381:246,1,59.4999981842042
256,271,70246,2,0,L|256:211,1,59.4999981842042
131,164,70580,2,0,L|131:246,1,59.4999981842042
244,75,70913,6,0,L|343:84,1,85
460,177,71246,2,0,L|360:169,1,85
216,153,71580,2,0,P|205:198|215:237,1,85
277,339,71913,1,0,0:0:0:0:
133,337,72080,2,0,P|83:318|32:290,2,85
289,230,72580,6,0,P|285:180|289:137,1,85
182,152,72913,6,0,P|186:100|176:59,1,85
51,28,73246,1,0,0:0:0:0:
92,175,73413,1,0,0:0:0:0:
257,93,73580,2,0,P|343:78|426:93,1,170
388,109,73996,2,0,L|388:168,3,42.5
255,192,74413,6,0,L|170:192,1,85
18,191,74746,1,0,0:0:0:0:
94,38,75080,6,0,L|179:38,1,85
418,38,75580,2,0,L|333:38,1,85
206,125,75913,6,0,B|206:268|206:268|246:188,1,178.499994552612
242,207,76246,2,0,P|305:193|365:207,1,93.5000028533936
155,336,76580,2,0,L|155:237,1,93.5000028533936
239,73,76913,5,0,0:0:0:0:
221,253,77080,1,0,0:0:0:0:
330,72,77246,5,0,0:0:0:0:
348,252,77413,1,0,0:0:0:0:
176,170,77580,6,0,L|75:170,1,93.5000028533936
84,256,77913,2,0,P|73:298|84:351,1,93.5000028533936
202,284,78246,1,0,0:0:0:0:
62,166,78413,1,0,0:0:0:0:
214,165,78580,2,0,P|229:128|214:70,1,93.5000028533936
336,192,78913,6,0,L|336:302,1,93.5000028533936
465,106,79246,2,0,L|465:225,1,93.5000028533936
350,79,79580,2,0,P|310:52|263:51,1,93.5000028533936
170,184,79913,2,0,P|208:212|257:212,1,93.5000028533936
355,143,80246,5,0,0:0:0:0:
363,335,80413,1,0,0:0:0:0:
235,111,80580,5,0,0:0:0:0:
227,304,80747,1,0,0:0:0:0:
124,192,80913,6,0,L|206:192,1,59.4999981842042
388,192,81246,2,0,L|308:192,1,59.4999981842042
226,40,81580,6,0,P|215:90|226:148,1,93.5000028533936
352,88,81913,2,0,L|452:88,1,93.5000028533936
335,191,82246,5,0,0:0:0:0:
416,335,82413,1,0,0:0:0:0:
207,195,82580,5,0,0:0:0:0:
288,339,82747,1,0,0:0:0:0:
131,266,82913,6,0,P|74:272|25:266,1,93.5000028533936
154,114,83246,6,0,P|204:107|268:119,1,93.5000028533936
371,152,83580,1,0,0:0:0:0:
286,27,83746,1,0,0:0:0:0:
309,227,83913,6,0,P|263:232|217:226,1,93.5000028533936
126,62,84246,5,0,0:0:0:0:
72,266,84413,1,0,0:0:0:0:
210,110,84580,5,0,0:0:0:0:
200,303,84746,2,0,L|196:374,2,46.7500014266968
306,89,85080,5,0,0:0:0:0:
306,324,85246,1,0,0:0:0:0:
306,324,85413,2,0,P|352:328|398:323,1,93.5000028533936
318,205,85746,5,0,0:0:0:0:
425,61,85913,1,0,0:0:0:0:
229,170,86246,6,0,P|177:177|136:169,1,93.5000028533936
195,60,86580,2,0,L|196:13,2,46.7500014266968
