osu file format v14

[General]
AudioFilename: audio.mp3
AudioLeadIn: 0
PreviewTime: 106886
Countdown: 0
SampleSet: Normal
StackLeniency: 0.7
Mode: 1
LetterboxInBreaks: 0
WidescreenStoryboard: 0

[Editor]
Bookmarks: 6886,10886,12219,21386,21719,21886,22219,22886,33552,33719,33886,44219,49552,50052,50719,51386,52219,54886,60219,65552,74719,75052,75219,75552,76219,85386,85719,85886,86219,86886,97552,102886,105552,108219,118886,128052,128386,128552,128886,129552,134886,138886,140219,150719,160052
DistanceSpacing: 1
BeatDivisor: 4
GridSize: 8
TimelineZoom: 1

[Metadata]
Title:Merry * Xex Mas
TitleUnicode:Merry * Xex Mas
Artist:Nico Nico Douga feat. Mizuhu
ArtistUnicode:Nico Nico Douga feat. Mizuhu
Creator:404 AccNotFound
Version:Muzukashii
Source:
Tags:christmas applerss aabc271
BeatmapID:1475972
BeatmapSetID:696825

[Difficulty]
HPDrainRate:6
CircleSize:5
OverallDifficulty:4
ApproachRate:5
SliderMultiplier:1.4
SliderTickRate:1

[Events]
//Background and Video events
0,0,"54213625_p0.jpg",0,0
//Break Periods
//Storyboard Layer 0 (Background)
//Storyboard Layer 1 (Fail)
//Storyboard Layer 2 (Pass)
//Storyboard Layer 3 (Foreground)
//Storyboard Sound Samples

[TimingPoints]
1553,333.333333333333,4,1,0,84,1,0
6886,-100,4,1,0,86,0,0
10886,-100,4,1,0,88,0,0
12219,-100,4,1,0,96,0,0
22886,-100,4,1,0,90,0,0
44219,-100,4,1,0,88,0,0
49552,-100,4,1,0,89,0,0
54886,-100,4,1,0,92,0,1
74719,-100,4,1,0,92,0,0
76219,-100,4,1,0,92,0,1
86886,-100,4,1,0,90,0,0
97552,-100,4,1,0,88,0,0
102886,-100,4,1,0,89,0,0
108219,-100,4,1,0,92,0,1
129552,-100,4,1,0,86,0,0
134886,-100,4,1,0,88,0,0
140219,-100,4,1,0,90,0,0
149552,-100,4,1,0,91,0,0
150886,-100,4,1,0,92,0,0

[HitObjects]
200,216,220,5,8,0:0:0:0:
192,208,386,1,0,0:0:0:0:
200,216,469,1,0,0:0:0:0:
200,216,553,1,0,0:0:0:0:
200,216,719,1,8,0:0:0:0:
200,216,886,1,0,0:0:0:0:
128,128,969,1,0,0:0:0:0:
200,216,1053,1,0,0:0:0:0:
200,216,1219,1,8,0:0:0:0:
200,216,1553,1,4,0:0:0:0:
200,216,1886,1,8,0:0:0:0:
208,224,2219,1,0,0:0:0:0:
208,224,2386,1,0,0:0:0:0:
200,216,2552,1,8,0:0:0:0:
208,224,2719,1,0,0:0:0:0:
208,224,3052,1,8,0:0:0:0:
208,224,3886,1,8,0:0:0:0:
208,224,4219,1,0,0:0:0:0:
208,224,4552,1,8,0:0:0:0:
208,224,4886,1,0,0:0:0:0:
208,224,5052,1,0,0:0:0:0:
208,224,5219,1,8,0:0:0:0:
208,224,5552,1,8,0:0:0:0:
208,224,6052,1,0,0:0:0:0:
208,224,6552,1,8,0:0:0:0:
208,224,6886,1,4,0:0:0:0:
248,120,7219,1,8,0:0:0:0:
288,184,7552,1,0,0:0:0:0:
288,184,7719,1,8,0:0:0:0:
288,184,7886,1,0,0:0:0:0:
288,184,8219,1,8,0:0:0:0:
368,136,8552,1,0,0:0:0:0:
288,184,8719,1,8,0:0:0:0:
288,184,9219,1,8,0:0:0:0:
288,184,9552,1,0,0:0:0:0:
240,144,10219,1,8,0:0:0:0:
240,144,10886,1,8,0:0:0:0:
248,184,11052,1,0,0:0:0:0:
232,184,11136,1,0,0:0:0:0:
240,176,11219,1,0,0:0:0:0:
232,184,11386,1,8,0:0:0:0:
232,184,11719,1,8,0:0:0:0:
168,144,12219,1,4,0:0:0:0:
168,144,12552,1,8,0:0:0:0:
168,144,13219,1,8,0:0:0:0:
168,144,13886,1,8,0:0:0:0:
168,144,14386,1,8,0:0:0:0:
168,144,14552,1,8,0:0:0:0:
224,160,14886,1,0,0:0:0:0:
272,136,15219,1,0,0:0:0:0:
224,160,15552,1,8,0:0:0:0:
24,176,15636,1,8,0:0:0:0:
224,160,15719,1,8,0:0:0:0:
224,160,15886,1,8,0:0:0:0:
224,160,16219,1,0,0:0:0:0:
200,96,16386,1,0,0:0:0:0:
200,152,16552,1,8,0:0:0:0:
200,152,16719,1,0,0:0:0:0:
200,152,17052,1,0,0:0:0:0:
200,152,17219,1,8,0:0:0:0:
320,187,17552,1,4,0:0:0:0:
336,176,17886,1,8,0:0:0:0:
336,176,18552,1,8,0:0:0:0:
336,176,19219,1,8,0:0:0:0:
336,176,19719,1,8,0:0:0:0:
336,176,19886,1,8,0:0:0:0:
166,158,20219,1,0,0:0:0:0:
166,158,20552,1,8,0:0:0:0:
170,158,20636,1,8,0:0:0:0:
171,158,20719,1,8,0:0:0:0:
172,157,20886,1,0,0:0:0:0:
172,157,21052,1,0,0:0:0:0:
172,157,21386,1,12,0:0:0:0:
171,158,21719,1,12,0:0:0:0:
172,157,21886,1,12,0:0:0:0:
172,157,22219,1,12,0:0:0:0:
172,157,22886,1,4,0:0:0:0:
240,139,23219,1,8,0:0:0:0:
156,191,23886,1,8,0:0:0:0:
241,144,24219,1,0,0:0:0:0:
240,160,24552,1,8,0:0:0:0:
240,160,24719,1,0,0:0:0:0:
241,144,24886,1,8,0:0:0:0:
241,144,25219,1,8,0:0:0:0:
243,145,25552,1,0,0:0:0:0:
128,128,25886,1,8,0:0:0:0:
241,144,26219,1,0,0:0:0:0:
171,146,26386,1,0,0:0:0:0:
171,146,26552,1,8,0:0:0:0:
241,144,26886,1,0,0:0:0:0:
208,176,27219,1,8,0:0:0:0:
208,176,27386,1,0,0:0:0:0:
243,145,27552,1,8,0:0:0:0:
223,113,27886,1,8,0:0:0:0:
223,113,27969,1,8,0:0:0:0:
223,113,28052,1,8,0:0:0:0:
226,125,28219,1,4,0:0:0:0:
36,146,28552,1,8,0:0:0:0:
225,167,29219,1,8,0:0:0:0:
225,167,29552,1,0,0:0:0:0:
225,167,29886,1,8,0:0:0:0:
225,167,30052,1,0,0:0:0:0:
225,167,30219,1,8,0:0:0:0:
225,167,30552,1,8,0:0:0:0:
225,167,30886,1,0,0:0:0:0:
248,72,31219,1,8,0:0:0:0:
127,151,31552,1,0,0:0:0:0:
127,151,31719,1,0,0:0:0:0:
225,179,31886,1,8,0:0:0:0:
225,179,32219,1,8,0:0:0:0:
225,179,32386,1,8,0:0:0:0:
225,179,32552,1,0,0:0:0:0:
225,179,32719,1,0,0:0:0:0:
225,179,32886,1,8,0:0:0:0:
225,179,33219,1,8,0:0:0:0:
215,160,33719,1,12,0:0:0:0:
215,161,33886,1,4,0:0:0:0:
245,183,34386,1,8,0:0:0:0:
245,183,34552,1,8,0:0:0:0:
171,148,35219,1,12,0:0:0:0:
171,148,35552,1,4,0:0:0:0:
175,151,35886,1,12,0:0:0:0:
193,174,36219,1,0,0:0:0:0:
304,160,36386,1,0,0:0:0:0:
204,117,36552,1,12,0:0:0:0:
231,210,37052,1,0,0:0:0:0:
231,210,37219,1,8,0:0:0:0:
231,210,37552,1,0,0:0:0:0:
231,210,37719,1,8,0:0:0:0:
231,210,37886,1,8,0:0:0:0:
231,210,38052,1,0,0:0:0:0:
119,161,38136,1,0,0:0:0:0:
231,210,38219,1,0,0:0:0:0:
231,210,38552,1,8,0:0:0:0:
231,210,38886,1,0,0:0:0:0:
200,152,39052,1,0,0:0:0:0:
231,210,39219,1,12,0:0:0:0:
279,215,39719,1,0,0:0:0:0:
279,215,39886,1,8,0:0:0:0:
267,208,40552,1,12,0:0:0:0:
267,208,40886,1,4,0:0:0:0:
267,208,41219,1,12,0:0:0:0:
267,208,41552,1,0,0:0:0:0:
160,144,41719,1,0,0:0:0:0:
261,209,41886,1,12,0:0:0:0:
276,216,42552,1,8,0:0:0:0:
276,216,42886,1,8,0:0:0:0:
254,208,43052,1,8,0:0:0:0:
254,208,43219,1,8,0:0:0:0:
254,208,43386,1,8,0:0:0:0:
254,208,43552,1,0,0:0:0:0:
254,208,44219,1,4,0:0:0:0:
190,213,44719,1,8,0:0:0:0:
190,213,44886,1,0,0:0:0:0:
190,213,45219,1,8,0:0:0:0:
186,228,45386,1,8,0:0:0:0:
79,115,45552,1,0,0:0:0:0:
136,200,45886,1,8,0:0:0:0:
109,119,46052,1,0,0:0:0:0:
186,227,46219,1,8,0:0:0:0:
109,119,46552,1,8,0:0:0:0:
186,227,46886,1,0,0:0:0:0:
108,143,47386,1,0,0:0:0:0:
186,227,47552,1,8,0:0:0:0:
186,227,47886,1,0,0:0:0:0:
145,149,48052,1,8,0:0:0:0:
186,227,48219,1,0,0:0:0:0:
205,129,48552,1,8,0:0:0:0:
186,227,48719,1,0,0:0:0:0:
186,227,48886,1,0,0:0:0:0:
186,227,49052,1,8,0:0:0:0:
186,227,49136,1,8,0:0:0:0:
186,227,49219,1,8,0:0:0:0:
186,227,49552,1,4,0:0:0:0:
199,167,50052,1,12,0:0:0:0:
218,182,50386,1,0,0:0:0:0:
208,216,50552,1,0,0:0:0:0:
199,167,50719,1,12,0:0:0:0:
218,182,51052,1,8,0:0:0:0:
218,182,51219,1,0,0:0:0:0:
199,167,51386,1,12,0:0:0:0:
214,184,51719,1,0,0:0:0:0:
218,182,51886,1,8,0:0:0:0:
211,184,52219,1,4,0:0:0:0:
241,122,52552,1,0,0:0:0:0:
241,122,52719,1,0,0:0:0:0:
241,122,52886,1,8,0:0:0:0:
241,122,53052,1,0,0:0:0:0:
241,122,53136,1,0,0:0:0:0:
241,122,53219,1,0,0:0:0:0:
241,122,53386,1,8,0:0:0:0:
276,158,54386,1,8,0:0:0:0:
283,159,54469,1,8,0:0:0:0:
283,159,54552,1,8,0:0:0:0:
289,153,54886,1,4,0:0:0:0:
290,153,55219,1,8,0:0:0:0:
288,151,55552,1,0,0:0:0:0:
289,153,55719,1,0,0:0:0:0:
289,153,55886,1,8,0:0:0:0:
290,153,56219,1,0,0:0:0:0:
152,168,56386,1,0,0:0:0:0:
224,80,56552,1,8,0:0:0:0:
289,153,56719,1,0,0:0:0:0:
208,112,57052,1,0,0:0:0:0:
256,136,57219,1,8,0:0:0:0:
288,151,57552,1,0,0:0:0:0:
290,153,57886,1,8,0:0:0:0:
290,153,58219,1,8,0:0:0:0:
139,150,58386,1,0,0:0:0:0:
139,150,58552,1,8,0:0:0:0:
290,153,58886,1,8,0:0:0:0:
290,153,59052,1,0,0:0:0:0:
290,153,59219,1,8,0:0:0:0:
288,151,59386,1,8,0:0:0:0:
288,151,59552,1,0,0:0:0:0:
290,153,59886,1,8,0:0:0:0:
258,184,60219,1,4,0:0:0:0:
258,184,60552,1,8,0:0:0:0:
258,184,60886,1,0,0:0:0:0:
258,184,61219,1,8,0:0:0:0:
258,184,61386,1,0,0:0:0:0:
258,184,61719,1,0,0:0:0:0:
258,184,61886,1,8,0:0:0:0:
258,184,62052,1,8,0:0:0:0:
258,184,62219,1,0,0:0:0:0:
258,184,62552,1,8,0:0:0:0:
258,184,62886,1,0,0:0:0:0:
120,133,63219,1,8,0:0:0:0:
12,129,63386,1,0,0:0:0:0:
258,184,63552,1,8,0:0:0:0:
108,142,63719,1,0,0:0:0:0:
107,132,63802,1,0,0:0:0:0:
258,184,63886,1,0,0:0:0:0:
258,184,64052,1,8,0:0:0:0:
258,184,64219,1,0,0:0:0:0:
258,184,64552,1,8,0:0:0:0:
258,184,64719,1,0,0:0:0:0:
205,108,64802,1,0,0:0:0:0:
258,184,64886,1,0,0:0:0:0:
189,114,65052,1,8,0:0:0:0:
258,184,65219,1,8,0:0:0:0:
189,114,65552,1,4,0:0:0:0:
189,114,65886,1,8,0:0:0:0:
189,114,66219,1,0,0:0:0:0:
189,114,66386,1,0,0:0:0:0:
189,114,66552,1,8,0:0:0:0:
189,114,66886,1,8,0:0:0:0:
197,140,67052,1,0,0:0:0:0:
145,63,67136,1,0,0:0:0:0:
224,136,67219,1,0,0:0:0:0:
189,114,67386,1,8,0:0:0:0:
189,114,67719,1,0,0:0:0:0:
189,114,67886,1,8,0:0:0:0:
191,161,68219,1,0,0:0:0:0:
202,177,68386,1,0,0:0:0:0:
194,171,68552,1,8,0:0:0:0:
197,170,68719,1,0,0:0:0:0:
197,170,68886,1,8,0:0:0:0:
197,169,69219,1,8,0:0:0:0:
197,169,69386,1,0,0:0:0:0:
62,151,69719,1,0,0:0:0:0:
62,151,69886,1,8,0:0:0:0:
197,174,70219,1,12,0:0:0:0:
192,128,70552,1,12,0:0:0:0:
199,175,70886,1,4,0:0:0:0:
231,143,71219,1,8,0:0:0:0:
231,143,71552,1,0,0:0:0:0:
231,143,71886,1,8,0:0:0:0:
231,143,72052,1,0,0:0:0:0:
231,143,72386,1,0,0:0:0:0:
231,143,72552,1,8,0:0:0:0:
231,143,72719,1,8,0:0:0:0:
232,148,72886,1,0,0:0:0:0:
256,120,73219,1,8,0:0:0:0:
232,148,73552,1,0,0:0:0:0:
230,157,73886,1,8,0:0:0:0:
230,157,73969,1,8,0:0:0:0:
230,157,74052,1,8,0:0:0:0:
233,168,74219,1,0,0:0:0:0:
109,151,74386,1,0,0:0:0:0:
229,175,74719,1,4,0:0:0:0:
229,175,75052,1,4,0:0:0:0:
229,175,75219,1,4,0:0:0:0:
229,175,75552,1,4,0:0:0:0:
229,175,75886,1,8,0:0:0:0:
170,141,76219,1,4,0:0:0:0:
176,168,76552,1,8,0:0:0:0:
176,168,77219,1,8,0:0:0:0:
176,168,77886,1,8,0:0:0:0:
176,168,78552,1,8,0:0:0:0:
256,240,78886,1,0,0:0:0:0:
256,240,79219,1,0,0:0:0:0:
256,240,79552,1,8,0:0:0:0:
312,160,79636,1,8,0:0:0:0:
256,240,79719,1,8,0:0:0:0:
256,240,79886,1,8,0:0:0:0:
256,240,80219,1,0,0:0:0:0:
256,240,80386,1,0,0:0:0:0:
256,240,80552,1,8,0:0:0:0:
256,240,80719,1,0,0:0:0:0:
256,240,81052,1,0,0:0:0:0:
256,240,81219,1,8,0:0:0:0:
256,240,81552,1,4,0:0:0:0:
256,240,81886,1,8,0:0:0:0:
256,240,82552,1,8,0:0:0:0:
256,240,83219,1,8,0:0:0:0:
256,240,83886,1,8,0:0:0:0:
256,240,84219,1,0,0:0:0:0:
256,240,84552,1,0,0:0:0:0:
248,200,84636,1,0,0:0:0:0:
248,200,84719,1,0,0:0:0:0:
256,240,84886,1,8,0:0:0:0:
256,240,85052,1,0,0:0:0:0:
256,240,85386,1,12,0:0:0:0:
256,240,85719,1,12,0:0:0:0:
256,240,85886,1,12,0:0:0:0:
256,240,86219,1,12,0:0:0:0:
240,224,86886,1,4,0:0:0:0:
328,216,87219,1,8,0:0:0:0:
320,216,87552,1,0,0:0:0:0:
320,216,87886,1,8,0:0:0:0:
320,216,88052,1,0,0:0:0:0:
144,208,88386,1,0,0:0:0:0:
320,216,88552,1,8,0:0:0:0:
320,216,88886,1,0,0:0:0:0:
320,216,89219,1,8,0:0:0:0:
296,120,89302,1,8,0:0:0:0:
320,216,89386,1,8,0:0:0:0:
184,88,89552,1,0,0:0:0:0:
320,216,89886,1,8,0:0:0:0:
320,216,90219,1,0,0:0:0:0:
196,72,90386,1,0,0:0:0:0:
208,160,90552,1,8,0:0:0:0:
280,160,90886,1,0,0:0:0:0:
224,144,91219,1,8,0:0:0:0:
224,144,91386,1,0,0:0:0:0:
320,216,91552,1,8,0:0:0:0:
320,216,91886,1,8,0:0:0:0:
184,64,91969,1,8,0:0:0:0:
184,64,92052,1,8,0:0:0:0:
272,248,92219,1,4,0:0:0:0:
320,216,92552,1,8,0:0:0:0:
320,216,92886,1,0,0:0:0:0:
320,216,93219,1,8,0:0:0:0:
208,168,93386,1,8,0:0:0:0:
320,224,93552,1,0,0:0:0:0:
211,71,93719,1,0,0:0:0:0:
184,184,93886,1,8,0:0:0:0:
320,224,94219,1,0,0:0:0:0:
121,98,94552,1,8,0:0:0:0:
248,128,94886,1,0,0:0:0:0:
320,224,95219,1,8,0:0:0:0:
320,224,95552,1,0,0:0:0:0:
208,120,95719,1,0,0:0:0:0:
208,120,95886,1,8,0:0:0:0:
320,224,96219,1,0,0:0:0:0:
320,224,96386,1,8,0:0:0:0:
320,224,96552,1,8,0:0:0:0:
320,224,96719,1,8,0:0:0:0:
320,224,96886,1,0,0:0:0:0:
320,224,97552,1,4,0:0:0:0:
288,216,98219,1,8,0:0:0:0:
288,216,98552,1,8,0:0:0:0:
288,216,98719,1,0,0:0:0:0:
288,216,99052,1,0,0:0:0:0:
288,232,99219,1,8,0:0:0:0:
90,128,99386,1,8,0:0:0:0:
288,232,99552,1,0,0:0:0:0:
177,124,99886,1,8,0:0:0:0:
288,232,100219,1,0,0:0:0:0:
288,232,100552,1,8,0:0:0:0:
288,232,100886,1,0,0:0:0:0:
288,232,101052,1,0,0:0:0:0:
288,232,101219,1,8,0:0:0:0:
144,136,101386,1,8,0:0:0:0:
288,232,101552,1,0,0:0:0:0:
288,232,101886,1,8,0:0:0:0:
400,200,102052,1,0,0:0:0:0:
288,232,102219,1,0,0:0:0:0:
288,232,102386,1,8,0:0:0:0:
128,192,102469,1,8,0:0:0:0:
288,232,102552,1,8,0:0:0:0:
240,224,102886,1,4,0:0:0:0:
280,224,103386,1,12,0:0:0:0:
256,224,103719,1,0,0:0:0:0:
256,224,103886,1,0,0:0:0:0:
280,224,104052,1,12,0:0:0:0:
256,224,104386,1,8,0:0:0:0:
256,224,104552,1,0,0:0:0:0:
280,224,104719,1,12,0:0:0:0:
256,224,105052,1,0,0:0:0:0:
256,224,105219,1,8,0:0:0:0:
256,224,105552,1,4,0:0:0:0:
256,224,105886,1,8,0:0:0:0:
256,128,106052,1,0,0:0:0:0:
256,224,106219,1,8,0:0:0:0:
256,224,106386,1,0,0:0:0:0:
256,224,106469,1,0,0:0:0:0:
256,224,106552,1,0,0:0:0:0:
256,224,106719,1,8,0:0:0:0:
336,168,107719,1,8,0:0:0:0:
336,168,107802,1,8,0:0:0:0:
336,168,107886,1,8,0:0:0:0:
160,192,108219,1,4,0:0:0:0:
272,256,108552,1,8,0:0:0:0:
264,288,108886,1,0,0:0:0:0:
264,288,109052,1,0,0:0:0:0:
264,288,109219,1,8,0:0:0:0:
264,288,109552,1,8,0:0:0:0:
264,288,109719,1,0,0:0:0:0:
280,320,109886,1,0,0:0:0:0:
264,288,110052,1,8,0:0:0:0:
264,288,110386,1,0,0:0:0:0:
264,288,110552,1,8,0:0:0:0:
280,320,110886,1,0,0:0:0:0:
280,320,111219,1,8,0:0:0:0:
280,320,111552,1,0,0:0:0:0:
168,192,111886,1,8,0:0:0:0:
256,168,112052,1,0,0:0:0:0:
73,193,112386,1,0,0:0:0:0:
73,193,112552,1,8,0:0:0:0:
288,320,112886,1,12,0:0:0:0:
288,320,113219,1,12,0:0:0:0:
288,320,113552,1,4,0:0:0:0:
272,224,113886,1,8,0:0:0:0:
272,224,114219,1,0,0:0:0:0:
272,224,114552,1,8,0:0:0:0:
272,224,114719,1,0,0:0:0:0:
272,224,115052,1,0,0:0:0:0:
272,224,115219,1,8,0:0:0:0:
272,224,115386,1,0,0:0:0:0:
272,224,115552,1,8,0:0:0:0:
272,232,115886,1,8,0:0:0:0:
272,232,116219,1,0,0:0:0:0:
85,160,116552,1,8,0:0:0:0:
272,232,116886,1,0,0:0:0:0:
95,169,117219,1,0,0:0:0:0:
280,232,117386,1,8,0:0:0:0:
280,232,117719,1,8,0:0:0:0:
280,232,117886,1,0,0:0:0:0:
280,232,118052,1,8,0:0:0:0:
152,152,118136,1,8,0:0:0:0:
280,232,118219,1,8,0:0:0:0:
152,152,118386,1,0,0:0:0:0:
280,232,118552,1,8,0:0:0:0:
280,232,118886,1,4,0:0:0:0:
456,240,119219,1,8,0:0:0:0:
456,240,119552,1,0,0:0:0:0:
456,240,119719,1,0,0:0:0:0:
456,240,119886,1,8,0:0:0:0:
456,240,120219,1,8,0:0:0:0:
456,240,120386,1,0,0:0:0:0:
456,240,120552,1,0,0:0:0:0:
456,240,120719,1,8,0:0:0:0:
456,240,121052,1,0,0:0:0:0:
456,240,121219,1,8,0:0:0:0:
456,240,121552,1,0,0:0:0:0:
296,248,121719,1,8,0:0:0:0:
296,248,121802,1,8,0:0:0:0:
296,248,121886,1,8,0:0:0:0:
296,248,122052,1,0,0:0:0:0:
296,256,122219,1,8,0:0:0:0:
296,248,122552,1,8,0:0:0:0:
224,80,122719,1,0,0:0:0:0:
296,248,123052,1,0,0:0:0:0:
152,128,123219,1,8,0:0:0:0:
152,128,123552,1,12,0:0:0:0:
152,128,123886,1,12,0:0:0:0:
152,128,124219,1,4,0:0:0:0:
240,160,124552,1,8,0:0:0:0:
240,160,124886,1,0,0:0:0:0:
240,160,125219,1,8,0:0:0:0:
240,160,125386,1,0,0:0:0:0:
248,160,125719,1,0,0:0:0:0:
248,160,125886,1,8,0:0:0:0:
248,160,126219,1,0,0:0:0:0:
121,101,126552,1,8,0:0:0:0:
248,160,126886,1,0,0:0:0:0:
248,160,127219,1,0,0:0:0:0:
248,160,127302,1,0,0:0:0:0:
248,160,127386,1,0,0:0:0:0:
248,160,127552,1,8,0:0:0:0:
248,160,127719,1,8,0:0:0:0:
248,160,128052,1,12,0:0:0:0:
248,160,128386,1,12,0:0:0:0:
248,160,128552,1,12,0:0:0:0:
248,160,128886,1,12,0:0:0:0:
296,208,129219,1,8,0:0:0:0:
208,208,129552,1,4,0:0:0:0:
208,208,129886,1,8,0:0:0:0:
208,208,130552,1,8,0:0:0:0:
208,208,130719,1,0,0:0:0:0:
208,208,131052,1,8,0:0:0:0:
208,208,131386,1,8,0:0:0:0:
208,208,131469,1,8,0:0:0:0:
208,208,131552,1,8,0:0:0:0:
208,208,131886,1,12,0:0:0:0:
208,208,132219,1,0,0:0:0:0:
208,208,132552,1,8,0:0:0:0:
208,208,132886,1,0,0:0:0:0:
208,208,133052,1,0,0:0:0:0:
208,208,133219,1,8,0:0:0:0:
208,208,133552,1,0,0:0:0:0:
208,208,133719,1,8,0:0:0:0:
208,208,133802,1,8,0:0:0:0:
208,208,133886,1,8,0:0:0:0:
208,208,134052,1,0,0:0:0:0:
192,80,134386,1,0,0:0:0:0:
208,208,134552,1,8,0:0:0:0:
208,208,134886,1,4,0:0:0:0:
256,192,135219,1,8,0:0:0:0:
256,192,135552,1,0,0:0:0:0:
256,224,135719,1,8,0:0:0:0:
256,192,135886,1,0,0:0:0:0:
256,224,136219,1,8,0:0:0:0:
160,192,136552,1,0,0:0:0:0:
160,192,136719,1,8,0:0:0:0:
160,192,137052,1,0,0:0:0:0:
160,192,137219,1,8,0:0:0:0:
43,309,137552,2,0,B|8:183|8:183|50:153|50:153|102:198|102:198|137:141|137:141|188:194|188:194|151:242,1,420
240,216,138886,1,8,0:0:0:0:
240,216,138969,1,8,0:0:0:0:
240,216,139052,1,8,0:0:0:0:
240,216,139219,1,0,0:0:0:0:
240,216,139386,1,8,0:0:0:0:
240,216,139719,1,8,0:0:0:0:
248,224,140219,1,4,0:0:0:0:
272,160,140552,1,8,0:0:0:0:
120,175,140886,1,0,0:0:0:0:
272,160,141219,1,8,0:0:0:0:
272,160,141386,1,0,0:0:0:0:
272,160,141719,1,0,0:0:0:0:
272,160,141886,1,8,0:0:0:0:
272,160,142052,1,0,0:0:0:0:
272,160,142386,1,0,0:0:0:0:
272,160,142552,1,8,0:0:0:0:
256,160,142886,1,0,0:0:0:0:
248,160,143219,1,8,0:0:0:0:
248,160,143302,1,8,0:0:0:0:
248,160,143386,1,8,0:0:0:0:
248,160,143552,1,0,0:0:0:0:
248,160,143719,1,0,0:0:0:0:
188,86,143886,1,8,0:0:0:0:
248,160,144052,1,0,0:0:0:0:
128,128,144386,1,0,0:0:0:0:
248,160,144552,1,8,0:0:0:0:
248,160,144719,1,0,0:0:0:0:
248,160,145052,1,0,0:0:0:0:
248,160,145219,1,8,0:0:0:0:
78,188,145386,1,0,0:0:0:0:
72,187,145469,1,0,0:0:0:0:
296,168,145552,1,0,0:0:0:0:
296,168,145886,1,8,0:0:0:0:
114,164,146219,1,0,0:0:0:0:
296,168,146552,1,8,0:0:0:0:
296,168,146719,1,0,0:0:0:0:
296,168,147052,1,0,0:0:0:0:
296,168,147219,1,8,0:0:0:0:
296,168,147386,1,0,0:0:0:0:
296,168,147719,1,0,0:0:0:0:
296,168,147886,1,8,0:0:0:0:
296,168,148219,1,0,0:0:0:0:
296,168,148552,1,8,0:0:0:0:
296,168,148886,1,0,0:0:0:0:
312,184,149386,1,4,0:0:0:0:
312,192,149719,1,0,0:0:0:0:
312,192,149886,1,8,0:0:0:0:
312,192,150052,1,0,0:0:0:0:
312,192,150136,1,0,0:0:0:0:
312,192,150219,1,0,0:0:0:0:
312,192,150552,1,8,0:0:0:0:
312,192,150719,1,4,0:0:0:0:
312,192,151052,1,0,0:0:0:0:
312,192,151219,1,8,0:0:0:0:
216,144,151552,1,0,0:0:0:0:
216,144,151886,1,8,0:0:0:0:
216,144,152052,1,0,0:0:0:0:
216,144,152386,1,0,0:0:0:0:
216,144,152552,1,8,0:0:0:0:
216,144,152886,1,0,0:0:0:0:
115,130,153219,1,8,0:0:0:0:
115,130,153386,1,8,0:0:0:0:
216,144,153552,1,0,0:0:0:0:
216,144,153886,1,8,0:0:0:0:
216,144,154052,1,0,0:0:0:0:
216,144,154386,1,0,0:0:0:0:
216,144,154552,1,8,0:0:0:0:
88,150,154719,1,8,0:0:0:0:
216,144,154886,1,0,0:0:0:0:
216,144,155219,1,8,0:0:0:0:
88,150,155386,1,0,0:0:0:0:
88,150,155552,1,0,0:0:0:0:
88,150,155719,1,0,0:0:0:0:
75,144,155886,1,8,0:0:0:0:
216,144,156219,1,0,0:0:0:0:
216,144,156302,1,0,0:0:0:0:
216,144,156386,1,0,0:0:0:0:
216,144,156552,1,8,0:0:0:0:
216,144,156719,1,8,0:0:0:0:
216,144,156886,1,0,0:0:0:0:
216,144,156969,1,0,0:0:0:0:
216,144,157052,1,0,0:0:0:0:
216,144,157219,1,8,0:0:0:0:
216,144,157552,1,0,0:0:0:0:
200,128,157886,1,8,0:0:0:0:
200,128,158052,1,8,0:0:0:0:
140,149,158552,1,8,0:0:0:0:
200,128,158886,1,0,0:0:0:0:
208,136,159219,1,0,0:0:0:0:
208,136,159552,1,8,0:0:0:0:
208,136,159719,1,0,0:0:0:0:
208,136,159802,1,0,0:0:0:0:
208,136,159886,1,0,0:0:0:0:
208,136,160052,1,12,0:0:0:0:
