osu file format v14

[General]
AudioFilename: audio.mp3
AudioLeadIn: 0
PreviewTime: 106886
Countdown: 0
SampleSet: Normal
StackLeniency: 0.7
Mode: 1
LetterboxInBreaks: 0
WidescreenStoryboard: 0

[Editor]
Bookmarks: 6886,10886,12219,21386,21719,21886,22219,22886,33552,33719,33886,44219,49552,50052,50719,51386,52219,54886,60219,65552,74719,75052,75219,75552,76219,85386,85719,85886,86219,86886,97552,102886,105552,108219,118886,128052,128386,128552,128886,129552,134886,138886,140219,150719,160052
DistanceSpacing: 1
BeatDivisor: 2
GridSize: 8
TimelineZoom: 0.5999999

[Metadata]
Title:Merry * Xex Mas
TitleUnicode:Merry * Xex Mas
Artist:Nico Nico Douga feat. Mizuhu
ArtistUnicode:Nico Nico Douga feat. Mizuhu
Creator:404 AccNotFound
Version:Kantan
Source:
Tags:christmas applerss aabc271
BeatmapID:1478985
BeatmapSetID:696825

[Difficulty]
HPDrainRate:8
CircleSize:5
OverallDifficulty:3
ApproachRate:5
SliderMultiplier:1.4
SliderTickRate:1

[Events]
//Background and Video events
0,0,"54213625_p0.jpg",0,0
//Break Periods
//Storyboard Layer 0 (Background)
//Storyboard Layer 1 (Fail)
//Storyboard Layer 2 (Pass)
//Storyboard Layer 3 (Foreground)
//Storyboard Sound Samples

[TimingPoints]
1553,333.333333333333,4,1,0,84,1,0
6886,-100,4,1,0,86,0,0
10886,-100,4,1,0,88,0,0
12219,-100,4,1,0,96,0,0
22886,-100,4,1,0,90,0,0
44219,-100,4,1,0,88,0,0
49552,-100,4,1,0,89,0,0
54886,-100,4,1,0,92,0,1
74719,-100,4,1,0,92,0,0
76219,-100,4,1,0,92,0,1
86886,-100,4,1,0,90,0,0
97552,-100,4,1,0,88,0,0
102886,-100,4,1,0,89,0,0
108219,-100,4,1,0,92,0,1
129552,-100,4,1,0,86,0,0
134886,-100,4,1,0,88,0,0
140219,-100,4,1,0,90,0,0
149552,-100,4,1,0,91,0,0
150886,-100,4,1,0,92,0,0

[HitObjects]
360,192,220,5,8,0:0:0:0:
352,200,719,1,8,0:0:0:0:
352,200,1219,1,8,0:0:0:0:
352,200,1553,1,4,0:0:0:0:
216,192,2719,1,8,0:0:0:0:
216,192,3052,1,8,0:0:0:0:
216,192,4219,1,0,0:0:0:0:
296,168,4886,1,8,0:0:0:0:
296,168,5552,1,0,0:0:0:0:
288,216,6052,1,0,0:0:0:0:
288,216,6552,1,8,0:0:0:0:
288,216,6886,1,4,0:0:0:0:
320,208,7552,1,0,0:0:0:0:
320,208,8219,1,8,0:0:0:0:
288,168,9552,1,0,0:0:0:0:
288,168,10219,1,8,0:0:0:0:
288,168,10886,1,0,0:0:0:0:
304,200,11386,1,8,0:0:0:0:
304,200,11719,1,8,0:0:0:0:
255,174,12219,1,4,0:0:0:0:
297,196,12552,1,8,0:0:0:0:
297,196,13219,1,8,0:0:0:0:
74,122,13886,1,8,0:0:0:0:
279,168,14386,1,8,0:0:0:0:
297,196,14552,1,8,0:0:0:0:
205,204,14886,1,0,0:0:0:0:
320,195,15552,1,0,0:0:0:0:
320,195,16219,1,8,0:0:0:0:
199,68,17552,1,4,0:0:0:0:
199,68,17886,1,8,0:0:0:0:
213,123,18552,1,8,0:0:0:0:
213,123,19219,1,8,0:0:0:0:
80,232,19719,1,8,0:0:0:0:
213,123,19886,1,8,0:0:0:0:
213,123,20219,1,0,0:0:0:0:
213,123,20886,1,8,0:0:0:0:
256,192,21386,12,0,22552,0:0:0:0:
213,123,22886,5,4,0:0:0:0:
218,175,23552,1,8,0:0:0:0:
218,175,24219,1,0,0:0:0:0:
253,127,24552,1,0,0:0:0:0:
253,127,24886,1,8,0:0:0:0:
223,169,25552,1,0,0:0:0:0:
223,169,26219,1,8,0:0:0:0:
223,169,26886,1,0,0:0:0:0:
303,208,28219,1,0,0:0:0:0:
303,208,28886,1,8,0:0:0:0:
303,208,29552,1,0,0:0:0:0:
230,112,29886,1,0,0:0:0:0:
230,112,30219,1,8,0:0:0:0:
305,200,30886,1,8,0:0:0:0:
305,200,31552,1,0,0:0:0:0:
305,200,32219,1,8,0:0:0:0:
301,200,33886,1,12,0:0:0:0:
301,200,35219,1,12,0:0:0:0:
301,200,35552,1,12,0:0:0:0:
301,200,35886,1,12,0:0:0:0:
301,200,36552,1,12,0:0:0:0:
16,224,37552,2,0,L|328:200,1,280
290,215,39219,1,12,0:0:0:0:
290,215,40552,1,4,0:0:0:0:
290,215,40886,1,4,0:0:0:0:
290,215,41219,1,4,0:0:0:0:
290,215,41886,1,12,0:0:0:0:
290,215,42886,1,8,0:0:0:0:
290,215,43552,1,0,0:0:0:0:
290,215,44219,1,4,0:0:0:0:
281,182,45552,1,8,0:0:0:0:
281,182,46886,1,0,0:0:0:0:
281,182,47552,1,8,0:0:0:0:
281,182,48219,1,0,0:0:0:0:
281,182,49552,1,4,0:0:0:0:
281,182,50052,1,4,0:0:0:0:
281,182,50719,1,12,0:0:0:0:
281,182,51386,1,12,0:0:0:0:
281,182,52219,1,0,0:0:0:0:
281,182,52886,1,0,0:0:0:0:
281,182,53386,1,8,0:0:0:0:
302,251,54886,1,4,0:0:0:0:
305,129,55552,1,8,0:0:0:0:
305,143,56219,1,0,0:0:0:0:
305,143,56552,1,0,0:0:0:0:
305,143,56886,1,8,0:0:0:0:
305,143,57552,1,0,0:0:0:0:
305,143,58219,1,8,0:0:0:0:
305,143,58886,1,0,0:0:0:0:
305,143,60219,1,12,0:0:0:0:
222,126,60886,1,0,0:0:0:0:
222,126,61552,1,8,0:0:0:0:
222,126,61886,1,8,0:0:0:0:
222,126,62219,1,8,0:0:0:0:
222,126,62886,1,0,0:0:0:0:
222,126,63552,1,8,0:0:0:0:
222,126,64219,1,0,0:0:0:0:
215,122,65552,1,12,0:0:0:0:
215,122,66219,1,8,0:0:0:0:
215,122,66886,1,0,0:0:0:0:
246,126,67219,1,0,0:0:0:0:
246,126,67552,1,8,0:0:0:0:
246,126,68219,1,0,0:0:0:0:
246,126,68886,1,0,0:0:0:0:
246,126,69552,1,8,0:0:0:0:
250,137,70886,1,4,0:0:0:0:
250,137,71552,1,8,0:0:0:0:
236,166,72219,1,0,0:0:0:0:
241,166,72552,1,0,0:0:0:0:
241,166,72886,1,8,0:0:0:0:
241,166,73552,1,0,0:0:0:0:
241,166,74219,1,8,0:0:0:0:
256,192,74719,12,0,75886,0:0:0:0:
241,166,76219,5,4,0:0:0:0:
248,138,76552,1,8,0:0:0:0:
248,138,77219,1,8,0:0:0:0:
248,138,77886,1,8,0:0:0:0:
248,138,78552,1,8,0:0:0:0:
303,135,78886,1,0,0:0:0:0:
303,135,79552,1,0,0:0:0:0:
303,135,80219,1,8,0:0:0:0:
218,89,81552,1,4,0:0:0:0:
241,106,81886,1,8,0:0:0:0:
241,106,82552,1,8,0:0:0:0:
241,106,83219,1,8,0:0:0:0:
241,106,83886,1,8,0:0:0:0:
241,106,84219,1,0,0:0:0:0:
241,106,84886,1,0,0:0:0:0:
256,192,85386,12,0,86552,0:0:0:0:
241,106,86886,5,4,0:0:0:0:
326,171,87552,1,0,0:0:0:0:
321,180,88219,1,0,0:0:0:0:
321,180,88886,1,8,0:0:0:0:
321,180,89219,1,8,0:0:0:0:
321,180,89552,1,0,0:0:0:0:
321,180,90219,1,0,0:0:0:0:
321,180,90886,1,8,0:0:0:0:
314,169,92219,1,0,0:0:0:0:
314,169,92886,1,8,0:0:0:0:
314,169,93552,1,0,0:0:0:0:
314,169,94219,1,8,0:0:0:0:
314,169,94552,1,8,0:0:0:0:
314,169,94886,1,0,0:0:0:0:
314,169,95552,1,8,0:0:0:0:
43,230,96219,2,0,B|58:175|91:272|90:271|90:271|139:185|139:185|163:275|210:197|210:233|219:166,1,280
314,169,97552,1,4,0:0:0:0:
205,146,98886,1,8,0:0:0:0:
221,150,100219,1,0,0:0:0:0:
221,150,100886,1,8,0:0:0:0:
221,150,101552,1,0,0:0:0:0:
219,151,102886,1,4,0:0:0:0:
219,151,103386,1,4,0:0:0:0:
219,151,104052,1,12,0:0:0:0:
219,151,104719,1,12,0:0:0:0:
219,151,105552,1,0,0:0:0:0:
57,157,106219,1,8,0:0:0:0:
103,149,106719,1,8,0:0:0:0:
353,200,108219,1,4,0:0:0:0:
243,251,108886,1,8,0:0:0:0:
243,251,109552,1,0,0:0:0:0:
243,251,109886,1,0,0:0:0:0:
243,251,110219,1,8,0:0:0:0:
243,251,110886,1,0,0:0:0:0:
243,251,111552,1,8,0:0:0:0:
243,251,112219,1,0,0:0:0:0:
244,250,113552,1,4,0:0:0:0:
244,250,114219,1,8,0:0:0:0:
244,250,114886,1,0,0:0:0:0:
244,250,115219,1,8,0:0:0:0:
244,250,115552,1,0,0:0:0:0:
244,250,116219,1,8,0:0:0:0:
244,250,116886,1,0,0:0:0:0:
244,250,117552,1,8,0:0:0:0:
239,237,118886,1,4,0:0:0:0:
239,237,119552,1,8,0:0:0:0:
239,237,120219,1,0,0:0:0:0:
239,237,120552,1,0,0:0:0:0:
239,237,120886,1,8,0:0:0:0:
239,237,121552,1,0,0:0:0:0:
239,237,122219,1,0,0:0:0:0:
239,237,122886,1,8,0:0:0:0:
239,237,124219,1,4,0:0:0:0:
239,237,124886,1,8,0:0:0:0:
239,237,125552,1,8,0:0:0:0:
239,237,125886,1,8,0:0:0:0:
239,237,126219,1,0,0:0:0:0:
239,237,126886,1,8,0:0:0:0:
239,237,127552,1,0,0:0:0:0:
256,192,128052,12,0,129219,0:0:0:0:
239,237,129552,5,4,0:0:0:0:
226,170,130719,1,0,0:0:0:0:
226,170,131052,1,0,0:0:0:0:
102,90,131886,1,12,0:0:0:0:
226,170,132219,1,0,0:0:0:0:
225,177,132886,1,0,0:0:0:0:
225,177,133552,1,8,0:0:0:0:
345,171,134052,1,8,0:0:0:0:
345,171,134552,1,8,0:0:0:0:
225,177,134886,1,4,0:0:0:0:
212,183,136219,1,8,0:0:0:0:
79,279,137552,2,0,L|497:130,1,420
85,175,138886,1,8,0:0:0:0:
141,126,139552,1,0,0:0:0:0:
240,189,140219,1,4,0:0:0:0:
196,108,140886,1,8,0:0:0:0:
196,108,141552,1,0,0:0:0:0:
196,108,141886,1,0,0:0:0:0:
196,108,142219,1,8,0:0:0:0:
196,108,142886,1,0,0:0:0:0:
196,108,143552,1,8,0:0:0:0:
196,108,144219,1,0,0:0:0:0:
196,108,145552,1,8,0:0:0:0:
196,108,146219,1,0,0:0:0:0:
196,108,146886,1,8,0:0:0:0:
196,108,147219,1,8,0:0:0:0:
196,108,147552,1,8,0:0:0:0:
196,108,148219,1,0,0:0:0:0:
196,108,148886,1,0,0:0:0:0:
198,134,149386,1,12,0:0:0:0:
202,123,150719,1,4,0:0:0:0:
202,123,151552,1,0,0:0:0:0:
178,93,152219,1,8,0:0:0:0:
197,129,152552,1,0,0:0:0:0:
197,129,152886,1,8,0:0:0:0:
166,142,153552,1,0,0:0:0:0:
166,142,154219,1,8,0:0:0:0:
166,142,154886,1,0,0:0:0:0:
150,138,156219,1,0,0:0:0:0:
224,192,156552,1,0,0:0:0:0:
150,138,156886,1,0,0:0:0:0:
150,138,157552,1,8,0:0:0:0:
56,151,157886,1,8,0:0:0:0:
170,77,158219,1,8,0:0:0:0:
151,138,158886,1,0,0:0:0:0:
151,138,159552,1,0,0:0:0:0:
151,138,160052,1,12,0:0:0:0:
