osu file format v14

[General]
AudioFilename: audio.mp3
AudioLeadIn: 0
PreviewTime: 16771
Countdown: 0
SampleSet: Soft
StackLeniency: 0.7
Mode: 3
LetterboxInBreaks: 0
SpecialStyle: 0
WidescreenStoryboard: 0

[Editor]
DistanceSpacing: 0.5
BeatDivisor: 4
GridSize: 4
TimelineZoom: 1.5

[Metadata]
Title:okagis
TitleUnicode:okagis
Artist:Nico Nico Douga
ArtistUnicode:Nico Nico Douga
Creator:[JOS]losffa
Version:Challenge
Source:KINMOZA!
Tags:kiniro mosaic きんいろモザイク karen 白竜 かるぴす
BeatmapID:1744344
BeatmapSetID:832658

[Difficulty]
HPDrainRate:8
CircleSize:4
OverallDifficulty:8
ApproachRate:5
SliderMultiplier:1.4
SliderTickRate:1

[Events]
//Background and Video events
0,0,"Karen.jpg",0,0
//Break Periods
//Storyboard Layer 0 (Background)
//Storyboard Layer 1 (Fail)
//Storyboard Layer 2 (Pass)
//Storyboard Layer 3 (Foreground)
//Storyboard Sound Samples

[TimingPoints]
4920,370.37037037037,4,2,1,30,1,0

[HitObjects]
64,192,10105,5,0,0:0:0:0:
192,192,10105,1,0,0:0:0:0:
448,192,10105,1,0,0:0:0:0:
320,192,10105,1,0,0:0:0:0:
320,192,10382,1,0,0:0:0:0:
448,192,10382,1,0,0:0:0:0:
192,192,10382,1,0,0:0:0:0:
64,192,10382,1,0,0:0:0:0:
320,192,10660,1,0,0:0:0:0:
192,192,10660,1,0,0:0:0:0:
64,192,10660,1,0,0:0:0:0:
448,192,10660,1,0,0:0:0:0:
448,192,10845,1,0,0:0:0:0:
64,192,10845,1,0,0:0:0:0:
320,192,10845,1,0,0:0:0:0:
192,192,11031,1,0,0:0:0:0:
320,192,11123,1,0,0:0:0:0:
448,192,11216,1,0,0:0:0:0:
64,192,11216,1,0,0:0:0:0:
320,192,11308,1,0,0:0:0:0:
192,192,11308,1,0,0:0:0:0:
64,192,11401,1,0,0:0:0:0:
448,192,11401,1,0,0:0:0:0:
192,192,11586,1,0,0:0:0:0:
64,192,11586,1,0,0:0:0:0:
448,192,11586,1,0,0:0:0:0:
320,192,11771,1,0,0:0:0:0:
448,192,11771,1,0,0:0:0:0:
64,192,11771,1,0,0:0:0:0:
192,192,11864,1,0,0:0:0:0:
448,192,11864,1,0,0:0:0:0:
64,192,11864,1,0,0:0:0:0:
320,192,11957,1,0,0:0:0:0:
448,192,11957,1,0,0:0:0:0:
192,192,11957,1,0,0:0:0:0:
320,192,12049,1,0,0:0:0:0:
192,192,12049,1,0,0:0:0:0:
64,192,12049,1,0,0:0:0:0:
448,192,12142,1,0,0:0:0:0:
320,192,12142,1,0,0:0:0:0:
64,192,12142,1,0,0:0:0:0:
320,192,12234,1,0,0:0:0:0:
448,192,12327,1,0,0:0:0:0:
64,192,12327,1,0,0:0:0:0:
192,192,12327,1,0,0:0:0:0:
192,192,12512,1,0,0:0:0:0:
320,192,12512,1,0,0:0:0:0:
64,192,12512,1,0,0:0:0:0:
192,192,12605,1,0,0:0:0:0:
448,192,12697,1,0,0:0:0:0:
320,192,12697,1,0,0:0:0:0:
64,192,12697,1,0,0:0:0:0:
320,192,12790,1,0,0:0:0:0:
448,192,12790,1,0,0:0:0:0:
192,192,12882,1,0,0:0:0:0:
64,192,12975,1,0,0:0:0:0:
320,192,13068,1,0,0:0:0:0:
448,192,13068,1,0,0:0:0:0:
192,192,13068,1,0,0:0:0:0:
64,192,13253,1,0,0:0:0:0:
320,192,13253,1,0,0:0:0:0:
192,192,13253,1,0,0:0:0:0:
64,192,13345,1,0,0:0:0:0:
192,192,13345,1,0,0:0:0:0:
448,192,13345,1,0,0:0:0:0:
320,192,13438,1,0,0:0:0:0:
448,192,13438,1,0,0:0:0:0:
192,192,13438,1,0,0:0:0:0:
320,192,13531,1,0,0:0:0:0:
192,192,13531,1,0,0:0:0:0:
64,192,13531,1,0,0:0:0:0:
320,192,13623,1,0,0:0:0:0:
448,192,13623,1,0,0:0:0:0:
64,192,13623,1,0,0:0:0:0:
448,192,13716,1,0,0:0:0:0:
192,192,13716,1,0,0:0:0:0:
64,192,13716,1,0,0:0:0:0:
64,192,13808,1,0,0:0:0:0:
320,192,13808,1,0,0:0:0:0:
448,192,13808,1,0,0:0:0:0:
192,192,13994,1,0,0:0:0:0:
64,192,13994,1,0,0:0:0:0:
448,192,13994,1,0,0:0:0:0:
320,192,14086,1,0,0:0:0:0:
320,192,14179,1,0,0:0:0:0:
192,192,14179,1,0,0:0:0:0:
64,192,14179,1,0,0:0:0:0:
448,192,14271,1,0,0:0:0:0:
320,192,14271,1,0,0:0:0:0:
64,192,14271,1,0,0:0:0:0:
448,192,14364,1,0,0:0:0:0:
192,192,14364,1,0,0:0:0:0:
64,192,14364,1,0,0:0:0:0:
320,192,14457,1,0,0:0:0:0:
448,192,14457,1,0,0:0:0:0:
192,192,14457,1,0,0:0:0:0:
320,192,14549,1,0,0:0:0:0:
192,192,14549,1,0,0:0:0:0:
64,192,14549,1,0,0:0:0:0:
192,192,14642,1,0,0:0:0:0:
448,192,14734,1,0,0:0:0:0:
320,192,14734,1,0,0:0:0:0:
64,192,14734,1,0,0:0:0:0:
192,192,14827,1,0,0:0:0:0:
64,192,14827,1,0,0:0:0:0:
448,192,14827,1,0,0:0:0:0:
320,192,14919,1,0,0:0:0:0:
448,192,14919,1,0,0:0:0:0:
192,192,14919,1,0,0:0:0:0:
320,192,15012,1,0,0:0:0:0:
192,192,15012,1,0,0:0:0:0:
64,192,15012,1,0,0:0:0:0:
64,192,15105,1,0,0:0:0:0:
320,192,15105,1,0,0:0:0:0:
448,192,15105,1,0,0:0:0:0:
448,192,15197,1,0,0:0:0:0:
192,192,15197,1,0,0:0:0:0:
64,192,15197,1,0,0:0:0:0:
320,192,15290,1,0,0:0:0:0:
448,192,15290,1,0,0:0:0:0:
192,192,15290,1,0,0:0:0:0:
320,192,15382,1,0,0:0:0:0:
320,192,15475,1,0,0:0:0:0:
64,192,15475,1,0,0:0:0:0:
448,192,15475,1,0,0:0:0:0:
192,192,15568,1,0,0:0:0:0:
64,192,15568,1,0,0:0:0:0:
320,192,15568,1,0,0:0:0:0:
320,192,15660,1,0,0:0:0:0:
448,192,15660,1,0,0:0:0:0:
192,192,15660,1,0,0:0:0:0:
448,192,15753,1,0,0:0:0:0:
64,192,15753,1,0,0:0:0:0:
192,192,15753,1,0,0:0:0:0:
320,192,15845,1,0,0:0:0:0:
448,192,15845,1,0,0:0:0:0:
64,192,15845,1,0,0:0:0:0:
320,192,15938,1,0,0:0:0:0:
192,192,15938,1,0,0:0:0:0:
64,192,15938,1,0,0:0:0:0:
448,192,16031,1,0,0:0:0:0:
320,192,16031,1,0,0:0:0:0:
192,192,16031,1,0,0:0:0:0:
64,192,16031,1,0,0:0:0:0:
64,192,16308,1,0,0:0:0:0:
192,192,16308,1,0,0:0:0:0:
320,192,16308,1,0,0:0:0:0:
448,192,16308,1,0,0:0:0:0:
64,192,16586,1,0,0:0:0:0:
192,192,16586,1,0,0:0:0:0:
320,192,16586,1,0,0:0:0:0:
448,192,16586,1,0,0:0:0:0:
448,192,16679,1,0,0:0:0:0:
64,192,16771,1,0,0:0:0:0:
448,192,16771,1,0,0:0:0:0:
320,192,16771,1,0,0:0:0:0:
192,192,16771,1,0,0:0:0:0:
320,192,16864,1,0,0:0:0:0:
192,192,16957,1,0,0:0:0:0:
64,192,16957,1,0,0:0:0:0:
448,192,16957,1,0,0:0:0:0:
192,192,17049,1,0,0:0:0:0:
448,192,17142,1,0,0:0:0:0:
320,192,17142,1,0,0:0:0:0:
64,192,17142,1,0,0:0:0:0:
192,192,17234,1,0,0:0:0:0:
320,192,17234,1,0,0:0:0:0:
448,192,17234,1,0,0:0:0:0:
192,192,17327,1,0,0:0:0:0:
64,192,17327,1,0,0:0:0:0:
448,192,17327,1,0,0:0:0:0:
320,192,17512,1,0,0:0:0:0:
448,192,17512,1,0,0:0:0:0:
64,192,17512,1,0,0:0:0:0:
192,192,17605,1,0,0:0:0:0:
320,192,17697,1,0,0:0:0:0:
448,192,17697,1,0,0:0:0:0:
192,192,17697,1,0,0:0:0:0:
320,192,17790,1,0,0:0:0:0:
64,192,17790,1,0,0:0:0:0:
192,192,17882,1,0,0:0:0:0:
64,192,17882,1,0,0:0:0:0:
448,192,17882,1,0,0:0:0:0:
320,192,17975,1,0,0:0:0:0:
192,192,17975,1,0,0:0:0:0:
448,192,17975,1,0,0:0:0:0:
448,192,18068,1,0,0:0:0:0:
320,192,18068,1,0,0:0:0:0:
64,192,18068,1,0,0:0:0:0:
192,192,18160,1,0,0:0:0:0:
320,192,18253,1,0,0:0:0:0:
192,192,18253,1,0,0:0:0:0:
64,192,18253,1,0,0:0:0:0:
320,192,18345,1,0,0:0:0:0:
192,192,18438,1,0,0:0:0:0:
320,192,18438,1,0,0:0:0:0:
448,192,18438,1,0,0:0:0:0:
448,192,18531,1,0,0:0:0:0:
64,192,18531,1,0,0:0:0:0:
320,192,18623,1,0,0:0:0:0:
192,192,18623,1,0,0:0:0:0:
64,192,18623,1,0,0:0:0:0:
192,192,18716,1,0,0:0:0:0:
448,192,18716,1,0,0:0:0:0:
320,192,18808,1,0,0:0:0:0:
448,192,18808,1,0,0:0:0:0:
64,192,18808,1,0,0:0:0:0:
192,192,18901,1,0,0:0:0:0:
320,192,18901,1,0,0:0:0:0:
192,192,18994,1,0,0:0:0:0:
64,192,18994,1,0,0:0:0:0:
448,192,18994,1,0,0:0:0:0:
192,192,19086,1,0,0:0:0:0:
64,192,19086,1,0,0:0:0:0:
448,192,19086,1,0,0:0:0:0:
64,192,19179,1,0,0:0:0:0:
192,192,19179,1,0,0:0:0:0:
320,192,19179,1,0,0:0:0:0:
192,192,19271,1,0,0:0:0:0:
64,192,19271,1,0,0:0:0:0:
320,192,19271,1,0,0:0:0:0:
320,192,19364,1,0,0:0:0:0:
448,192,19364,1,0,0:0:0:0:
64,192,19364,1,0,0:0:0:0:
320,192,19457,1,0,0:0:0:0:
448,192,19457,1,0,0:0:0:0:
64,192,19457,1,0,0:0:0:0:
320,192,19549,1,0,0:0:0:0:
448,192,19549,1,0,0:0:0:0:
192,192,19549,1,0,0:0:0:0:
320,192,19642,1,0,0:0:0:0:
448,192,19642,1,0,0:0:0:0:
192,192,19642,1,0,0:0:0:0:
320,192,19734,1,0,0:0:0:0:
448,192,19734,1,0,0:0:0:0:
64,192,19734,1,0,0:0:0:0:
320,192,19827,1,0,0:0:0:0:
192,192,19919,1,0,0:0:0:0:
448,192,19919,1,0,0:0:0:0:
320,192,20012,1,0,0:0:0:0:
320,192,20105,1,0,0:0:0:0:
64,192,20105,1,0,0:0:0:0:
192,192,20105,1,0,0:0:0:0:
192,192,20197,1,0,0:0:0:0:
448,192,20197,1,0,0:0:0:0:
448,192,20290,1,0,0:0:0:0:
320,192,20290,1,0,0:0:0:0:
320,192,20382,1,0,0:0:0:0:
192,192,20475,1,0,0:0:0:0:
64,192,20475,1,0,0:0:0:0:
448,192,20475,1,0,0:0:0:0:
192,192,20568,1,0,0:0:0:0:
320,192,20660,1,0,0:0:0:0:
448,192,20660,1,0,0:0:0:0:
64,192,20660,1,0,0:0:0:0:
320,192,20753,1,0,0:0:0:0:
192,192,20845,1,0,0:0:0:0:
64,192,20845,1,0,0:0:0:0:
448,192,20845,1,0,0:0:0:0:
192,192,20938,1,0,0:0:0:0:
320,192,21031,1,0,0:0:0:0:
448,192,21031,1,0,0:0:0:0:
64,192,21031,1,0,0:0:0:0:
320,192,21123,1,0,0:0:0:0:
192,192,21123,1,0,0:0:0:0:
64,192,21216,1,0,0:0:0:0:
192,192,21216,1,0,0:0:0:0:
448,192,21216,1,0,0:0:0:0:
320,192,21401,1,0,0:0:0:0:
448,192,21401,1,0,0:0:0:0:
64,192,21401,1,0,0:0:0:0:
192,192,21494,1,0,0:0:0:0:
64,192,21494,1,0,0:0:0:0:
320,192,21494,1,0,0:0:0:0:
448,192,21586,1,0,0:0:0:0:
64,192,21586,1,0,0:0:0:0:
192,192,21586,1,0,0:0:0:0:
320,192,21679,1,0,0:0:0:0:
320,192,21771,1,0,0:0:0:0:
448,192,21771,1,0,0:0:0:0:
192,192,21771,1,0,0:0:0:0:
320,192,21957,1,0,0:0:0:0:
192,192,21957,1,0,0:0:0:0:
64,192,21957,1,0,0:0:0:0:
192,192,22142,1,0,0:0:0:0:
320,192,22142,1,0,0:0:0:0:
448,192,22142,1,0,0:0:0:0:
320,192,22234,1,0,0:0:0:0:
64,192,22234,1,0,0:0:0:0:
448,192,22234,1,0,0:0:0:0:
192,192,22327,1,0,0:0:0:0:
64,192,22327,1,0,0:0:0:0:
448,192,22327,1,0,0:0:0:0:
320,192,22419,1,0,0:0:0:0:
448,192,22419,1,0,0:0:0:0:
192,192,22419,1,0,0:0:0:0:
64,192,22512,1,0,0:0:0:0:
320,192,22512,1,0,0:0:0:0:
192,192,22512,1,0,0:0:0:0:
448,192,22605,1,0,0:0:0:0:
320,192,22605,1,0,0:0:0:0:
64,192,22605,1,0,0:0:0:0:
192,192,22697,1,0,0:0:0:0:
320,192,22697,1,0,0:0:0:0:
448,192,22697,1,0,0:0:0:0:
64,192,22882,1,0,0:0:0:0:
320,192,22882,1,0,0:0:0:0:
192,192,23068,1,0,0:0:0:0:
64,192,23068,1,0,0:0:0:0:
448,192,23068,1,0,0:0:0:0:
192,192,23160,1,0,0:0:0:0:
64,192,23160,1,0,0:0:0:0:
320,192,23253,1,0,0:0:0:0:
448,192,23253,1,0,0:0:0:0:
320,192,23345,1,0,0:0:0:0:
64,192,23438,1,0,0:0:0:0:
448,192,23438,1,0,0:0:0:0:
192,192,23438,1,0,0:0:0:0:
192,192,23623,1,0,0:0:0:0:
320,192,23623,1,0,0:0:0:0:
448,192,23808,1,0,0:0:0:0:
320,192,23808,1,0,0:0:0:0:
64,192,23808,1,0,0:0:0:0:
192,192,23901,1,0,0:0:0:0:
64,192,23901,1,0,0:0:0:0:
448,192,23901,1,0,0:0:0:0:
320,192,23994,1,0,0:0:0:0:
448,192,23994,1,0,0:0:0:0:
192,192,23994,1,0,0:0:0:0:
320,192,24086,1,0,0:0:0:0:
64,192,24086,1,0,0:0:0:0:
192,192,24086,1,0,0:0:0:0:
448,192,24179,1,0,0:0:0:0:
320,192,24179,1,0,0:0:0:0:
64,192,24179,1,0,0:0:0:0:
192,192,24271,1,0,0:0:0:0:
448,192,24271,1,0,0:0:0:0:
64,192,24364,1,0,0:0:0:0:
448,192,24364,1,0,0:0:0:0:
320,192,24364,1,0,0:0:0:0:
448,192,24457,1,0,0:0:0:0:
320,192,24457,1,0,0:0:0:0:
448,192,24549,1,0,0:0:0:0:
64,192,24549,1,0,0:0:0:0:
192,192,24549,1,0,0:0:0:0:
320,192,24642,1,0,0:0:0:0:
192,192,24642,1,0,0:0:0:0:
64,192,24642,1,0,0:0:0:0:
64,192,24734,1,0,0:0:0:0:
320,192,24734,1,0,0:0:0:0:
448,192,24734,1,0,0:0:0:0:
448,192,24827,1,0,0:0:0:0:
192,192,24827,1,0,0:0:0:0:
64,192,24919,1,0,0:0:0:0:
192,192,24919,1,0,0:0:0:0:
320,192,24919,1,0,0:0:0:0:
448,192,25012,1,0,0:0:0:0:
64,192,25012,1,0,0:0:0:0:
320,192,25012,1,0,0:0:0:0:
192,192,25105,1,0,0:0:0:0:
64,192,25105,1,0,0:0:0:0:
448,192,25105,1,0,0:0:0:0:
320,192,25197,1,0,0:0:0:0:
192,192,25197,1,0,0:0:0:0:
320,192,25290,1,0,0:0:0:0:
448,192,25290,1,0,0:0:0:0:
192,192,25290,1,0,0:0:0:0:
320,192,25382,1,0,0:0:0:0:
448,192,25382,1,0,0:0:0:0:
64,192,25382,1,0,0:0:0:0:
192,192,25475,1,0,0:0:0:0:
64,192,25475,1,0,0:0:0:0:
448,192,25475,1,0,0:0:0:0:
192,192,25568,1,0,0:0:0:0:
64,192,25568,1,0,0:0:0:0:
320,192,25568,1,0,0:0:0:0:
64,192,25660,1,0,0:0:0:0:
192,192,25660,1,0,0:0:0:0:
320,192,25660,1,0,0:0:0:0:
448,192,25660,1,0,0:0:0:0:
320,192,25845,1,0,0:0:0:0:
448,192,25845,1,0,0:0:0:0:
64,192,25845,1,0,0:0:0:0:
192,192,25938,1,0,0:0:0:0:
448,192,25938,1,0,0:0:0:0:
320,192,26031,1,0,0:0:0:0:
448,192,26031,1,0,0:0:0:0:
64,192,26031,1,0,0:0:0:0:
320,192,26123,1,0,0:0:0:0:
192,192,26123,1,0,0:0:0:0:
448,192,26123,1,0,0:0:0:0:
320,192,26216,1,0,0:0:0:0:
192,192,26216,1,0,0:0:0:0:
64,192,26216,1,0,0:0:0:0:
320,192,26308,1,0,0:0:0:0:
192,192,26308,1,0,0:0:0:0:
448,192,26308,1,0,0:0:0:0:
64,192,26401,1,0,0:0:0:0:
192,192,26401,1,0,0:0:0:0:
448,192,26401,1,0,0:0:0:0:
320,192,26494,1,0,0:0:0:0:
448,192,26494,1,0,0:0:0:0:
192,192,26586,1,0,0:0:0:0:
64,192,26586,1,0,0:0:0:0:
320,192,26679,1,0,0:0:0:0:
448,192,26679,1,0,0:0:0:0:
192,192,26771,1,0,0:0:0:0:
448,192,26771,1,0,0:0:0:0:
64,192,26771,1,0,0:0:0:0:
320,192,26864,1,0,0:0:0:0:
64,192,26864,1,0,0:0:0:0:
192,192,26864,1,0,0:0:0:0:
192,192,26957,1,0,0:0:0:0:
64,192,26957,1,0,0:0:0:0:
448,192,26957,1,0,0:0:0:0:
448,192,27049,1,0,0:0:0:0:
320,192,27049,1,0,0:0:0:0:
320,192,27142,1,0,0:0:0:0:
448,192,27142,1,0,0:0:0:0:
192,192,27142,1,0,0:0:0:0:
320,192,27234,1,0,0:0:0:0:
64,192,27234,1,0,0:0:0:0:
64,192,27327,1,0,0:0:0:0:
192,192,27327,1,0,0:0:0:0:
448,192,27419,1,0,0:0:0:0:
320,192,27419,1,0,0:0:0:0:
192,192,27512,1,0,0:0:0:0:
320,192,27512,1,0,0:0:0:0:
64,192,27512,1,0,0:0:0:0:
448,192,27605,1,0,0:0:0:0:
64,192,27605,1,0,0:0:0:0:
192,192,27605,1,0,0:0:0:0:
192,192,27697,1,0,0:0:0:0:
320,192,27697,1,0,0:0:0:0:
448,192,27790,1,0,0:0:0:0:
64,192,27790,1,0,0:0:0:0:
320,192,27882,1,0,0:0:0:0:
448,192,27882,1,0,0:0:0:0:
192,192,27882,1,0,0:0:0:0:
64,192,27882,1,0,0:0:0:0:
192,192,28160,1,0,0:0:0:0:
64,192,28160,1,0,0:0:0:0:
320,192,28160,1,0,0:0:0:0:
448,192,28160,1,0,0:0:0:0:
192,192,28623,1,0,0:0:0:0:
64,192,28623,1,0,0:0:0:0:
320,192,28623,1,0,0:0:0:0:
448,192,28623,1,0,0:0:0:0:
320,192,28716,1,0,0:0:0:0:
192,192,28808,1,0,0:0:0:0:
64,192,28808,1,0,0:0:0:0:
448,192,28808,1,0,0:0:0:0:
448,192,28901,1,0,0:0:0:0:
320,192,28901,1,0,0:0:0:0:
320,192,28994,1,0,0:0:0:0:
192,192,28994,1,0,0:0:0:0:
64,192,28994,1,0,0:0:0:0:
192,192,29086,1,0,0:0:0:0:
64,192,29086,1,0,0:0:0:0:
320,192,29086,1,0,0:0:0:0:
192,192,29179,1,0,0:0:0:0:
64,192,29179,1,0,0:0:0:0:
448,192,29179,1,0,0:0:0:0:
64,192,29271,1,0,0:0:0:0:
192,192,29271,1,0,0:0:0:0:
448,192,29271,1,0,0:0:0:0:
320,192,29364,1,0,0:0:0:0:
448,192,29364,1,0,0:0:0:0:
64,192,29364,1,0,0:0:0:0:
448,192,29457,1,0,0:0:0:0:
192,192,29457,1,0,0:0:0:0:
320,192,29549,1,0,0:0:0:0:
64,192,29549,1,0,0:0:0:0:
448,192,29549,1,0,0:0:0:0:
192,192,29642,1,0,0:0:0:0:
320,192,29734,1,0,0:0:0:0:
448,192,29734,1,0,0:0:0:0:
64,192,29734,1,0,0:0:0:0:
320,192,29827,1,0,0:0:0:0:
448,192,29827,1,0,0:0:0:0:
192,192,29827,1,0,0:0:0:0:
320,192,29919,1,0,0:0:0:0:
448,192,29919,1,0,0:0:0:0:
192,192,29919,1,0,0:0:0:0:
320,192,30012,1,0,0:0:0:0:
64,192,30012,1,0,0:0:0:0:
448,192,30012,1,0,0:0:0:0:
192,192,30105,1,0,0:0:0:0:
64,192,30105,1,0,0:0:0:0:
448,192,30105,1,0,0:0:0:0:
320,192,30197,1,0,0:0:0:0:
64,192,30197,1,0,0:0:0:0:
448,192,30290,1,0,0:0:0:0:
192,192,30290,1,0,0:0:0:0:
320,192,30290,1,0,0:0:0:0:
192,192,30382,1,0,0:0:0:0:
64,192,30382,1,0,0:0:0:0:
64,192,30475,1,0,0:0:0:0:
320,192,30475,1,0,0:0:0:0:
448,192,30475,1,0,0:0:0:0:
192,192,30568,1,0,0:0:0:0:
320,192,30568,1,0,0:0:0:0:
448,192,30568,1,0,0:0:0:0:
320,192,30660,1,0,0:0:0:0:
192,192,30660,1,0,0:0:0:0:
64,192,30660,1,0,0:0:0:0:
448,192,30753,1,0,0:0:0:0:
64,192,30753,1,0,0:0:0:0:
192,192,30753,1,0,0:0:0:0:
320,192,30845,1,0,0:0:0:0:
448,192,30845,1,0,0:0:0:0:
64,192,30845,1,0,0:0:0:0:
192,192,30938,1,0,0:0:0:0:
320,192,30938,1,0,0:0:0:0:
448,192,30938,1,0,0:0:0:0:
320,192,31031,1,0,0:0:0:0:
192,192,31031,1,0,0:0:0:0:
64,192,31031,1,0,0:0:0:0:
64,192,31123,1,0,0:0:0:0:
320,192,31123,1,0,0:0:0:0:
448,192,31123,1,0,0:0:0:0:
448,192,31216,1,0,0:0:0:0:
192,192,31216,1,0,0:0:0:0:
64,192,31216,1,0,0:0:0:0:
320,192,31216,1,0,0:0:0:0:
320,192,31308,1,0,0:0:0:0:
448,192,31308,1,0,0:0:0:0:
192,192,31308,1,0,0:0:0:0:
320,192,31401,1,0,0:0:0:0:
192,192,31401,1,0,0:0:0:0:
64,192,31401,1,0,0:0:0:0:
448,192,31494,1,0,0:0:0:0:
320,192,31494,1,0,0:0:0:0:
64,192,31494,1,0,0:0:0:0:
192,192,31586,1,0,0:0:0:0:
448,192,31586,1,0,0:0:0:0:
64,192,31586,1,0,0:0:0:0:
320,192,31679,1,0,0:0:0:0:
192,192,31771,1,0,0:0:0:0:
64,192,31771,1,0,0:0:0:0:
448,192,31771,1,0,0:0:0:0:
320,192,31957,1,0,0:0:0:0:
448,192,31957,1,0,0:0:0:0:
64,192,31957,1,0,0:0:0:0:
192,192,32049,1,0,0:0:0:0:
320,192,32049,1,0,0:0:0:0:
448,192,32049,1,0,0:0:0:0:
320,192,32142,1,0,0:0:0:0:
192,192,32142,1,0,0:0:0:0:
64,192,32142,1,0,0:0:0:0:
448,192,32234,1,0,0:0:0:0:
320,192,32234,1,0,0:0:0:0:
64,192,32234,1,0,0:0:0:0:
448,192,32327,1,0,0:0:0:0:
192,192,32327,1,0,0:0:0:0:
64,192,32327,1,0,0:0:0:0:
320,192,32419,1,0,0:0:0:0:
448,192,32419,1,0,0:0:0:0:
320,192,32512,1,0,0:0:0:0:
64,192,32512,1,0,0:0:0:0:
192,192,32512,1,0,0:0:0:0:
448,192,32605,1,0,0:0:0:0:
64,192,32605,1,0,0:0:0:0:
320,192,32697,1,0,0:0:0:0:
448,192,32697,1,0,0:0:0:0:
192,192,32697,1,0,0:0:0:0:
320,192,32790,1,0,0:0:0:0:
192,192,32790,1,0,0:0:0:0:
64,192,32790,1,0,0:0:0:0:
64,192,32882,1,0,0:0:0:0:
448,192,32882,1,0,0:0:0:0:
320,192,32882,1,0,0:0:0:0:
192,192,32975,1,0,0:0:0:0:
448,192,32975,1,0,0:0:0:0:
320,192,33068,1,0,0:0:0:0:
448,192,33068,1,0,0:0:0:0:
64,192,33068,1,0,0:0:0:0:
320,192,33253,1,0,0:0:0:0:
192,192,33253,1,0,0:0:0:0:
64,192,33253,1,0,0:0:0:0:
448,192,33345,1,0,0:0:0:0:
320,192,33345,1,0,0:0:0:0:
448,192,33438,1,0,0:0:0:0:
192,192,33438,1,0,0:0:0:0:
64,192,33438,1,0,0:0:0:0:
192,192,33531,1,0,0:0:0:0:
320,192,33531,1,0,0:0:0:0:
64,192,33531,1,0,0:0:0:0:
448,192,33623,1,0,0:0:0:0:
320,192,33623,1,0,0:0:0:0:
64,192,33623,1,0,0:0:0:0:
192,192,33716,1,0,0:0:0:0:
320,192,33716,1,0,0:0:0:0:
448,192,33716,1,0,0:0:0:0:
192,192,33808,1,0,0:0:0:0:
64,192,33808,1,0,0:0:0:0:
448,192,33808,1,0,0:0:0:0:
320,192,33901,1,0,0:0:0:0:
64,192,33901,1,0,0:0:0:0:
192,192,33901,1,0,0:0:0:0:
448,192,33994,1,0,0:0:0:0:
320,192,33994,1,0,0:0:0:0:
64,192,33994,1,0,0:0:0:0:
448,192,34086,1,0,0:0:0:0:
320,192,34086,1,0,0:0:0:0:
192,192,34086,1,0,0:0:0:0:
192,192,34179,1,0,0:0:0:0:
64,192,34179,1,0,0:0:0:0:
320,192,34179,1,0,0:0:0:0:
448,192,34179,1,0,0:0:0:0:
192,192,34364,1,0,0:0:0:0:
64,192,34364,1,0,0:0:0:0:
192,192,34457,1,0,0:0:0:0:
64,192,34457,1,0,0:0:0:0:
320,192,34549,1,0,0:0:0:0:
448,192,34549,1,0,0:0:0:0:
192,192,34549,1,0,0:0:0:0:
64,192,34549,1,0,0:0:0:0:
320,192,34734,1,0,0:0:0:0:
448,192,34734,1,0,0:0:0:0:
192,192,34734,1,0,0:0:0:0:
64,192,34734,1,0,0:0:0:0:
192,192,34919,1,0,0:0:0:0:
64,192,34919,1,0,0:0:0:0:
448,192,34919,1,0,0:0:0:0:
320,192,35012,1,0,0:0:0:0:
448,192,35012,1,0,0:0:0:0:
64,192,35012,1,0,0:0:0:0:
320,192,35105,1,0,0:0:0:0:
192,192,35105,1,0,0:0:0:0:
64,192,35105,1,0,0:0:0:0:
320,192,35290,1,0,0:0:0:0:
448,192,35290,1,0,0:0:0:0:
64,192,35290,1,0,0:0:0:0:
192,192,35290,1,0,0:0:0:0:
192,192,35475,1,0,0:0:0:0:
64,192,35475,1,0,0:0:0:0:
448,192,35475,1,0,0:0:0:0:
320,192,35660,1,0,0:0:0:0:
448,192,35660,1,0,0:0:0:0:
192,192,35660,1,0,0:0:0:0:
64,192,35753,1,0,0:0:0:0:
320,192,35753,1,0,0:0:0:0:
192,192,35753,1,0,0:0:0:0:
320,192,35845,1,0,0:0:0:0:
448,192,35845,1,0,0:0:0:0:
64,192,35845,1,0,0:0:0:0:
192,192,36031,1,0,0:0:0:0:
64,192,36031,1,0,0:0:0:0:
320,192,36031,1,0,0:0:0:0:
448,192,36031,1,0,0:0:0:0:
320,192,36216,1,0,0:0:0:0:
448,192,36216,1,0,0:0:0:0:
192,192,36216,1,0,0:0:0:0:
192,192,36401,1,0,0:0:0:0:
64,192,36401,1,0,0:0:0:0:
320,192,36401,1,0,0:0:0:0:
448,192,36401,1,0,0:0:0:0:
320,192,36586,1,0,0:0:0:0:
192,192,36586,1,0,0:0:0:0:
64,192,36586,1,0,0:0:0:0:
448,192,36771,1,0,0:0:0:0:
320,192,36771,1,0,0:0:0:0:
64,192,36771,1,0,0:0:0:0:
192,192,36864,1,0,0:0:0:0:
448,192,36864,1,0,0:0:0:0:
320,192,36864,1,0,0:0:0:0:
320,192,36957,1,0,0:0:0:0:
64,192,36957,1,0,0:0:0:0:
192,192,36957,1,0,0:0:0:0:
320,192,37049,1,0,0:0:0:0:
448,192,37049,1,0,0:0:0:0:
64,192,37049,1,0,0:0:0:0:
448,192,37142,1,0,0:0:0:0:
64,192,37142,1,0,0:0:0:0:
192,192,37142,1,0,0:0:0:0:
320,192,37142,1,0,0:0:0:0:
192,192,37234,1,0,0:0:0:0:
64,192,37234,1,0,0:0:0:0:
448,192,37234,1,0,0:0:0:0:
320,192,37327,1,0,0:0:0:0:
448,192,37327,1,0,0:0:0:0:
192,192,37512,1,0,0:0:0:0:
64,192,37512,1,0,0:0:0:0:
320,192,37512,1,0,0:0:0:0:
448,192,37512,1,0,0:0:0:0:
192,192,37697,1,0,0:0:0:0:
64,192,37697,1,0,0:0:0:0:
448,192,37697,1,0,0:0:0:0:
320,192,37882,1,0,0:0:0:0:
448,192,37882,1,0,0:0:0:0:
192,192,37882,1,0,0:0:0:0:
64,192,37882,1,0,0:0:0:0:
64,192,37975,1,0,0:0:0:0:
192,192,37975,1,0,0:0:0:0:
320,192,37975,1,0,0:0:0:0:
448,192,38068,1,0,0:0:0:0:
192,192,38068,1,0,0:0:0:0:
64,192,38068,1,0,0:0:0:0:
320,192,38253,1,0,0:0:0:0:
448,192,38253,1,0,0:0:0:0:
64,192,38253,1,0,0:0:0:0:
192,192,38253,1,0,0:0:0:0:
192,192,38438,1,0,0:0:0:0:
448,192,38438,1,0,0:0:0:0:
320,192,38438,1,0,0:0:0:0:
320,192,38623,1,0,0:0:0:0:
192,192,38623,1,0,0:0:0:0:
64,192,38623,1,0,0:0:0:0:
448,192,38623,1,0,0:0:0:0:
192,192,38716,1,0,0:0:0:0:
320,192,38716,1,0,0:0:0:0:
448,192,38716,1,0,0:0:0:0:
448,192,38808,1,0,0:0:0:0:
192,192,38808,1,0,0:0:0:0:
64,192,38808,1,0,0:0:0:0:
320,192,38994,1,0,0:0:0:0:
448,192,38994,1,0,0:0:0:0:
192,192,38994,1,0,0:0:0:0:
64,192,38994,1,0,0:0:0:0:
192,192,39179,1,0,0:0:0:0:
64,192,39179,1,0,0:0:0:0:
320,192,39179,1,0,0:0:0:0:
448,192,39364,1,0,0:0:0:0:
320,192,39364,1,0,0:0:0:0:
192,192,39364,1,0,0:0:0:0:
64,192,39364,1,0,0:0:0:0:
320,192,39549,1,0,0:0:0:0:
448,192,39549,1,0,0:0:0:0:
192,192,39549,1,0,0:0:0:0:
320,192,39734,1,0,0:0:0:0:
448,192,39734,1,0,0:0:0:0:
192,192,39734,1,0,0:0:0:0:
64,192,39734,1,0,0:0:0:0:
192,192,39919,1,0,0:0:0:0:
64,192,39919,1,0,0:0:0:0:
448,192,39919,1,0,0:0:0:0:
320,192,40105,1,0,0:0:0:0:
448,192,40105,1,0,0:0:0:0:
64,192,40105,1,0,0:0:0:0:
192,192,40105,1,0,0:0:0:0:
192,192,40197,1,0,0:0:0:0:
64,192,40197,1,0,0:0:0:0:
448,192,40197,1,0,0:0:0:0:
320,192,40290,1,0,0:0:0:0:
448,192,40290,1,0,0:0:0:0:
192,192,40290,1,0,0:0:0:0:
320,192,40475,1,0,0:0:0:0:
448,192,40475,1,0,0:0:0:0:
192,192,40475,1,0,0:0:0:0:
64,192,40475,1,0,0:0:0:0:
320,192,40660,1,0,0:0:0:0:
192,192,40660,1,0,0:0:0:0:
64,192,40660,1,0,0:0:0:0:
192,192,40845,1,0,0:0:0:0:
320,192,40845,1,0,0:0:0:0:
448,192,40845,1,0,0:0:0:0:
64,192,40845,1,0,0:0:0:0:
448,192,40938,1,0,0:0:0:0:
192,192,40938,1,0,0:0:0:0:
64,192,40938,1,0,0:0:0:0:
192,192,41031,1,0,0:0:0:0:
64,192,41031,1,0,0:0:0:0:
320,192,41031,1,0,0:0:0:0:
448,192,41216,1,0,0:0:0:0:
320,192,41216,1,0,0:0:0:0:
64,192,41216,1,0,0:0:0:0:
192,192,41216,1,0,0:0:0:0:
320,192,41401,1,0,0:0:0:0:
448,192,41401,1,0,0:0:0:0:
64,192,41401,1,0,0:0:0:0:
192,192,41586,1,0,0:0:0:0:
64,192,41586,1,0,0:0:0:0:
448,192,41586,1,0,0:0:0:0:
320,192,41586,1,0,0:0:0:0:
320,192,41679,1,0,0:0:0:0:
448,192,41679,1,0,0:0:0:0:
192,192,41679,1,0,0:0:0:0:
64,192,41771,1,0,0:0:0:0:
320,192,41771,1,0,0:0:0:0:
448,192,41771,1,0,0:0:0:0:
320,192,41957,1,0,0:0:0:0:
448,192,41957,1,0,0:0:0:0:
192,192,41957,1,0,0:0:0:0:
64,192,41957,1,0,0:0:0:0:
320,192,42142,1,0,0:0:0:0:
192,192,42142,1,0,0:0:0:0:
64,192,42142,1,0,0:0:0:0:
320,192,42327,1,0,0:0:0:0:
448,192,42327,1,0,0:0:0:0:
192,192,42327,1,0,0:0:0:0:
64,192,42327,1,0,0:0:0:0:
320,192,42512,1,0,0:0:0:0:
448,192,42512,1,0,0:0:0:0:
192,192,42512,1,0,0:0:0:0:
192,192,42697,1,0,0:0:0:0:
64,192,42697,1,0,0:0:0:0:
448,192,42697,1,0,0:0:0:0:
320,192,42882,1,0,0:0:0:0:
448,192,42882,1,0,0:0:0:0:
192,192,42882,1,0,0:0:0:0:
320,192,43068,1,0,0:0:0:0:
64,192,43068,1,0,0:0:0:0:
192,192,43068,1,0,0:0:0:0:
448,192,43068,1,0,0:0:0:0:
448,192,43160,1,0,0:0:0:0:
320,192,43160,1,0,0:0:0:0:
64,192,43160,1,0,0:0:0:0:
192,192,43253,1,0,0:0:0:0:
64,192,43253,1,0,0:0:0:0:
448,192,43253,1,0,0:0:0:0:
320,192,43438,1,0,0:0:0:0:
448,192,43438,1,0,0:0:0:0:
192,192,43438,1,0,0:0:0:0:
64,192,43438,1,0,0:0:0:0:
192,192,43531,1,0,0:0:0:0:
64,192,43531,1,0,0:0:0:0:
320,192,43531,1,0,0:0:0:0:
448,192,43623,1,0,0:0:0:0:
320,192,43623,1,0,0:0:0:0:
192,192,43623,1,0,0:0:0:0:
64,192,43808,1,0,0:0:0:0:
192,192,43808,1,0,0:0:0:0:
448,192,43808,1,0,0:0:0:0:
320,192,43808,1,0,0:0:0:0:
320,192,43901,1,0,0:0:0:0:
448,192,43901,1,0,0:0:0:0:
64,192,43901,1,0,0:0:0:0:
320,192,43994,1,0,0:0:0:0:
192,192,43994,1,0,0:0:0:0:
64,192,43994,1,0,0:0:0:0:
448,192,44179,1,0,0:0:0:0:
320,192,44179,1,0,0:0:0:0:
192,192,44179,1,0,0:0:0:0:
64,192,44179,1,0,0:0:0:0:
64,192,44271,1,0,0:0:0:0:
192,192,44271,1,0,0:0:0:0:
448,192,44271,1,0,0:0:0:0:
320,192,44364,1,0,0:0:0:0:
448,192,44364,1,0,0:0:0:0:
192,192,44364,1,0,0:0:0:0:
320,192,44549,1,0,0:0:0:0:
192,192,44549,1,0,0:0:0:0:
64,192,44549,1,0,0:0:0:0:
448,192,44549,1,0,0:0:0:0:
64,192,44642,1,0,0:0:0:0:
320,192,44642,1,0,0:0:0:0:
448,192,44642,1,0,0:0:0:0:
320,192,44734,1,0,0:0:0:0:
448,192,44734,1,0,0:0:0:0:
192,192,44734,1,0,0:0:0:0:
64,192,44919,1,0,0:0:0:0:
192,192,44919,1,0,0:0:0:0:
320,192,44919,1,0,0:0:0:0:
448,192,44919,1,0,0:0:0:0:
448,192,45012,1,0,0:0:0:0:
320,192,45012,1,0,0:0:0:0:
64,192,45012,1,0,0:0:0:0:
320,192,45105,1,0,0:0:0:0:
192,192,45105,1,0,0:0:0:0:
64,192,45105,1,0,0:0:0:0:
192,192,45197,1,0,0:0:0:0:
448,192,45197,1,0,0:0:0:0:
320,192,45290,1,0,0:0:0:0:
448,192,45290,1,0,0:0:0:0:
64,192,45290,1,0,0:0:0:0:
192,192,45382,1,0,0:0:0:0:
64,192,45382,1,0,0:0:0:0:
320,192,45475,1,0,0:0:0:0:
448,192,45475,1,0,0:0:0:0:
192,192,45475,1,0,0:0:0:0:
64,192,45568,1,0,0:0:0:0:
320,192,45660,1,0,0:0:0:0:
192,192,45660,1,0,0:0:0:0:
64,192,45660,1,0,0:0:0:0:
448,192,45660,1,0,0:0:0:0:
192,192,45753,1,0,0:0:0:0:
320,192,45753,1,0,0:0:0:0:
448,192,45753,1,0,0:0:0:0:
64,192,45753,1,0,0:0:0:0:
320,192,45845,1,0,0:0:0:0:
448,192,45845,1,0,0:0:0:0:
64,192,45845,1,0,0:0:0:0:
192,192,45845,1,0,0:0:0:0:
192,192,45938,1,0,0:0:0:0:
64,192,45938,1,0,0:0:0:0:
320,192,45938,1,0,0:0:0:0:
448,192,45938,1,0,0:0:0:0:
448,192,46031,1,0,0:0:0:0:
320,192,46031,1,0,0:0:0:0:
192,192,46031,1,0,0:0:0:0:
64,192,46031,1,0,0:0:0:0:
64,192,46771,1,0,0:0:0:0:
192,192,46771,1,0,0:0:0:0:
448,192,46771,1,0,0:0:0:0:
320,192,46771,1,0,0:0:0:0:
320,192,46957,1,0,0:0:0:0:
448,192,46957,1,0,0:0:0:0:
64,192,46957,1,0,0:0:0:0:
64,192,47049,1,0,0:0:0:0:
320,192,47049,1,0,0:0:0:0:
192,192,47049,1,0,0:0:0:0:
192,192,47142,1,0,0:0:0:0:
64,192,47142,1,0,0:0:0:0:
448,192,47142,1,0,0:0:0:0:
320,192,47327,1,0,0:0:0:0:
448,192,47327,1,0,0:0:0:0:
192,192,47327,1,0,0:0:0:0:
320,192,47512,1,0,0:0:0:0:
192,192,47512,1,0,0:0:0:0:
64,192,47512,1,0,0:0:0:0:
64,192,47605,1,0,0:0:0:0:
192,192,47605,1,0,0:0:0:0:
320,192,47605,1,0,0:0:0:0:
64,192,47697,1,0,0:0:0:0:
320,192,47697,1,0,0:0:0:0:
448,192,47697,1,0,0:0:0:0:
192,192,47790,1,0,0:0:0:0:
448,192,47790,1,0,0:0:0:0:
64,192,47790,1,0,0:0:0:0:
320,192,47882,1,0,0:0:0:0:
448,192,47882,1,0,0:0:0:0:
192,192,47882,1,0,0:0:0:0:
320,192,48068,1,0,0:0:0:0:
192,192,48068,1,0,0:0:0:0:
64,192,48068,1,0,0:0:0:0:
448,192,48160,1,0,0:0:0:0:
320,192,48160,1,0,0:0:0:0:
64,192,48160,1,0,0:0:0:0:
448,192,48253,1,0,0:0:0:0:
192,192,48253,1,0,0:0:0:0:
64,192,48253,1,0,0:0:0:0:
320,192,48438,1,0,0:0:0:0:
448,192,48438,1,0,0:0:0:0:
192,192,48438,1,0,0:0:0:0:
192,192,48531,1,0,0:0:0:0:
448,192,48531,1,0,0:0:0:0:
64,192,48531,1,0,0:0:0:0:
64,192,48623,1,0,0:0:0:0:
320,192,48623,1,0,0:0:0:0:
448,192,48623,1,0,0:0:0:0:
192,192,48808,1,0,0:0:0:0:
64,192,48808,1,0,0:0:0:0:
320,192,48808,1,0,0:0:0:0:
192,192,48901,1,0,0:0:0:0:
448,192,48901,1,0,0:0:0:0:
320,192,48901,1,0,0:0:0:0:
320,192,48994,1,0,0:0:0:0:
448,192,48994,1,0,0:0:0:0:
192,192,48994,1,0,0:0:0:0:
64,192,48994,1,0,0:0:0:0:
64,192,49549,1,0,0:0:0:0:
192,192,49549,1,0,0:0:0:0:
448,192,49549,1,0,0:0:0:0:
320,192,49549,1,0,0:0:0:0:
320,192,49734,1,0,0:0:0:0:
192,192,49734,1,0,0:0:0:0:
64,192,49734,1,0,0:0:0:0:
448,192,49919,1,0,0:0:0:0:
320,192,49919,1,0,0:0:0:0:
64,192,49919,1,0,0:0:0:0:
192,192,50012,1,0,0:0:0:0:
448,192,50012,1,0,0:0:0:0:
320,192,50012,1,0,0:0:0:0:
320,192,50105,1,0,0:0:0:0:
192,192,50105,1,0,0:0:0:0:
64,192,50105,1,0,0:0:0:0:
192,192,50290,1,0,0:0:0:0:
64,192,50290,1,0,0:0:0:0:
448,192,50290,1,0,0:0:0:0:
320,192,50475,1,0,0:0:0:0:
448,192,50475,1,0,0:0:0:0:
192,192,50475,1,0,0:0:0:0:
320,192,50568,1,0,0:0:0:0:
192,192,50568,1,0,0:0:0:0:
64,192,50568,1,0,0:0:0:0:
64,192,50660,1,0,0:0:0:0:
320,192,50660,1,0,0:0:0:0:
448,192,50660,1,0,0:0:0:0:
448,192,50753,1,0,0:0:0:0:
192,192,50753,1,0,0:0:0:0:
64,192,50753,1,0,0:0:0:0:
320,192,50845,1,0,0:0:0:0:
192,192,50845,1,0,0:0:0:0:
64,192,50845,1,0,0:0:0:0:
448,192,51031,1,0,0:0:0:0:
320,192,51031,1,0,0:0:0:0:
64,192,51031,1,0,0:0:0:0:
192,192,51123,1,0,0:0:0:0:
64,192,51123,1,0,0:0:0:0:
448,192,51123,1,0,0:0:0:0:
320,192,51216,1,0,0:0:0:0:
192,192,51216,1,0,0:0:0:0:
64,192,51216,1,0,0:0:0:0:
448,192,51401,1,0,0:0:0:0:
320,192,51401,1,0,0:0:0:0:
192,192,51401,1,0,0:0:0:0:
448,192,51494,1,0,0:0:0:0:
64,192,51494,1,0,0:0:0:0:
192,192,51494,1,0,0:0:0:0:
320,192,51586,1,0,0:0:0:0:
192,192,51586,1,0,0:0:0:0:
64,192,51586,1,0,0:0:0:0:
320,192,51771,1,0,0:0:0:0:
448,192,51771,1,0,0:0:0:0:
192,192,51771,1,0,0:0:0:0:
64,192,51864,1,0,0:0:0:0:
320,192,51864,1,0,0:0:0:0:
192,192,51864,1,0,0:0:0:0:
192,192,51957,1,0,0:0:0:0:
64,192,51957,1,0,0:0:0:0:
448,192,51957,1,0,0:0:0:0:
320,192,52142,1,0,0:0:0:0:
448,192,52142,1,0,0:0:0:0:
192,192,52142,1,0,0:0:0:0:
320,192,52327,1,0,0:0:0:0:
448,192,52327,1,0,0:0:0:0:
64,192,52327,1,0,0:0:0:0:
64,192,52419,1,0,0:0:0:0:
320,192,52419,1,0,0:0:0:0:
448,192,52419,1,0,0:0:0:0:
320,192,52512,1,0,0:0:0:0:
448,192,52512,1,0,0:0:0:0:
64,192,52512,1,0,0:0:0:0:
192,192,52697,1,0,0:0:0:0:
64,192,52697,1,0,0:0:0:0:
448,192,52697,1,0,0:0:0:0:
448,192,52882,1,0,0:0:0:0:
320,192,52882,1,0,0:0:0:0:
64,192,52882,1,0,0:0:0:0:
64,192,52975,1,0,0:0:0:0:
192,192,52975,1,0,0:0:0:0:
320,192,52975,1,0,0:0:0:0:
448,192,53068,1,0,0:0:0:0:
320,192,53068,1,0,0:0:0:0:
192,192,53068,1,0,0:0:0:0:
64,192,53253,1,0,0:0:0:0:
192,192,53253,1,0,0:0:0:0:
448,192,53253,1,0,0:0:0:0:
320,192,53438,1,0,0:0:0:0:
448,192,53438,1,0,0:0:0:0:
192,192,53438,1,0,0:0:0:0:
320,192,53531,1,0,0:0:0:0:
448,192,53531,1,0,0:0:0:0:
64,192,53531,1,0,0:0:0:0:
192,192,53623,1,0,0:0:0:0:
64,192,53623,1,0,0:0:0:0:
448,192,53623,1,0,0:0:0:0:
320,192,53716,1,0,0:0:0:0:
192,192,53716,1,0,0:0:0:0:
448,192,53716,1,0,0:0:0:0:
448,192,53808,1,0,0:0:0:0:
320,192,53808,1,0,0:0:0:0:
64,192,53808,1,0,0:0:0:0:
192,192,53994,1,0,0:0:0:0:
64,192,53994,1,0,0:0:0:0:
448,192,53994,1,0,0:0:0:0:
320,192,54086,1,0,0:0:0:0:
448,192,54086,1,0,0:0:0:0:
192,192,54086,1,0,0:0:0:0:
320,192,54179,1,0,0:0:0:0:
192,192,54179,1,0,0:0:0:0:
64,192,54179,1,0,0:0:0:0:
192,192,54364,1,0,0:0:0:0:
448,192,54364,1,0,0:0:0:0:
320,192,54364,1,0,0:0:0:0:
320,192,54457,1,0,0:0:0:0:
64,192,54457,1,0,0:0:0:0:
192,192,54457,1,0,0:0:0:0:
64,192,54549,1,0,0:0:0:0:
320,192,54549,1,0,0:0:0:0:
448,192,54549,1,0,0:0:0:0:
448,192,54734,1,0,0:0:0:0:
192,192,54734,1,0,0:0:0:0:
64,192,54734,1,0,0:0:0:0:
192,192,54827,1,0,0:0:0:0:
320,192,54827,1,0,0:0:0:0:
448,192,54827,1,0,0:0:0:0:
320,192,54919,1,0,0:0:0:0:
64,192,54919,1,0,0:0:0:0:
192,192,54919,1,0,0:0:0:0:
448,192,54919,1,0,0:0:0:0:
448,192,55475,1,0,0:0:0:0:
320,192,55475,1,0,0:0:0:0:
192,192,55475,1,0,0:0:0:0:
64,192,55475,1,0,0:0:0:0:
448,192,55660,1,0,0:0:0:0:
192,192,55660,1,0,0:0:0:0:
64,192,55660,1,0,0:0:0:0:
320,192,55845,1,0,0:0:0:0:
448,192,55845,1,0,0:0:0:0:
192,192,55845,1,0,0:0:0:0:
320,192,55938,1,0,0:0:0:0:
448,192,55938,1,0,0:0:0:0:
64,192,55938,1,0,0:0:0:0:
192,192,56031,1,0,0:0:0:0:
64,192,56031,1,0,0:0:0:0:
448,192,56031,1,0,0:0:0:0:
320,192,56216,1,0,0:0:0:0:
448,192,56216,1,0,0:0:0:0:
192,192,56216,1,0,0:0:0:0:
320,192,56401,1,0,0:0:0:0:
192,192,56401,1,0,0:0:0:0:
64,192,56401,1,0,0:0:0:0:
448,192,56494,1,0,0:0:0:0:
320,192,56494,1,0,0:0:0:0:
64,192,56494,1,0,0:0:0:0:
192,192,56586,1,0,0:0:0:0:
64,192,56586,1,0,0:0:0:0:
448,192,56586,1,0,0:0:0:0:
320,192,56679,1,0,0:0:0:0:
448,192,56679,1,0,0:0:0:0:
192,192,56679,1,0,0:0:0:0:
320,192,56771,1,0,0:0:0:0:
192,192,56771,1,0,0:0:0:0:
64,192,56771,1,0,0:0:0:0:
192,192,56957,1,0,0:0:0:0:
448,192,56957,1,0,0:0:0:0:
320,192,56957,1,0,0:0:0:0:
448,192,57049,1,0,0:0:0:0:
192,192,57049,1,0,0:0:0:0:
64,192,57049,1,0,0:0:0:0:
320,192,57142,1,0,0:0:0:0:
64,192,57142,1,0,0:0:0:0:
448,192,57142,1,0,0:0:0:0:
64,192,57327,1,0,0:0:0:0:
192,192,57327,1,0,0:0:0:0:
320,192,57327,1,0,0:0:0:0:
192,192,57419,1,0,0:0:0:0:
320,192,57419,1,0,0:0:0:0:
448,192,57419,1,0,0:0:0:0:
448,192,57512,1,0,0:0:0:0:
64,192,57512,1,0,0:0:0:0:
192,192,57512,1,0,0:0:0:0:
320,192,57697,1,0,0:0:0:0:
448,192,57697,1,0,0:0:0:0:
64,192,57697,1,0,0:0:0:0:
320,192,57790,1,0,0:0:0:0:
192,192,57790,1,0,0:0:0:0:
64,192,57790,1,0,0:0:0:0:
448,192,57882,1,0,0:0:0:0:
192,192,57882,1,0,0:0:0:0:
64,192,57882,1,0,0:0:0:0:
320,192,58068,1,0,0:0:0:0:
448,192,58068,1,0,0:0:0:0:
192,192,58068,1,0,0:0:0:0:
448,192,58253,1,0,0:0:0:0:
64,192,58253,1,0,0:0:0:0:
192,192,58253,1,0,0:0:0:0:
320,192,58253,1,0,0:0:0:0:
192,192,58345,1,0,0:0:0:0:
64,192,58345,1,0,0:0:0:0:
320,192,58345,1,0,0:0:0:0:
448,192,58345,1,0,0:0:0:0:
192,192,58438,1,0,0:0:0:0:
64,192,58438,1,0,0:0:0:0:
448,192,58438,1,0,0:0:0:0:
320,192,58438,1,0,0:0:0:0:
64,192,58531,1,0,0:0:0:0:
448,192,58531,1,0,0:0:0:0:
320,192,58531,1,0,0:0:0:0:
192,192,58531,1,0,0:0:0:0:
64,192,58623,1,0,0:0:0:0:
192,192,58623,1,0,0:0:0:0:
320,192,58623,1,0,0:0:0:0:
448,192,58623,1,0,0:0:0:0:
192,192,58716,1,0,0:0:0:0:
64,192,58716,1,0,0:0:0:0:
320,192,58716,1,0,0:0:0:0:
320,192,58808,1,0,0:0:0:0:
448,192,58808,1,0,0:0:0:0:
192,192,58808,1,0,0:0:0:0:
320,192,58901,1,0,0:0:0:0:
448,192,58901,1,0,0:0:0:0:
64,192,58901,1,0,0:0:0:0:
192,192,58994,1,0,0:0:0:0:
64,192,58994,1,0,0:0:0:0:
448,192,58994,1,0,0:0:0:0:
320,192,59086,1,0,0:0:0:0:
192,192,59086,1,0,0:0:0:0:
64,192,59086,1,0,0:0:0:0:
448,192,59179,1,0,0:0:0:0:
320,192,59179,1,0,0:0:0:0:
64,192,59179,1,0,0:0:0:0:
448,192,59271,1,0,0:0:0:0:
192,192,59271,1,0,0:0:0:0:
64,192,59271,1,0,0:0:0:0:
320,192,59364,1,0,0:0:0:0:
448,192,59364,1,0,0:0:0:0:
192,192,59364,1,0,0:0:0:0:
320,192,59457,1,0,0:0:0:0:
64,192,59457,1,0,0:0:0:0:
192,192,59457,1,0,0:0:0:0:
320,192,59549,1,0,0:0:0:0:
448,192,59549,1,0,0:0:0:0:
64,192,59549,1,0,0:0:0:0:
64,192,59642,1,0,0:0:0:0:
320,192,59642,1,0,0:0:0:0:
448,192,59642,1,0,0:0:0:0:
448,192,59734,1,0,0:0:0:0:
320,192,59734,1,0,0:0:0:0:
192,192,59734,1,0,0:0:0:0:
64,192,59734,1,0,0:0:0:0:
64,192,59827,1,0,0:0:0:0:
320,192,59827,1,0,0:0:0:0:
192,192,59827,1,0,0:0:0:0:
448,192,59919,1,0,0:0:0:0:
192,192,59919,1,0,0:0:0:0:
64,192,59919,1,0,0:0:0:0:
320,192,60012,1,0,0:0:0:0:
448,192,60012,1,0,0:0:0:0:
192,192,60012,1,0,0:0:0:0:
320,192,60105,1,0,0:0:0:0:
192,192,60105,1,0,0:0:0:0:
64,192,60105,1,0,0:0:0:0:
448,192,60105,1,0,0:0:0:0:
448,192,60197,1,0,0:0:0:0:
320,192,60197,1,0,0:0:0:0:
64,192,60197,1,0,0:0:0:0:
192,192,60290,1,0,0:0:0:0:
64,192,60290,1,0,0:0:0:0:
448,192,60290,1,0,0:0:0:0:
320,192,60382,1,0,0:0:0:0:
448,192,60382,1,0,0:0:0:0:
192,192,60382,1,0,0:0:0:0:
320,192,60475,1,0,0:0:0:0:
192,192,60475,1,0,0:0:0:0:
64,192,60475,1,0,0:0:0:0:
448,192,60475,1,0,0:0:0:0:
448,192,60568,1,0,0:0:0:0:
64,192,60568,1,0,0:0:0:0:
320,192,60568,1,0,0:0:0:0:
192,192,60660,1,0,0:0:0:0:
64,192,60660,1,0,0:0:0:0:
448,192,60660,1,0,0:0:0:0:
320,192,60753,1,0,0:0:0:0:
448,192,60753,1,0,0:0:0:0:
192,192,60753,1,0,0:0:0:0:
320,192,60845,1,0,0:0:0:0:
192,192,60845,1,0,0:0:0:0:
64,192,60845,1,0,0:0:0:0:
448,192,60845,1,0,0:0:0:0:
320,192,60938,1,0,0:0:0:0:
64,192,60938,1,0,0:0:0:0:
192,192,60938,1,0,0:0:0:0:
192,192,61031,1,0,0:0:0:0:
64,192,61031,1,0,0:0:0:0:
448,192,61031,1,0,0:0:0:0:
320,192,61123,1,0,0:0:0:0:
448,192,61123,1,0,0:0:0:0:
192,192,61123,1,0,0:0:0:0:
320,192,61216,1,0,0:0:0:0:
448,192,61216,1,0,0:0:0:0:
192,192,61216,1,0,0:0:0:0:
64,192,61216,1,0,0:0:0:0:
320,192,61308,1,0,0:0:0:0:
64,192,61308,1,0,0:0:0:0:
192,192,61308,1,0,0:0:0:0:
320,192,61401,1,0,0:0:0:0:
448,192,61401,1,0,0:0:0:0:
64,192,61401,1,0,0:0:0:0:
192,192,61401,1,0,0:0:0:0:
192,192,61586,1,0,0:0:0:0:
64,192,61586,1,0,0:0:0:0:
320,192,61586,1,0,0:0:0:0:
448,192,61586,1,0,0:0:0:0:
320,192,61771,1,0,0:0:0:0:
448,192,61771,1,0,0:0:0:0:
64,192,61771,1,0,0:0:0:0:
192,192,61864,1,0,0:0:0:0:
64,192,61864,1,0,0:0:0:0:
448,192,61864,1,0,0:0:0:0:
320,192,61957,1,0,0:0:0:0:
448,192,61957,1,0,0:0:0:0:
192,192,61957,1,0,0:0:0:0:
320,192,62142,1,0,0:0:0:0:
192,192,62142,1,0,0:0:0:0:
64,192,62142,1,0,0:0:0:0:
448,192,62234,1,0,0:0:0:0:
320,192,62234,1,0,0:0:0:0:
64,192,62234,1,0,0:0:0:0:
192,192,62327,1,0,0:0:0:0:
64,192,62327,1,0,0:0:0:0:
448,192,62327,1,0,0:0:0:0:
320,192,62419,1,0,0:0:0:0:
192,192,62419,1,0,0:0:0:0:
448,192,62419,1,0,0:0:0:0:
448,192,62512,1,0,0:0:0:0:
320,192,62512,1,0,0:0:0:0:
64,192,62512,1,0,0:0:0:0:
64,192,62605,1,0,0:0:0:0:
320,192,62605,1,0,0:0:0:0:
448,192,62605,1,0,0:0:0:0:
448,192,62697,1,0,0:0:0:0:
320,192,62697,1,0,0:0:0:0:
192,192,62697,1,0,0:0:0:0:
192,192,62790,1,0,0:0:0:0:
64,192,62790,1,0,0:0:0:0:
64,192,62882,1,0,0:0:0:0:
320,192,62882,1,0,0:0:0:0:
448,192,62882,1,0,0:0:0:0:
320,192,62975,1,0,0:0:0:0:
192,192,62975,1,0,0:0:0:0:
448,192,62975,1,0,0:0:0:0:
448,192,63068,1,0,0:0:0:0:
192,192,63068,1,0,0:0:0:0:
64,192,63068,1,0,0:0:0:0:
320,192,63160,1,0,0:0:0:0:
448,192,63160,1,0,0:0:0:0:
64,192,63160,1,0,0:0:0:0:
320,192,63253,1,0,0:0:0:0:
64,192,63253,1,0,0:0:0:0:
192,192,63253,1,0,0:0:0:0:
192,192,63345,1,0,0:0:0:0:
64,192,63345,1,0,0:0:0:0:
320,192,63438,1,0,0:0:0:0:
448,192,63438,1,0,0:0:0:0:
192,192,63438,1,0,0:0:0:0:
320,192,63531,1,0,0:0:0:0:
448,192,63531,1,0,0:0:0:0:
64,192,63531,1,0,0:0:0:0:
64,192,63623,1,0,0:0:0:0:
192,192,63623,1,0,0:0:0:0:
320,192,63623,1,0,0:0:0:0:
448,192,63716,1,0,0:0:0:0:
320,192,63716,1,0,0:0:0:0:
192,192,63716,1,0,0:0:0:0:
448,192,63808,1,0,0:0:0:0:
192,192,63808,1,0,0:0:0:0:
64,192,63808,1,0,0:0:0:0:
320,192,63808,1,0,0:0:0:0:
320,192,64086,1,0,0:0:0:0:
448,192,64086,1,0,0:0:0:0:
192,192,64086,1,0,0:0:0:0:
64,192,64086,1,0,0:0:0:0:
64,192,64364,1,0,0:0:0:0:
192,192,64364,1,0,0:0:0:0:
320,192,64364,1,0,0:0:0:0:
448,192,64364,1,0,0:0:0:0:
64,192,64549,1,0,0:0:0:0:
192,192,64549,1,0,0:0:0:0:
448,192,64549,1,0,0:0:0:0:
320,192,64734,1,0,0:0:0:0:
448,192,64734,1,0,0:0:0:0:
64,192,64734,1,0,0:0:0:0:
192,192,64827,1,0,0:0:0:0:
64,192,64827,1,0,0:0:0:0:
320,192,64827,1,0,0:0:0:0:
448,192,64919,1,0,0:0:0:0:
192,192,64919,1,0,0:0:0:0:
64,192,64919,1,0,0:0:0:0:
320,192,65105,1,0,0:0:0:0:
448,192,65105,1,0,0:0:0:0:
192,192,65105,1,0,0:0:0:0:
192,192,65197,1,0,0:0:0:0:
320,192,65197,1,0,0:0:0:0:
448,192,65290,1,0,0:0:0:0:
192,192,65290,1,0,0:0:0:0:
64,192,65290,1,0,0:0:0:0:
320,192,65382,1,0,0:0:0:0:
448,192,65382,1,0,0:0:0:0:
64,192,65382,1,0,0:0:0:0:
320,192,65475,1,0,0:0:0:0:
192,192,65475,1,0,0:0:0:0:
64,192,65475,1,0,0:0:0:0:
448,192,65568,1,0,0:0:0:0:
192,192,65568,1,0,0:0:0:0:
320,192,65568,1,0,0:0:0:0:
448,192,65660,1,0,0:0:0:0:
192,192,65660,1,0,0:0:0:0:
64,192,65660,1,0,0:0:0:0:
320,192,65753,1,0,0:0:0:0:
64,192,65753,1,0,0:0:0:0:
448,192,65753,1,0,0:0:0:0:
192,192,65845,1,0,0:0:0:0:
448,192,65845,1,0,0:0:0:0:
320,192,65845,1,0,0:0:0:0:
320,192,65938,1,0,0:0:0:0:
448,192,65938,1,0,0:0:0:0:
64,192,65938,1,0,0:0:0:0:
64,192,66031,1,0,0:0:0:0:
192,192,66031,1,0,0:0:0:0:
320,192,66031,1,0,0:0:0:0:
448,192,66216,1,0,0:0:0:0:
320,192,66216,1,0,0:0:0:0:
64,192,66216,1,0,0:0:0:0:
192,192,66308,1,0,0:0:0:0:
64,192,66308,1,0,0:0:0:0:
448,192,66308,1,0,0:0:0:0:
320,192,66401,1,0,0:0:0:0:
448,192,66401,1,0,0:0:0:0:
192,192,66401,1,0,0:0:0:0:
320,192,66494,1,0,0:0:0:0:
64,192,66494,1,0,0:0:0:0:
192,192,66494,1,0,0:0:0:0:
320,192,66586,1,0,0:0:0:0:
192,192,66586,1,0,0:0:0:0:
64,192,66586,1,0,0:0:0:0:
448,192,66679,1,0,0:0:0:0:
320,192,66679,1,0,0:0:0:0:
448,192,66771,1,0,0:0:0:0:
192,192,66771,1,0,0:0:0:0:
64,192,66771,1,0,0:0:0:0:
320,192,66957,1,0,0:0:0:0:
192,192,66957,1,0,0:0:0:0:
64,192,66957,1,0,0:0:0:0:
64,192,67049,1,0,0:0:0:0:
448,192,67049,1,0,0:0:0:0:
192,192,67142,1,0,0:0:0:0:
320,192,67142,1,0,0:0:0:0:
448,192,67142,1,0,0:0:0:0:
192,192,67234,1,0,0:0:0:0:
320,192,67234,1,0,0:0:0:0:
64,192,67234,1,0,0:0:0:0:
64,192,67327,1,0,0:0:0:0:
192,192,67327,1,0,0:0:0:0:
448,192,67327,1,0,0:0:0:0:
320,192,67419,1,0,0:0:0:0:
448,192,67419,1,0,0:0:0:0:
192,192,67419,1,0,0:0:0:0:
320,192,67512,1,0,0:0:0:0:
64,192,67512,1,0,0:0:0:0:
192,192,67512,1,0,0:0:0:0:
448,192,67605,1,0,0:0:0:0:
192,192,67605,1,0,0:0:0:0:
320,192,67605,1,0,0:0:0:0:
64,192,67697,1,0,0:0:0:0:
320,192,67697,1,0,0:0:0:0:
448,192,67697,1,0,0:0:0:0:
64,192,67790,1,0,0:0:0:0:
192,192,67790,1,0,0:0:0:0:
320,192,67790,1,0,0:0:0:0:
448,192,67882,1,0,0:0:0:0:
192,192,67882,1,0,0:0:0:0:
64,192,67882,1,0,0:0:0:0:
320,192,67975,1,0,0:0:0:0:
448,192,67975,1,0,0:0:0:0:
192,192,67975,1,0,0:0:0:0:
320,192,68068,1,0,0:0:0:0:
448,192,68068,1,0,0:0:0:0:
64,192,68068,1,0,0:0:0:0:
320,192,68160,1,0,0:0:0:0:
192,192,68160,1,0,0:0:0:0:
64,192,68160,1,0,0:0:0:0:
192,192,68253,1,0,0:0:0:0:
320,192,68253,1,0,0:0:0:0:
448,192,68253,1,0,0:0:0:0:
320,192,68345,1,0,0:0:0:0:
448,192,68345,1,0,0:0:0:0:
64,192,68345,1,0,0:0:0:0:
320,192,68438,1,0,0:0:0:0:
64,192,68438,1,0,0:0:0:0:
192,192,68438,1,0,0:0:0:0:
448,192,68531,1,0,0:0:0:0:
320,192,68531,1,0,0:0:0:0:
192,192,68531,1,0,0:0:0:0:
448,192,68623,1,0,0:0:0:0:
320,192,68623,1,0,0:0:0:0:
64,192,68623,1,0,0:0:0:0:
192,192,68716,1,0,0:0:0:0:
64,192,68716,1,0,0:0:0:0:
448,192,68716,1,0,0:0:0:0:
320,192,68808,1,0,0:0:0:0:
192,192,68808,1,0,0:0:0:0:
64,192,68808,1,0,0:0:0:0:
320,192,68901,1,0,0:0:0:0:
448,192,68901,1,0,0:0:0:0:
64,192,68901,1,0,0:0:0:0:
192,192,68994,1,0,0:0:0:0:
320,192,68994,1,0,0:0:0:0:
448,192,68994,1,0,0:0:0:0:
64,192,69086,1,0,0:0:0:0:
448,192,69086,1,0,0:0:0:0:
192,192,69086,1,0,0:0:0:0:
320,192,69179,1,0,0:0:0:0:
448,192,69179,1,0,0:0:0:0:
192,192,69179,1,0,0:0:0:0:
320,192,69271,1,0,0:0:0:0:
192,192,69271,1,0,0:0:0:0:
64,192,69271,1,0,0:0:0:0:
448,192,69364,1,0,0:0:0:0:
192,192,69364,1,0,0:0:0:0:
64,192,69364,1,0,0:0:0:0:
320,192,69457,1,0,0:0:0:0:
448,192,69457,1,0,0:0:0:0:
320,192,69549,1,0,0:0:0:0:
192,192,69549,1,0,0:0:0:0:
64,192,69549,1,0,0:0:0:0:
64,192,69642,1,0,0:0:0:0:
448,192,69642,1,0,0:0:0:0:
192,192,69642,1,0,0:0:0:0:
320,192,69734,1,0,0:0:0:0:
448,192,69734,1,0,0:0:0:0:
192,192,69734,1,0,0:0:0:0:
320,192,69827,1,0,0:0:0:0:
64,192,69827,1,0,0:0:0:0:
192,192,69827,1,0,0:0:0:0:
192,192,69919,1,0,0:0:0:0:
64,192,69919,1,0,0:0:0:0:
448,192,69919,1,0,0:0:0:0:
320,192,70012,1,0,0:0:0:0:
448,192,70012,1,0,0:0:0:0:
192,192,70012,1,0,0:0:0:0:
320,192,70105,1,0,0:0:0:0:
192,192,70105,1,0,0:0:0:0:
64,192,70105,1,0,0:0:0:0:
448,192,70197,1,0,0:0:0:0:
320,192,70197,1,0,0:0:0:0:
64,192,70197,1,0,0:0:0:0:
448,192,70290,1,0,0:0:0:0:
192,192,70290,1,0,0:0:0:0:
64,192,70290,1,0,0:0:0:0:
320,192,70382,1,0,0:0:0:0:
448,192,70382,1,0,0:0:0:0:
192,192,70382,1,0,0:0:0:0:
64,192,70382,1,0,0:0:0:0:
320,192,70475,1,0,0:0:0:0:
192,192,70475,1,0,0:0:0:0:
64,192,70475,1,0,0:0:0:0:
448,192,70475,1,0,0:0:0:0:
