osu file format v14

[General]
AudioFilename: audio.mp3
AudioLeadIn: 0
PreviewTime: -1
Countdown: 1
SampleSet: Normal
StackLeniency: 0.7
Mode: 2
LetterboxInBreaks: 0
WidescreenStoryboard: 1

[Editor]
Bookmarks: 11390,40690,40990
DistanceSpacing: 0.8
BeatDivisor: 4
GridSize: 16
TimelineZoom: 1

[Metadata]
Title:VS Misaka Mikototo
TitleUnicode:VS Misaka Mikototo
Artist:Nico Nico Douga
ArtistUnicode:Nico Nico Douga
Creator:CelegaS
Version:Rain
Source:To Aru Majutsu no Index
Tags:to aru kagaku no railgun mad kirby king dedede vs misaka mikoto kamijo touma shirai kuroko
BeatmapID:1570005
BeatmapSetID:595128

[Difficulty]
HPDrainRate:6
CircleSize:4
OverallDifficulty:9
ApproachRate:9
SliderMultiplier:3
SliderTickRate:1

[Events]
//Background and Video events
0,0,"VS Misaka Mikototo.png",0,0
//Break Periods
//Storyboard Layer 0 (Background)
//Storyboard Layer 1 (Fail)
//Storyboard Layer 2 (Pass)
//Storyboard Layer 3 (Foreground)
//Storyboard Sound Samples

[TimingPoints]
10790,400,4,1,2,70,1,0
12190,-100,4,1,0,40,0,0
12790,-100,4,1,0,45,0,0
13190,-100,4,1,0,50,0,0
13590,-100,4,1,0,55,0,0
13990,-100,4,1,0,60,0,0
14390,-100,4,1,0,65,0,0
21790,-100,4,1,2,65,0,0
28290,-100,4,1,0,65,0,0
29190,-100,4,1,2,65,0,0
29590,-100,4,1,0,65,0,0
30790,-100,4,1,2,70,0,0
31190,-100,4,1,0,70,0,0
32390,-100,4,1,2,70,0,0
32790,-100,4,1,0,70,0,0
33990,-100,4,1,2,70,0,0
34290,-100,4,1,0,70,0,0
36990,-50,4,1,0,70,0,0
37790,-100,4,1,2,70,0,0
40290,-100,4,1,0,70,0,0

[Colours]
Combo1 : 110,100,120
Combo2 : 150,95,85
Combo3 : 220,220,220
Combo4 : 210,190,180

[HitObjects]
256,192,7790,12,0,9990,0:0:0:0:
240,288,10790,6,0,L|160:288,1,75
288,256,11090,2,0,L|368:256,1,75
208,224,11390,2,0,L|128:224,1,75
320,192,11690,2,0,L|400:192,1,75
176,160,11990,2,0,L|96:160,1,75
352,128,12190,2,0,L|432:128,1,75
400,288,12390,5,0,0:0:0:0:
465,254,12490,1,0,0:0:0:0:
483,183,12590,1,0,0:0:0:0:
442,123,12690,1,0,0:0:0:0:
114,299,12790,5,0,0:0:0:0:
67,245,12890,1,0,0:0:0:0:
75,172,12990,1,0,0:0:0:0:
135,130,13090,1,0,0:0:0:0:
320,192,13190,5,0,0:0:0:0:
384,192,13290,1,0,0:0:0:0:
448,192,13390,1,0,0:0:0:0:
512,192,13490,1,0,0:0:0:0:
304,128,13590,5,0,0:0:0:0:
240,128,13690,1,0,0:0:0:0:
176,128,13790,1,0,0:0:0:0:
112,128,13890,1,0,0:0:0:0:
352,288,13990,5,0,0:0:0:0:
399,234,14090,1,0,0:0:0:0:
391,161,14190,1,0,0:0:0:0:
331,119,14290,1,0,0:0:0:0:
160,112,14390,5,0,0:0:0:0:
95,146,14490,1,0,0:0:0:0:
77,217,14590,1,0,0:0:0:0:
118,277,14690,1,0,0:0:0:0:
352,192,14790,1,0,0:0:0:0:
464,192,14990,1,0,0:0:0:0:
64,192,15190,1,0,0:0:0:0:
224,128,15390,1,0,0:0:0:0:
64,128,15490,1,0,0:0:0:0:
320,288,15990,6,0,L|432:288,2,100
320,224,16390,2,0,L|245:224,1,75
240,160,16590,2,0,L|144:160,2,75
240,96,16890,2,0,L|320:96,1,75
240,320,17090,2,0,L|160:320,2,75
240,256,17390,2,0,L|315:256,1,75
320,192,17590,6,0,L|416:192,2,75
384,176,17890,2,0,L|309:176,1,75
128,176,18090,2,0,L|203:176,1,75
400,112,18290,2,0,L|325:112,1,75
112,112,18490,2,0,L|187:112,1,75
352,48,18690,1,0,0:0:0:0:
416,48,18790,6,0,L|491:48,2,75
112,96,19090,2,0,L|37:96,2,75
352,192,19390,2,0,L|448:192,2,75
240,192,19690,2,0,L|144:192,2,75
432,128,19990,2,0,L|357:128,1,75
256,288,20390,6,0,L|80:288,1,150
288,224,20690,2,0,L|448:288,1,150
224,224,20990,2,0,L|64:160,1,150
256,160,21290,2,0,L|448:160,1,150
96,80,21990,6,0,L|96:192,1,75
368,80,22290,6,0,L|368:192,1,75
192,80,22590,6,0,L|192:192,1,75
416,80,22890,6,0,L|416:192,1,75
256,240,23190,5,0,0:0:0:0:
160,240,23290,1,0,0:0:0:0:
256,176,23390,1,0,0:0:0:0:
352,176,23490,1,0,0:0:0:0:
256,112,23590,1,0,0:0:0:0:
160,112,23690,1,0,0:0:0:0:
64,48,23890,6,0,L|64:128,1,75
256,48,24190,2,0,L|256:144,1,75
448,48,24490,2,0,L|448:128,1,75
320,208,24790,5,0,0:0:0:0:
224,208,24890,1,0,0:0:0:0:
320,144,24990,1,0,0:0:0:0:
224,144,25090,1,0,0:0:0:0:
320,80,25190,1,0,0:0:0:0:
416,80,25290,1,0,0:0:0:0:
256,32,25490,6,0,L|256:112,1,75
80,32,25790,2,0,L|80:112,1,75
256,32,26090,2,0,L|256:112,1,75
64,64,26390,5,0,0:0:0:0:
160,64,26490,1,0,0:0:0:0:
256,64,26590,1,0,0:0:0:0:
160,128,26690,1,0,0:0:0:0:
256,128,26790,1,0,0:0:0:0:
352,128,26890,1,0,0:0:0:0:
448,48,27090,6,0,L|448:128,1,75
256,32,27390,2,0,L|256:112,1,75
64,32,27690,2,0,L|64:112,1,75
144,64,27990,1,0,0:0:0:0:
240,64,28090,1,0,0:0:0:0:
144,128,28190,1,0,0:0:0:0:
240,128,28290,1,0,0:0:0:0:
336,192,28390,5,0,0:0:0:0:
240,192,28490,1,0,0:0:0:0:
144,192,28590,1,0,0:0:0:0:
240,128,28690,1,0,0:0:0:0:
144,128,28790,1,0,0:0:0:0:
48,128,28890,1,0,0:0:0:0:
144,64,28990,1,0,0:0:0:0:
240,64,29090,1,0,0:0:0:0:
416,64,29190,1,0,0:0:0:0:
496,64,29290,5,0,0:0:0:0:
304,64,29490,1,0,0:0:0:0:
128,64,29690,1,0,0:0:0:0:
288,64,29790,1,0,0:0:0:0:
448,64,29890,1,0,0:0:0:0:
368,192,29990,5,0,0:0:0:0:
288,192,30090,1,0,0:0:0:0:
352,128,30190,1,0,0:0:0:0:
256,128,30290,1,0,0:0:0:0:
160,128,30390,1,0,0:0:0:0:
64,128,30490,1,0,0:0:0:0:
160,64,30590,1,0,0:0:0:0:
64,64,30690,1,0,0:0:0:0:
352,64,30790,1,0,0:0:0:0:
448,64,30890,5,0,0:0:0:0:
288,64,31090,1,0,0:0:0:0:
448,64,31290,1,0,0:0:0:0:
256,64,31390,1,0,0:0:0:0:
64,64,31490,1,0,0:0:0:0:
160,64,31590,5,0,0:0:0:0:
256,64,31690,1,0,0:0:0:0:
352,64,31790,1,0,0:0:0:0:
256,128,31890,1,0,0:0:0:0:
160,128,31990,1,0,0:0:0:0:
256,192,32090,1,0,0:0:0:0:
160,192,32190,1,0,0:0:0:0:
256,256,32290,1,0,0:0:0:0:
352,256,32390,1,0,0:0:0:0:
448,256,32490,5,0,0:0:0:0:
256,192,32690,1,0,0:0:0:0:
256,288,32890,1,0,0:0:0:0:
256,336,32990,1,0,0:0:0:0:
256,224,33090,1,0,0:0:0:0:
352,192,33190,5,0,0:0:0:0:
256,192,33290,1,0,0:0:0:0:
160,192,33390,1,0,0:0:0:0:
256,128,33490,1,0,0:0:0:0:
160,128,33590,1,0,0:0:0:0:
64,128,33690,1,0,0:0:0:0:
160,64,33790,1,0,0:0:0:0:
256,64,33890,1,0,0:0:0:0:
352,64,33990,1,0,0:0:0:0:
272,128,34090,5,0,0:0:0:0:
336,128,34190,1,0,0:0:0:0:
304,192,34290,1,0,0:0:0:0:
144,144,34790,6,0,L|16:144,1,75
288,80,34990,1,0,0:0:0:0:
352,80,35090,1,0,0:0:0:0:
416,80,35190,1,0,0:0:0:0:
256,192,35590,6,0,L|368:192,1,112.5
320,128,35790,2,0,L|208:128,1,112.5
256,64,35990,1,0,0:0:0:0:
160,64,36190,6,0,L|32:64,1,75
128,64,36390,1,0,0:0:0:0:
240,128,36590,6,0,L|112:128,1,75
208,128,36790,1,0,0:0:0:0:
336,192,36990,1,0,0:0:0:0:
256,192,37090,1,0,0:0:0:0:
480,192,37290,1,0,0:0:0:0:
384,256,37990,1,0,0:0:0:0:
320,256,38090,5,0,0:0:0:0:
256,256,38190,1,0,0:0:0:0:
208,256,38290,1,0,0:0:0:0:
192,256,38390,1,0,0:0:0:0:
208,208,38490,1,0,0:0:0:0:
128,208,38690,1,0,0:0:0:0:
384,176,38790,1,0,0:0:0:0:
432,144,38890,5,0,0:0:0:0:
416,80,38990,1,0,0:0:0:0:
352,64,39090,1,0,0:0:0:0:
304,64,39190,1,0,0:0:0:0:
320,96,39290,1,0,0:0:0:0:
192,64,39490,1,0,0:0:0:0:
400,240,39590,2,0,L|528:240,1,75
176,160,39790,5,0,0:0:0:0:
144,160,39890,1,0,0:0:0:0:
192,160,39990,1,0,0:0:0:0:
256,160,40090,1,0,0:0:0:0:
320,160,40190,1,0,0:0:0:0:
384,160,40290,1,0,0:0:0:0:
416,192,40390,5,0,0:0:0:0:
288,208,40490,1,0,0:0:0:0:
272,272,40690,1,0,0:0:0:0:
400,256,40790,1,0,0:0:0:0:
432,304,40990,1,0,0:0:0:0:
128,304,41090,1,0,0:0:0:0:
