osu file format v14

[General]
AudioFilename: audio.mp3
AudioLeadIn: 0
PreviewTime: -1
Countdown: 1
SampleSet: Normal
StackLeniency: 0.7
Mode: 2
LetterboxInBreaks: 0
WidescreenStoryboard: 1

[Editor]
Bookmarks: 11390,40690,40990
DistanceSpacing: 0.8
BeatDivisor: 4
GridSize: 16
TimelineZoom: 1

[Metadata]
Title:VS Misaka Mikototo
TitleUnicode:VS Misaka Mikototo
Artist:Nico Nico Douga
ArtistUnicode:Nico Nico Douga
Creator:CelegaS
Version:Platter
Source:To Aru Majutsu no Index
Tags:to aru kagaku no railgun mad kirby king dedede vs misaka mikoto kamijo touma shirai kuroko
BeatmapID:1581101
BeatmapSetID:595128

[Difficulty]
HPDrainRate:5.5
CircleSize:4
OverallDifficulty:8
ApproachRate:8
SliderMultiplier:3
SliderTickRate:1

[Events]
//Background and Video events
0,0,"VS Misaka Mikototo.png",0,0
//Break Periods
//Storyboard Layer 0 (Background)
//Storyboard Layer 1 (Fail)
//Storyboard Layer 2 (Pass)
//Storyboard Layer 3 (Foreground)
//Storyboard Sound Samples

[TimingPoints]
10790,400,4,1,2,70,1,0

[Colours]
Combo1 : 110,100,120
Combo2 : 150,95,85
Combo3 : 220,220,220
Combo4 : 210,190,180

[HitObjects]
256,192,7790,12,0,9990,0:0:0:0:
160,208,10790,5,0,0:0:0:0:
352,208,11090,1,0,0:0:0:0:
160,208,11390,1,0,0:0:0:0:
352,208,11690,1,0,0:0:0:0:
176,208,11990,2,0,L|385:208,1,150
224,256,12390,6,0,P|144:208|144:144,1,150
288,256,12790,2,0,P|368:208|368:144,1,150
256,256,13190,6,0,P|176:208|176:144,1,150
320,256,13590,2,0,P|400:208|400:144,1,150
288,256,13990,6,0,P|208:208|208:144,1,150
352,256,14390,2,0,P|432:208|432:144,1,150
144,160,14790,5,0,0:0:0:0:
32,160,15090,1,0,0:0:0:0:
288,160,15390,1,0,0:0:0:0:
336,160,15490,1,0,0:0:0:0:
384,160,15590,5,0,0:0:0:0:
144,160,16190,1,0,0:0:0:0:
336,160,16790,2,0,L|448:48,2,150
256,96,17790,1,0,0:0:0:0:
176,160,18390,2,0,L|64:48,2,150
256,192,19390,1,0,0:0:0:0:
416,192,19990,5,0,0:0:0:0:
304,128,20390,1,0,0:0:0:0:
416,112,20690,1,0,0:0:0:0:
272,64,20990,1,0,0:0:0:0:
384,48,21290,1,0,0:0:0:0:
240,64,21590,2,0,P|63:63|48:224,1,300
80,160,22090,6,0,L|240:160,1,150
176,224,22390,2,0,L|16:224,1,150
80,288,22690,2,0,L|240:288,1,150
176,224,22990,1,0,0:0:0:0:
256,224,23190,6,0,P|352:144|240:48,1,300
384,288,23790,5,0,0:0:0:0:
432,224,23890,2,0,L|272:224,1,150
336,160,24190,2,0,L|496:160,1,150
432,96,24490,2,0,L|272:96,1,150
336,160,24790,6,0,L|32:160,1,300
80,96,25290,6,0,L|288:96,1,150
176,32,25590,2,0,L|352:32,1,150
288,96,25890,2,0,L|464:96,1,150
384,160,26190,2,0,L|208:160,1,150
288,224,26490,6,0,P|192:144|304:48,1,300
224,32,27090,5,0,0:0:0:0:
272,112,27190,2,0,L|432:112,1,150
368,176,27490,2,0,L|192:176,1,150
272,240,27790,2,0,L|96:240,1,150
160,176,28090,6,0,L|384:176,1,225
112,144,28590,1,0,0:0:0:0:
60,135,28690,1,0,0:0:0:0:
16,112,28790,1,0,0:0:0:0:
0,80,28890,1,0,0:0:0:0:
16,48,28990,1,0,0:0:0:0:
60,25,29090,1,0,0:0:0:0:
112,16,29190,1,0,0:0:0:0:
208,80,29490,5,0,0:0:0:0:
64,80,29690,2,0,L|224:80,1,150
400,144,30090,5,0,0:0:0:0:
452,135,30190,1,0,0:0:0:0:
496,112,30290,1,0,0:0:0:0:
512,80,30390,1,0,0:0:0:0:
496,48,30490,1,0,0:0:0:0:
452,25,30590,1,0,0:0:0:0:
400,16,30690,1,0,0:0:0:0:
160,96,30790,6,0,L|64:96,1,75
256,96,31090,1,0,0:0:0:0:
80,96,31290,2,0,L|256:96,1,150
