osu file format v14

[General]
AudioFilename: audio.mp3
AudioLeadIn: 0
PreviewTime: -1
Countdown: 1
SampleSet: Normal
StackLeniency: 0.7
Mode: 2
LetterboxInBreaks: 0
WidescreenStoryboard: 1

[Editor]
Bookmarks: 40690,40990
DistanceSpacing: 0.8
BeatDivisor: 4
GridSize: 16
TimelineZoom: 1

[Metadata]
Title:VS Misaka Mikototo
TitleUnicode:VS Misaka Mikototo
Artist:Nico Nico Douga
ArtistUnicode:Nico Nico Douga
Creator:CelegaS
Version:Overdose
Source:To Aru Majutsu no Index
Tags:to aru kagaku no railgun mad kirby king dedede vs misaka mikoto kamijo touma shirai kuroko
BeatmapID:1266460
BeatmapSetID:595128

[Difficulty]
HPDrainRate:7
CircleSize:4
OverallDifficulty:9.2
ApproachRate:9.2
SliderMultiplier:3
SliderTickRate:1

[Events]
//Background and Video events
0,0,"VS Misaka Mikototo.png",0,0
//Break Periods
//Storyboard Layer 0 (Background)
//Storyboard Layer 1 (Fail)
//Storyboard Layer 2 (Pass)
//Storyboard Layer 3 (Foreground)
//Storyboard Sound Samples

[TimingPoints]
10790,400,4,1,2,70,1,0
12190,-100,4,1,0,40,0,0
12790,-100,4,1,0,45,0,0
13190,-100,4,1,0,50,0,0
13590,-100,4,1,0,55,0,0
13990,-100,4,1,0,60,0,0
14390,-100,4,1,0,65,0,0
21790,-100,4,1,2,65,0,0
28290,-100,4,1,0,65,0,0
29190,-100,4,1,2,65,0,0
29590,-100,4,1,0,65,0,0
30790,-100,4,1,2,70,0,0
31190,-100,4,1,0,70,0,0
32390,-100,4,1,2,70,0,0
32790,-100,4,1,0,70,0,0
33990,-100,4,1,2,70,0,0
34290,-100,4,1,0,70,0,0
36990,-50,4,1,0,70,0,0
37790,-100,4,1,2,70,0,0
40290,-100,4,1,0,70,0,0

[Colours]
Combo1 : 110,100,120
Combo2 : 150,95,85
Combo3 : 220,220,220
Combo4 : 210,190,180

[HitObjects]
256,192,7690,12,0,9990,0:0:0:0:
176,224,10790,5,0,0:0:0:0:
336,224,10890,1,0,0:0:0:0:
384,176,11090,1,0,0:0:0:0:
224,176,11190,1,0,0:0:0:0:
176,128,11390,1,0,0:0:0:0:
336,128,11490,1,0,0:0:0:0:
384,80,11690,1,8,0:0:0:0:
128,80,11790,1,0,0:0:0:0:
64,80,11990,5,0,0:0:0:0:
432,80,12090,1,0,0:0:0:0:
496,144,12190,1,0,0:0:0:0:
80,144,12290,1,0,0:0:0:0:
112,288,12390,5,0,0:0:0:0:
47,254,12490,1,0,0:0:0:0:
29,183,12590,1,0,0:0:0:0:
70,123,12690,1,0,0:0:0:0:
398,299,12790,5,0,0:0:0:0:
445,245,12890,1,0,0:0:0:0:
437,172,12990,1,0,0:0:0:0:
377,130,13090,1,0,0:0:0:0:
96,160,13190,5,0,0:0:0:0:
176,160,13290,1,0,0:0:0:0:
256,160,13390,1,0,0:0:0:0:
336,160,13490,1,0,0:0:0:0:
272,160,13590,5,0,0:0:0:0:
207,194,13690,1,0,0:0:0:0:
189,265,13790,1,0,0:0:0:0:
230,325,13890,1,0,0:0:0:0:
144,320,13990,5,0,0:0:0:0:
191,266,14090,1,0,0:0:0:0:
183,193,14190,1,0,0:0:0:0:
123,151,14290,1,0,0:0:0:0:
416,240,14390,5,0,0:0:0:0:
463,186,14490,1,0,0:0:0:0:
455,113,14590,1,0,0:0:0:0:
395,71,14690,1,0,0:0:0:0:
320,192,14790,5,0,0:0:0:0:
80,192,14890,1,0,0:0:0:0:
80,128,15090,1,0,0:0:0:0:
464,128,15190,1,0,0:0:0:0:
464,64,15390,1,0,0:0:0:0:
32,64,15490,1,0,0:0:0:0:
128,64,15590,1,0,0:0:0:0:
320,64,15790,1,0,0:0:0:0:
144,256,15990,6,0,L|32:256,2,100
288,192,16390,2,0,L|213:192,1,75
384,192,16590,2,0,L|480:192,2,75
128,192,16890,2,0,L|48:192,1,75
309,192,17090,2,0,L|389:192,2,75
432,128,17390,2,0,L|352:128,1,75
144,64,17590,6,0,L|48:64,2,75
256,64,17890,2,0,L|181:64,1,75
288,32,18090,2,0,L|213:32,1,75
336,32,18290,2,0,L|261:32,1,75
368,64,18490,2,0,L|293:64,1,75
416,64,18690,1,0,0:0:0:0:
96,64,18790,6,0,L|21:64,2,75
400,96,19090,2,0,L|475:96,2,75
176,192,19390,2,0,L|80:192,2,75
288,192,19690,2,0,L|384:192,2,75
80,128,19990,2,0,L|155:128,1,75
96,288,20390,5,0,0:0:0:0:
288,288,20590,1,0,0:0:0:0:
448,224,20690,1,0,0:0:0:0:
256,224,20890,1,0,0:0:0:0:
416,160,20990,1,0,0:0:0:0:
224,160,21190,1,0,0:0:0:0:
32,96,21290,1,0,0:0:0:0:
192,96,21490,1,0,0:0:0:0:
32,64,21990,5,0,0:0:0:0:
256,64,22090,1,0,0:0:0:0:
176,64,22290,1,0,0:0:0:0:
336,64,22390,1,0,0:0:0:0:
256,64,22590,1,0,0:0:0:0:
480,64,22690,1,0,0:0:0:0:
336,128,22890,1,0,0:0:0:0:
176,128,22990,1,0,0:0:0:0:
224,128,23190,5,0,0:0:0:0:
160,128,23290,1,0,0:0:0:0:
240,128,23390,1,0,0:0:0:0:
144,128,23490,1,0,0:0:0:0:
224,128,23590,1,0,0:0:0:0:
160,128,23690,1,0,0:0:0:0:
336,64,23890,5,0,0:0:0:0:
432,64,23990,1,0,0:0:0:0:
208,64,24190,1,0,0:0:0:0:
304,64,24290,1,0,0:0:0:0:
80,64,24490,1,0,0:0:0:0:
176,64,24590,1,0,0:0:0:0:
112,128,24790,5,0,0:0:0:0:
208,128,24890,1,0,0:0:0:0:
112,128,24990,1,0,0:0:0:0:
208,128,25090,1,0,0:0:0:0:
96,128,25190,1,0,0:0:0:0:
384,128,25290,1,0,0:0:0:0:
480,64,25490,5,0,0:0:0:0:
256,64,25590,1,0,0:0:0:0:
192,64,25790,1,0,0:0:0:0:
416,64,25890,1,0,0:0:0:0:
352,64,26090,1,0,0:0:0:0:
128,64,26190,1,0,0:0:0:0:
80,144,26390,5,0,0:0:0:0:
176,144,26490,1,0,0:0:0:0:
80,144,26590,1,0,0:0:0:0:
256,144,26690,1,0,0:0:0:0:
448,144,26790,1,0,0:0:0:0:
256,144,26890,1,0,0:0:0:0:
208,192,27090,5,0,0:0:0:0:
384,192,27190,1,0,0:0:0:0:
480,192,27390,1,0,0:0:0:0:
304,192,27490,1,0,0:0:0:0:
208,256,27690,1,0,0:0:0:0:
384,256,27790,1,0,0:0:0:0:
480,256,27990,1,0,0:0:0:0:
144,320,28090,1,0,0:0:0:0:
208,320,28190,1,0,0:0:0:0:
144,256,28290,1,0,0:0:0:0:
48,192,28390,5,0,0:0:0:0:
112,192,28490,1,0,0:0:0:0:
48,128,28590,1,0,0:0:0:0:
256,128,28690,1,0,0:0:0:0:
464,128,28790,1,0,0:0:0:0:
496,64,28890,1,0,0:0:0:0:
336,64,28990,1,0,0:0:0:0:
176,64,29090,1,0,0:0:0:0:
16,64,29190,1,0,0:0:0:0:
256,352,29290,5,0,0:0:0:0:
448,352,29490,1,0,0:0:0:0:
256,288,29690,1,0,0:0:0:0:
352,256,29790,1,0,0:0:0:0:
256,224,29890,1,0,0:0:0:0:
352,192,29990,5,0,0:0:0:0:
287,192,30090,1,0,0:0:0:0:
352,128,30190,1,0,0:0:0:0:
240,128,30290,1,0,0:0:0:0:
128,128,30390,1,0,0:0:0:0:
48,64,30490,1,0,0:0:0:0:
208,64,30590,1,0,0:0:0:0:
48,32,30690,1,0,0:0:0:0:
368,32,30790,1,0,0:0:0:0:
480,32,30890,5,0,0:0:0:0:
304,112,31090,1,0,0:0:0:0:
480,96,31290,1,0,0:0:0:0:
384,96,31390,1,0,0:0:0:0:
480,96,31490,1,0,0:0:0:0:
464,192,31590,5,0,0:0:0:0:
256,192,31690,1,0,0:0:0:0:
48,192,31790,1,0,0:0:0:0:
128,160,31890,1,0,0:0:0:0:
48,160,31990,1,0,0:0:0:0:
128,128,32090,1,0,0:0:0:0:
48,128,32190,1,0,0:0:0:0:
256,128,32290,1,0,0:0:0:0:
464,128,32390,1,0,0:0:0:0:
256,352,32490,5,0,0:0:0:0:
416,352,32690,1,0,0:0:0:0:
256,288,32890,1,0,0:0:0:0:
352,256,32990,1,0,0:0:0:0:
256,224,33090,1,0,0:0:0:0:
352,192,33190,5,0,0:0:0:0:
256,192,33290,1,0,0:0:0:0:
160,192,33390,1,0,0:0:0:0:
352,128,33490,1,0,0:0:0:0:
160,128,33590,1,0,0:0:0:0:
64,128,33690,1,0,0:0:0:0:
256,64,33790,1,0,0:0:0:0:
192,64,33890,1,0,0:0:0:0:
288,64,33990,1,0,0:0:0:0:
192,64,34090,5,0,0:0:0:0:
272,64,34190,1,0,0:0:0:0:
208,64,34290,1,0,0:0:0:0:
144,144,34790,6,0,L|16:144,1,75
336,144,34990,1,0,0:0:0:0:
288,144,35090,1,0,0:0:0:0:
384,144,35190,1,0,0:0:0:0:
160,256,35590,6,0,L|48:256,1,112.5
320,256,35790,2,0,L|432:256,1,112.5
80,256,35990,1,0,0:0:0:0:
144,144,36190,6,0,L|16:144,1,75
352,144,36390,1,0,0:0:0:0:
368,144,36590,6,0,L|496:144,1,75
160,144,36790,1,0,0:0:0:0:
128,96,36990,1,0,0:0:0:0:
384,96,37090,1,0,0:0:0:0:
224,96,37290,1,0,0:0:0:0:
448,160,37990,5,0,0:0:0:0:
448,96,38090,1,0,0:0:0:0:
368,160,38190,1,0,0:0:0:0:
448,160,38290,1,0,0:0:0:0:
352,160,38390,1,0,0:0:0:0:
448,160,38523,1,0,0:0:0:0:
512,160,38656,1,0,0:0:0:0:
128,160,38790,5,0,0:0:0:0:
64,160,38890,1,0,0:0:0:0:
144,160,38990,1,0,0:0:0:0:
64,160,39090,1,0,0:0:0:0:
160,160,39190,1,0,0:0:0:0:
64,160,39290,1,0,0:0:0:0:
320,160,39390,1,0,0:0:0:0:
384,160,39490,1,0,0:0:0:0:
176,160,39590,2,0,L|48:160,1,100
336,160,39790,5,0,0:0:0:0:
368,160,39890,1,0,0:0:0:0:
320,160,39990,1,0,0:0:0:0:
256,160,40090,1,0,0:0:0:0:
192,160,40190,1,0,0:0:0:0:
128,160,40290,1,0,0:0:0:0:
96,192,40390,5,0,0:0:0:0:
416,192,40490,1,0,0:0:0:0:
448,192,40690,1,0,0:0:0:0:
64,192,40790,1,0,0:0:0:0:
32,192,40990,1,0,0:0:0:0:
480,192,41090,1,0,0:0:0:0:
