osu file format v14

[General]
AudioFilename: audio.mp3
AudioLeadIn: 0
PreviewTime: -1
Countdown: 1
SampleSet: Normal
StackLeniency: 0.7
Mode: 2
LetterboxInBreaks: 0
WidescreenStoryboard: 0

[Editor]
Bookmarks: 40690,40990
DistanceSpacing: 0.8
BeatDivisor: 4
GridSize: 16
TimelineZoom: 1

[Metadata]
Title:VS Misaka Mikototo
TitleUnicode:VS Misaka Mikototo
Artist:Nico Nico Douga
ArtistUnicode:Nico Nico Douga
Creator:CelegaS
Version:Celedose
Source:To Aru Majutsu no Index
Tags:to aru kagaku no railgun mad kirby king dedede vs misaka mikoto kamijo touma shirai kuroko
BeatmapID:1258581
BeatmapSetID:595128

[Difficulty]
HPDrainRate:3
CircleSize:4
OverallDifficulty:9.6
ApproachRate:9.6
SliderMultiplier:3
SliderTickRate:1

[Events]
//Background and Video events
0,0,"VS Misaka Mikototo.png",0,0
//Break Periods
//Storyboard Layer 0 (Background)
//Storyboard Layer 1 (Fail)
//Storyboard Layer 2 (Pass)
//Storyboard Layer 3 (Foreground)
//Storyboard Sound Samples

[TimingPoints]
10790,400,4,1,2,70,1,0
12190,-100,4,1,0,40,0,0
12790,-100,4,1,0,45,0,0
13190,-100,4,1,0,50,0,0
13590,-100,4,1,0,55,0,0
13990,-100,4,1,0,60,0,0
14390,-100,4,1,0,65,0,0
21790,-100,4,1,2,65,0,0
28290,-100,4,1,0,65,0,0
29190,-100,4,1,2,65,0,0
29590,-100,4,1,0,65,0,0
30790,-100,4,1,2,70,0,0
31190,-100,4,1,0,70,0,0
32390,-100,4,1,2,70,0,0
32790,-100,4,1,0,70,0,0
33990,-100,4,1,2,70,0,0
34290,-100,4,1,0,70,0,0
37790,-100,4,1,2,70,0,0
40290,-100,4,1,0,70,0,0

[Colours]
Combo1 : 110,100,120
Combo2 : 150,95,85
Combo3 : 220,220,220
Combo4 : 210,190,180

[HitObjects]
256,192,7790,12,0,9990,0:0:0:0:
32,192,10790,5,0,0:0:0:0:
192,192,10890,1,0,0:0:0:0:
184,128,11090,1,0,0:0:0:0:
344,128,11190,1,0,0:0:0:0:
336,80,11390,1,0,0:0:0:0:
496,80,11490,1,0,0:0:0:0:
496,32,11690,1,8,0:0:0:0:
16,32,11790,1,0,0:0:0:0:
16,96,11990,6,0,L|64:96,1,37.5
432,96,12090,2,0,L|480:96,1,37.5
496,144,12190,2,0,L|448:144,1,37.5
48,144,12290,2,0,L|0:144,1,37.5
16,224,12390,6,0,L|112:224,3,75
368,256,12790,6,0,L|443:256,3,75
208,192,13190,6,0,L|112:192,3,75
320,176,13590,6,0,L|416:176,3,75
128,128,13990,6,0,L|32:128,3,75
416,192,14390,6,0,L|512:192,3,75
320,192,14790,5,0,0:0:0:0:
80,192,14890,1,0,0:0:0:0:
80,128,15090,1,0,0:0:0:0:
464,128,15190,1,0,0:0:0:0:
464,64,15390,1,0,0:0:0:0:
32,64,15490,1,0,0:0:0:0:
224,80,15590,1,0,0:0:0:0:
432,80,15790,1,0,0:0:0:0:
224,80,15990,1,0,0:0:0:0:
336,80,16090,1,0,0:0:0:0:
288,80,16190,5,0,0:0:0:0:
80,80,16390,1,0,0:0:0:0:
288,80,16590,1,0,0:0:0:0:
176,80,16690,1,0,0:0:0:0:
32,256,16790,1,4,0:0:0:0:
320,256,16990,1,4,0:0:0:0:
32,256,17190,5,4,0:0:0:0:
480,192,17390,1,0,0:0:0:0:
64,192,17590,1,0,0:0:0:0:
256,32,17790,1,4,0:0:0:0:
448,32,17990,1,0,0:0:0:0:
32,48,18190,1,0,0:0:0:0:
480,128,18390,1,4,0:0:0:0:
288,128,18590,1,4,0:0:0:0:
480,128,18790,5,4,0:0:0:0:
32,128,18990,1,0,0:0:0:0:
448,128,19190,1,0,0:0:0:0:
256,352,19390,1,4,0:0:0:0:
64,128,19590,1,0,0:0:0:0:
480,128,19790,1,0,0:0:0:0:
112,256,19990,1,4,0:0:0:0:
320,256,20190,1,4,0:0:0:0:
480,288,20390,5,0,0:0:0:0:
288,288,20590,1,0,0:0:0:0:
448,224,20690,1,0,0:0:0:0:
256,224,20890,1,0,0:0:0:0:
416,160,20990,1,0,0:0:0:0:
224,160,21190,1,0,0:0:0:0:
384,96,21290,1,0,0:0:0:0:
192,96,21490,1,0,0:0:0:0:
32,64,21990,5,0,0:0:0:0:
256,64,22090,1,0,0:0:0:0:
144,64,22290,1,0,0:0:0:0:
368,64,22390,1,0,0:0:0:0:
256,64,22590,1,0,0:0:0:0:
480,64,22690,1,0,0:0:0:0:
368,128,22890,1,0,0:0:0:0:
144,128,22990,1,0,0:0:0:0:
224,128,23190,5,0,0:0:0:0:
128,128,23290,1,0,0:0:0:0:
304,128,23390,1,0,0:0:0:0:
80,128,23490,1,0,0:0:0:0:
304,128,23590,1,0,0:0:0:0:
112,128,23690,1,0,0:0:0:0:
208,64,23890,5,0,0:0:0:0:
432,64,23990,1,0,0:0:0:0:
368,64,24190,1,0,0:0:0:0:
144,64,24290,1,0,0:0:0:0:
256,64,24490,1,0,0:0:0:0:
32,64,24590,1,0,0:0:0:0:
144,128,24790,5,0,0:0:0:0:
256,128,24890,1,0,0:0:0:0:
144,128,24990,1,0,0:0:0:0:
240,128,25090,1,0,0:0:0:0:
32,128,25190,1,0,0:0:0:0:
288,128,25290,1,0,0:0:0:0:
480,64,25490,5,0,0:0:0:0:
256,64,25590,1,0,0:0:0:0:
144,64,25790,1,0,0:0:0:0:
368,64,25890,1,0,0:0:0:0:
256,64,26090,1,0,0:0:0:0:
480,64,26190,1,0,0:0:0:0:
384,128,26390,5,0,0:0:0:0:
272,128,26490,1,0,0:0:0:0:
464,128,26590,1,0,0:0:0:0:
240,128,26690,1,0,0:0:0:0:
496,128,26790,1,0,0:0:0:0:
272,128,26890,1,0,0:0:0:0:
208,192,27090,5,0,0:0:0:0:
384,192,27190,1,0,0:0:0:0:
480,192,27390,1,0,0:0:0:0:
304,192,27490,1,0,0:0:0:0:
208,256,27690,1,0,0:0:0:0:
384,256,27790,1,0,0:0:0:0:
480,256,27990,1,0,0:0:0:0:
144,256,28090,1,0,0:0:0:0:
208,256,28190,1,0,0:0:0:0:
144,256,28290,1,0,0:0:0:0:
64,192,28390,5,0,0:0:0:0:
170,192,28490,2,0,L|208:192,1,37.5
85,192,28590,2,0,L|48:192,1,37.5
256,192,28690,2,0,L|304:192,1,37.5
426,192,28790,2,0,L|464:192,1,37.5
293,192,28890,2,0,L|256:192,1,37.5
426,192,28990,2,0,L|464:192,1,37.5
256,192,29090,2,0,L|208:192,1,37.5
85,192,29190,2,0,L|48:192,1,37.5
464,192,29290,5,0,0:0:0:0:
464,256,29490,1,0,0:0:0:0:
336,256,29540,1,0,0:0:0:0:
256,192,29690,2,0,L|208:192,1,37.5
48,192,29790,2,0,L|0:192,1,37.5
256,192,29890,2,0,L|304:192,1,37.5
427,192,29990,6,0,L|464:192,1,37.5
342,192,30090,2,0,L|304:192,1,37.5
427,192,30190,2,0,L|464:192,1,37.5
256,192,30290,2,0,L|208:192,1,37.5
86,192,30390,2,0,L|48:192,1,37.5
219,192,30490,2,0,L|256:192,1,37.5
86,192,30590,2,0,L|48:192,1,37.5
256,192,30690,2,0,L|304:192,1,37.5
427,192,30790,2,0,L|464:192,1,37.5
48,192,30890,5,0,0:0:0:0:
48,256,31090,1,0,0:0:0:0:
176,256,31140,1,0,0:0:0:0:
256,192,31290,2,0,L|304:192,1,37.5
464,192,31390,2,0,L|512:192,1,37.5
256,192,31490,2,0,L|208:192,1,37.5
85,192,31590,6,0,L|48:192,1,37.5
170,192,31690,2,0,L|208:192,1,37.5
85,192,31790,2,0,L|48:192,1,37.5
256,192,31890,2,0,L|304:192,1,37.5
426,192,31990,2,0,L|464:192,1,37.5
293,192,32090,2,0,L|256:192,1,37.5
426,192,32190,2,0,L|464:192,1,37.5
256,192,32290,2,0,L|208:192,1,37.5
85,192,32390,2,0,L|48:192,1,37.5
464,192,32490,5,0,0:0:0:0:
464,256,32690,1,0,0:0:0:0:
336,256,32740,1,0,0:0:0:0:
256,192,32890,2,0,L|208:192,1,37.5
48,192,32990,2,0,L|0:192,1,37.5
256,192,33090,2,0,L|304:192,1,37.5
427,192,33190,6,0,L|464:192,1,37.5
342,192,33290,2,0,L|304:192,1,37.5
427,192,33390,2,0,L|464:192,1,37.5
256,192,33490,2,0,L|208:192,1,37.5
86,192,33590,2,0,L|48:192,1,37.5
219,192,33690,2,0,L|256:192,1,37.5
86,192,33790,2,0,L|48:192,1,37.5
256,192,33890,2,0,L|304:192,1,37.5
427,192,33990,2,0,L|464:192,1,37.5
192,192,34090,2,0,L|144:192,1,37.5
427,192,34190,2,0,L|464:192,1,37.5
256,192,34290,2,0,L|80:192,1,150
144,144,34790,6,0,L|16:144,1,112.5
352,144,34990,2,0,L|400:144,1,37.5
208,144,35090,2,0,L|160:144,1,37.5
416,144,35190,2,0,P|480:144|480:144,1,37.5
160,256,35590,2,0,L|48:256,1,112.5
320,256,35790,2,0,L|432:256,1,112.5
64,256,35990,2,0,P|32:256|16:256,1,37.5
352,176,36190,6,0,L|400:176,1,37.5
176,176,36290,2,0,L|128:176,1,37.5
416,112,36390,2,0,P|455:111|464:112,1,37.5
144,112,36590,2,0,L|96:112,1,37.5
336,112,36690,2,0,L|384:112,1,37.5
224,80,36790,2,0,L|112:80,1,112.5
432,192,36990,2,0,P|480:256|368:288,1,225
448,160,37990,5,0,0:0:0:0:
448,96,38090,1,0,0:0:0:0:
336,160,38190,1,0,0:0:0:0:
448,160,38290,1,0,0:0:0:0:
256,160,38390,1,0,0:0:0:0:
448,160,38523,1,0,0:0:0:0:
512,160,38656,1,0,0:0:0:0:
128,160,38790,5,0,0:0:0:0:
64,160,38890,1,0,0:0:0:0:
176,160,38990,1,0,0:0:0:0:
64,160,39090,1,0,0:0:0:0:
256,160,39190,1,0,0:0:0:0:
64,160,39290,1,0,0:0:0:0:
320,160,39390,1,0,0:0:0:0:
384,160,39490,1,0,0:0:0:0:
176,160,39590,2,0,L|48:160,1,100
336,160,39790,5,0,0:0:0:0:
368,160,39890,1,0,0:0:0:0:
320,160,39990,1,0,0:0:0:0:
256,160,40090,1,0,0:0:0:0:
192,160,40190,1,0,0:0:0:0:
128,160,40290,1,0,0:0:0:0:
96,192,40390,5,0,0:0:0:0:
416,192,40490,1,0,0:0:0:0:
448,192,40690,1,0,0:0:0:0:
64,192,40790,1,0,0:0:0:0:
32,192,40990,1,0,0:0:0:0:
480,192,41090,1,0,0:0:0:0:
