osu file format v14

[General]
AudioFilename: saishuu_kichiku_kumikyoku_nico_nico_douga(sm2777541).mp3
AudioLeadIn: 0
PreviewTime: 0
Countdown: 0
SampleSet: Soft
StackLeniency: 0.7
Mode: 0
LetterboxInBreaks: 0
WidescreenStoryboard: 0

[Editor]
DistanceSpacing: 0.8
BeatDivisor: 2
GridSize: 16
TimelineZoom: 3.599998

[Metadata]
Title:Saishuu Kichiku Kumikyoku NicoNicoDouga
TitleUnicode:Saishuu Kichiku Kumikyoku NicoNicoDouga
Artist:Nico Nico Douga
ArtistUnicode:Nico Nico Douga
Creator:AcidSnow1
Version:wip
Source:
Tags:niconico imouto flandre s nicovideo
BeatmapID:976257
BeatmapSetID:455452

[Difficulty]
HPDrainRate:7
CircleSize:5
OverallDifficulty:7
ApproachRate:7
SliderMultiplier:1.6
SliderTickRate:2

[Events]
//Background and Video events
Video,0,"c_saishuu_kichiku_kumikyoku_nico_nico_douga(sm2777541).avi"
0,0,"wannadie.jpg",0,0
//Break Periods
2,67355,76155
//Storyboard Layer 0 (Background)
//Storyboard Layer 1 (Fail)
//Storyboard Layer 2 (Pass)
//Storyboard Layer 3 (Foreground)
//Storyboard Sound Samples

[TimingPoints]
9855,300,4,2,0,100,1,0
48262,-100,4,2,0,100,0,0

[HitObjects]
256,192,9855,12,0,11655,0:0:0:0:
256,192,12255,12,0,14055,0:0:0:0:
256,192,14655,12,0,17055,0:0:0:0:
256,192,18255,6,0,B|240:176|224:160|224:144,16,40
352,176,19755,2,0,B|352:64|240:96,1,160
176,160,20355,2,0,B|128:208|272:304,1,160
336,256,20955,2,0,B|112:256,2,160,0|0|4,0:0|0:0|0:0,0:0:0:0:
304,160,21855,5,2,0:0:0:0:
192,160,22155,1,8,0:0:0:0:
304,160,22455,1,2,0:0:0:0:
192,160,22755,1,8,0:0:0:0:
128,224,23055,2,0,B|192:208|224:240,3,80,0|0|0|4,0:0|0:0|0:0|0:0,0:0:0:0:
224,240,23655,2,0,B|384:208,1,160,0|6,0:0|0:0,0:0:0:0:
304,144,24255,5,0,0:0:0:0:
240,144,24555,2,0,B|160:96|112:224,1,160
96,288,25155,1,4,0:0:0:0:
192,288,25455,6,0,B|288:256,3,80
208,320,26055,2,0,B|320:256|272:160,1,160,0|4,0:0|0:0,0:0:0:0:
400,128,26655,5,4,0:0:0:0:
400,272,26955,1,2,0:0:0:0:
400,128,27255,1,4,0:0:0:0:
400,272,27555,1,2,0:0:0:0:
256,192,27855,12,0,28755,0:0:0:0:
336,192,29055,5,2,0:0:0:0:
240,144,29355,1,8,0:0:0:0:
336,192,29655,1,2,0:0:0:0:
240,144,29955,1,8,0:0:0:0:
336,192,30255,2,0,B|272:256|192:224|160:112|144:64|208:48|256:64,1,320
352,112,31455,5,0,0:0:0:0:
288,144,31755,1,0,0:0:0:0:
224,176,32055,1,0,0:0:0:0:
160,208,32355,1,0,0:0:0:0:
144,272,32655,2,0,B|352:272,1,160,8|6,0:0|0:0,0:0:0:0:
368,192,33255,2,0,B|160:192,1,160,8|6,0:0|0:0,0:0:0:0:
128,112,33855,5,0,0:0:0:0:
208,112,34155,1,0,0:0:0:0:
128,192,34455,1,0,0:0:0:0:
208,192,34755,1,2,0:0:0:0:
128,272,35055,2,0,B|320:272|368:192|432:288,1,320
368,224,36255,5,0,0:0:0:0:
272,208,36555,1,0,0:0:0:0:
288,112,36855,1,0,0:0:0:0:
384,128,37155,1,0,0:0:0:0:
256,192,37455,12,0,38655,0:0:0:0:
144,112,39255,6,0,L|224:112,1,80
256,112,39555,1,0,0:0:0:0:
208,160,39705,2,0,L|288:160,3,80
320,192,40305,1,0,0:0:0:0:
288,208,40455,2,0,L|144:208,3,80
176,208,41055,2,0,L|176:320,3,80,0|2|0|2,0:0|0:0|0:0|0:0,0:0:0:0:
224,288,41655,2,0,L|224:208,3,80,0|2|0|2,0:0|0:0|0:0|0:0,0:0:0:0:
272,208,42255,2,0,L|272:304,3,80,0|2|0|10,0:0|0:0|0:0|0:0,0:0:0:0:
320,288,42855,2,0,L|320:208,3,80,0|2|0|6,0:0|0:0|0:0|0:0,0:0:0:0:
320,144,43455,5,0,0:0:0:0:
208,144,43755,1,8,0:0:0:0:
320,144,44055,1,0,0:0:0:0:
208,144,44355,1,8,0:0:0:0:
208,256,44655,1,0,0:0:0:0:
320,256,44955,1,8,0:0:0:0:
208,256,45255,1,0,0:0:0:0:
320,256,45555,1,2,0:0:0:0:
160,144,45855,1,0,0:0:0:0:
208,144,46155,2,0,L|304:144,1,80
256,192,46455,12,4,47955,0:0:0:0:
160,176,48255,5,0,0:0:0:0:
224,192,48555,1,0,0:0:0:0:
288,208,48855,1,0,0:0:0:0:
352,224,49155,1,0,0:0:0:0:
352,288,49455,2,0,B|160:288|160:288|112:240|64:192|64:192|64:32,1,480
144,64,50655,5,0,0:0:0:0:
176,64,50805,2,0,L|256:64,1,80
288,64,51105,2,0,L|384:64,3,80
368,96,51705,2,0,L|368:176,4,80,0|0|0|0|6,0:0|0:0|0:0|0:0|0:0,0:0:0:0:
256,224,52755,5,0,0:0:0:0:
224,224,52905,1,0,0:0:0:0:
192,224,53055,2,0,L|192:112,1,80
240,144,53355,1,0,0:0:0:0:
272,144,53505,1,2,0:0:0:0:
368,192,53955,1,0,0:0:0:0:
368,224,54105,1,0,0:0:0:0:
352,256,54255,2,0,L|288:208,1,80
288,256,54555,1,0,0:0:0:0:
256,256,54705,1,4,0:0:0:0:
160,176,55155,5,0,0:0:0:0:
128,192,55305,1,0,0:0:0:0:
96,208,55455,2,0,L|176:240,2,80
96,208,55905,2,0,L|96:96,2,80
96,208,56355,2,0,L|96:304,1,80
256,192,56655,12,6,57555,0:0:0:0:
176,96,57855,6,0,L|272:96,3,80
288,96,58455,2,0,L|288:176,3,80
256,192,59055,2,0,L|160:240,3,80
192,256,59655,1,2,0:0:0:0:
288,256,59955,1,0,0:0:0:0:
288,256,60105,1,0,0:0:0:0:
288,256,60255,6,0,L|448:64,2,240
288,256,61305,1,0,0:0:0:0:
288,256,61455,2,0,B|96:256|96:256|80:176,2,240,0|0|10,0:0|0:0|0:0,0:0:0:0:
320,192,62655,6,0,L|240:192,1,80
288,128,62955,2,0,L|368:128,1,80
320,64,63255,2,0,P|239:62|160:112,1,160
192,128,63705,1,0,0:0:0:0:
224,144,63855,2,0,B|224:288|224:304|368:288|416:160,1,320,0|2,0:0|0:0,0:0:0:0:
384,128,64755,5,0,0:0:0:0:
336,80,65055,1,0,0:0:0:0:
288,128,65355,1,0,0:0:0:0:
336,176,65655,1,4,0:0:0:0:
336,240,65955,1,0,0:0:0:0:
336,240,66105,2,0,B|112:256|96:256|96:144,2,280,0|0|4,0:0|0:0|0:0,0:0:0:0:
256,128,77055,6,0,L|400:128,2,120
256,192,77655,2,0,L|128:192,2,120
256,256,78255,2,0,L|400:256,2,120
256,256,78855,1,2,0:0:0:0:
256,192,79080,1,2,0:0:0:0:
256,128,79305,1,2,0:0:0:0:
256,64,79455,6,0,P|336:80|352:144,2,120
256,64,80055,2,0,P|176:80|128:144,1,160
129,139,80505,2,0,L|304:144,1,160
320,144,80955,2,0,L|400:144,1,80
400,176,81255,1,2,0:0:0:0:
400,176,81455,1,2,0:0:0:0:
400,176,81655,1,10,0:0:0:0:
400,256,81855,6,0,L|208:256,1,160
208,256,82305,1,0,0:0:0:0:
208,256,82455,1,0,0:0:0:0:
208,256,82605,1,0,0:0:0:0:
208,256,82755,1,0,0:0:0:0:
208,192,83055,2,0,P|208:64|288:48,1,160
288,64,83505,2,0,P|288:192|208:208,1,160
256,128,83955,2,0,L|240:208,1,80
144,288,84255,6,0,L|240:288,1,80
256,288,84555,2,0,L|352:288,1,80
368,288,84855,2,0,L|448:288,1,80
448,288,85155,1,0,0:0:0:0:
448,288,85305,1,0,0:0:0:0:
256,192,85455,12,4,86355,0:0:0:0:
336,96,86655,6,0,P|448:160|416:208,1,160
448,176,87105,2,0,P|384:240|272:192,1,160
304,208,87555,1,0,0:0:0:0:
224,112,87855,6,0,P|96:112|64:128,1,160,0|8,0:0|0:0,0:0:0:0:
224,256,88455,2,0,P|128:288|48:240,1,160,0|8,0:0|0:0,0:0:0:0:
96,192,89055,6,0,L|256:192,1,160
288,192,89505,2,0,P|336:128|384:208,1,160
400,192,89955,2,0,L|400:288,1,80
304,320,90405,2,0,L|400:320,2,80
272,320,90855,2,0,L|192:320,2,80
192,256,91455,5,0,0:0:0:0:
304,192,91755,1,8,0:0:0:0:
192,128,92055,1,2,0:0:0:0:
304,64,92355,1,8,0:0:0:0:
304,64,92505,1,0,0:0:0:0:
304,64,92655,1,2,0:0:0:0:
432,64,92955,1,8,0:0:0:0:
432,64,93105,1,0,0:0:0:0:
432,64,93255,1,2,0:0:0:0:
368,160,93555,1,8,0:0:0:0:
368,160,93705,1,0,0:0:0:0:
368,160,93855,6,2,L|496:272,3,160
400,272,95055,2,2,L|224:272,3,160,2|2|2|6,0:0|0:0|0:0|0:0,0:0:0:0:
208,192,96255,5,0,0:0:0:0:
304,192,96555,1,8,0:0:0:0:
192,192,96855,1,0,0:0:0:0:
320,192,97155,1,8,0:0:0:0:
176,160,97455,2,0,L|80:160,2,80,0|0|8,0:0|0:0|0:0,0:0:0:0:
320,224,98055,2,2,P|400:224|368:320,1,160
224,320,98655,6,0,L|64:320,1,160,0|8,0:0|0:0,0:0:0:0:
272,224,99255,2,0,L|448:224,1,160,0|8,0:0|0:0,0:0:0:0:
224,112,99855,2,0,L|112:112,2,80,0|0|8,0:0|0:0|0:0,0:0:0:0:
272,16,100455,2,2,L|432:16,1,160,2|6,0:0|0:0,0:0:0:0:
448,112,101055,6,0,L|448:208,1,80,2|0,0:0|0:0,0:0:0:0:
384,192,101355,2,0,L|384:112,1,80,2|0,0:0|0:0,0:0:0:0:
320,112,101655,2,0,L|320:192,1,80,2|0,0:0|0:0,0:0:0:0:
256,192,101955,2,0,L|256:112,1,80,2|0,0:0|0:0,0:0:0:0:
256,192,102255,6,0,L|256:272,1,80,2|0,0:0|0:0,0:0:0:0:
192,272,102555,2,0,L|192:192,1,80,2|0,0:0|0:0,0:0:0:0:
128,192,102855,2,0,L|128:272,1,80,2|0,0:0|0:0,0:0:0:0:
64,272,103155,2,0,L|64:192,1,80,2|0,0:0|0:0,0:0:0:0:
80,128,103455,6,0,L|80:80,2,40,8|0|0,0:0|0:0|0:0,0:0:0:0:
144,112,103755,2,0,L|144:192,1,80,8|0,0:0|0:0,0:0:0:0:
208,192,104055,2,0,L|208:288,1,80,8|0,0:0|0:0,0:0:0:0:
272,272,104355,2,0,L|272:176,1,80,8|0,0:0|0:0,0:0:0:0:
336,192,104655,2,0,L|336:96,1,80,8|0,0:0|0:0,0:0:0:0:
400,112,104955,2,0,L|400:32,1,80,8|0,0:0|0:0,0:0:0:0:
256,192,105255,12,4,105855,0:0:0:0:
208,160,106155,5,0,0:0:0:0:
304,224,106455,1,2,0:0:0:0:
256,288,106755,1,0,0:0:0:0:
208,288,106905,2,0,B|32:192|96:208,1,160
112,160,107355,2,0,L|256:144,1,80
240,176,107655,1,2,0:0:0:0:
240,176,107955,1,8,0:0:0:0:
304,112,108255,6,0,L|416:112,3,80
384,160,108855,2,2,P|160:144|144:160,1,240
208,176,109455,1,0,0:0:0:0:
208,176,109605,1,0,0:0:0:0:
208,176,109755,1,2,0:0:0:0:
176,288,110055,1,4,0:0:0:0:
288,240,110655,6,2,B|336:192|400:192|400:192,2,120,2|10|2,0:0|0:0|0:0,0:0:0:0:
224,240,111255,2,2,L|96:240,2,120,2|10|2,0:0|0:0|0:0,0:0:0:0:
256,176,111855,2,4,L|256:64,2,106.666666666667
256,240,112605,1,8,0:0:0:0:
256,240,112755,1,8,0:0:0:0:
256,304,113055,6,0,L|128:160,3,160,0|8|0|8,0:0|0:0|0:0|0:0,0:0:0:0:
192,128,114255,2,0,P|256:96|336:96,2,106.666666666667,0|8|0,0:0|0:0|0:0,0:0:0:0:
96,96,114855,1,4,0:0:0:0:
80,160,115005,1,4,0:0:0:0:
96,224,115155,1,4,0:0:0:0:
144,272,115305,1,4,0:0:0:0:
208,272,115455,6,0,L|304:272,2,80
224,208,115905,1,0,0:0:0:0:
224,144,116055,2,0,P|320:144|400:192,1,160,0|8,0:0|0:0,0:0:0:0:
384,240,116505,2,2,L|224:240,3,160
304,160,117705,6,14,P|240:96|144:128,1,160
192,160,118155,1,14,0:0:0:0:
208,224,118455,2,14,L|384:224,1,160
384,160,118905,2,14,P|288:64|240:64,1,160
272,128,119355,1,14,0:0:0:0:
272,240,119655,2,14,B|272:320|272:320|192:320,1,160
192,192,120255,5,0,0:0:0:0:
192,128,120405,1,0,0:0:0:0:
256,128,120555,1,0,0:0:0:0:
256,64,120705,1,0,0:0:0:0:
320,64,120855,2,0,L|320:240,1,160,0|2,0:0|0:0,0:0:0:0:
384,176,121305,2,10,P|384:96|432:32,3,160
192,144,122655,5,2,0:0:0:0:
304,192,122805,1,2,0:0:0:0:
192,256,122955,1,2,0:0:0:0:
304,304,123105,1,2,0:0:0:0:
256,192,123255,12,4,124155,0:0:0:0:
288,160,124455,5,0,0:0:0:0:
288,224,124605,1,0,0:0:0:0:
224,256,124755,1,0,0:0:0:0:
224,192,124905,1,0,0:0:0:0:
224,128,125055,2,0,P|288:80|384:96,1,160
368,208,125805,2,2,P|368:304|288:336,1,160
272,320,126255,2,2,L|192:320,2,80
240,256,126705,1,0,0:0:0:0:
304,208,126855,1,2,0:0:0:0:
304,128,127005,1,0,0:0:0:0:
368,96,127155,1,0,0:0:0:0:
304,48,127305,1,0,0:0:0:0:
240,96,127455,6,0,B|128:96|80:128|64:256|80:320|112:336|208:336|304:320|368:288,1,560
416,224,128655,2,0,L|416:144,2,80
336,112,129105,1,0,0:0:0:0:
256,112,129255,1,0,0:0:0:0:
176,128,129405,1,0,0:0:0:0:
112,176,129555,1,0,0:0:0:0:
64,240,129705,1,0,0:0:0:0:
112,304,129855,6,2,B|128:288|128:288|144:320|144:320|160:288|160:288|176:320|176:320|192:288|192:288|208:304,1,160
336,288,130605,2,2,B|352:256|384:288|432:336|480:256,1,160
448,224,131055,2,2,L|368:176,2,80
352,224,131505,1,0,0:0:0:0:
320,128,131655,1,2,0:0:0:0:
224,144,131805,1,0,0:0:0:0:
128,128,131955,1,0,0:0:0:0:
80,208,132105,1,0,0:0:0:0:
144,288,132255,2,2,L|288:288,2,120
416,288,133305,5,0,0:0:0:0:
416,288,133455,1,4,0:0:0:0:
288,144,133755,1,6,0:0:0:0:
128,208,134055,1,4,0:0:0:0:
256,336,134355,1,6,0:0:0:0:
352,192,134655,6,0,P|288:128|208:128,1,160
112,128,135405,2,2,B|128:224|160:304|224:336|304:320,1,240
320,256,136155,1,0,0:0:0:0:
368,208,136305,1,0,0:0:0:0:
304,192,136455,1,0,0:0:0:0:
352,144,136605,1,0,0:0:0:0:
288,128,136755,1,0,0:0:0:0:
336,80,136905,1,0,0:0:0:0:
272,64,137055,1,0,0:0:0:0:
112,128,137355,1,0,0:0:0:0:
64,272,137655,2,0,B|176:288|176:336|256:272|320:272|352:192|384:144,1,320
384,80,138705,6,0,B|288:64|224:80|144:112,1,240
112,160,139305,1,0,0:0:0:0:
160,208,139455,2,2,B|96:224|80:272|112:320,2,80,2|0|2,0:0|0:0|0:0,0:0:0:0:
256,208,140205,2,2,L|368:208,2,80
256,128,140655,1,2,0:0:0:0:
320,112,140805,1,2,0:0:0:0:
384,144,140955,1,2,0:0:0:0:
400,208,141105,1,0,0:0:0:0:
368,272,141255,1,2,0:0:0:0:
304,288,141405,1,0,0:0:0:0:
240,256,141555,1,0,0:0:0:0:
208,192,141705,1,0,0:0:0:0:
176,112,141855,6,0,B|96:64|80:112|80:160|80:208|64:256|64:304|96:320|128:336|160:320|176:256|160:192|159:177|192:128,1,480
256,192,143055,12,0,143955,0:0:0:0:
320,96,144255,6,0,B|448:64|480:112|480:192|448:272|352:304,1,320
336,272,145005,1,0,0:0:0:0:
336,272,145155,1,0,0:0:0:0:
224,272,145455,2,0,P|175:271|96:192,2,160
224,208,146205,1,0,0:0:0:0:
224,208,146355,1,0,0:0:0:0:
256,96,146655,6,0,B|320:96|432:112|448:176|432:272|288:176,1,320
320,256,147405,1,0,0:0:0:0:
320,256,147555,1,0,0:0:0:0:
224,256,147855,5,4,0:0:0:0:
160,240,148155,1,4,0:0:0:0:
144,176,148455,1,4,0:0:0:0:
240,128,149055,6,0,B|320:64|352:80|400:112|432:144|416:176|368:208|288:160,1,320
288,224,149805,1,0,0:0:0:0:
288,224,149955,1,0,0:0:0:0:
224,304,150255,2,0,B|112:288|96:208|96:160,2,160
288,320,151005,1,0,0:0:0:0:
288,320,151155,1,0,0:0:0:0:
384,272,151455,2,0,B|368:176|336:128|288:112|240:112|208:64|160:160,1,320
224,176,152205,1,0,0:0:0:0:
224,176,152355,1,0,0:0:0:0:
224,272,152655,5,4,0:0:0:0:
288,272,152955,1,4,0:0:0:0:
352,272,153255,1,4,0:0:0:0:
416,272,153555,1,4,0:0:0:0:
256,192,153855,12,0,161955,0:0:0:0:
256,64,162255,5,6,0:0:0:0:
368,128,162455,1,6,0:0:0:0:
368,256,162655,1,6,0:0:0:0:
256,320,162855,1,6,0:0:0:0:
144,256,163055,1,6,0:0:0:0:
144,128,163255,1,6,0:0:0:0:
