osu file format v14

[General]
AudioFilename: saishuu_kichiku_kumikyoku_nico_nico_douga(sm2777541).mp3
AudioLeadIn: 0
PreviewTime: 0
Countdown: 0
SampleSet: Soft
StackLeniency: 0.7
Mode: 0
LetterboxInBreaks: 0
WidescreenStoryboard: 0

[Editor]
DistanceSpacing: 0.8
BeatDivisor: 2
GridSize: 32
TimelineZoom: 3.499999

[Metadata]
Title:Saishuu Kichiku Kumikyoku NicoNicoDouga
TitleUnicode:Saishuu Kichiku Kumikyoku NicoNicoDouga
Artist:Nico Nico Douga
ArtistUnicode:Nico Nico Douga
Creator:AcidSnow1
Version:TRASH
Source:
Tags:niconico imouto flandre s nicovideo
BeatmapID:976256
BeatmapSetID:455452

[Difficulty]
HPDrainRate:5
CircleSize:5
OverallDifficulty:5
ApproachRate:5
SliderMultiplier:1.6
SliderTickRate:2

[Events]
//Background and Video events
Video,0,"c_saishuu_kichiku_kumikyoku_nico_nico_douga(sm2777541).avi"
0,0,"wannadie.jpg",0,0
//Break Periods
//Storyboard Layer 0 (Background)
//Storyboard Layer 1 (Fail)
//Storyboard Layer 2 (Pass)
//Storyboard Layer 3 (Foreground)
//Storyboard Sound Samples

[TimingPoints]
210,300,4,2,0,100,1,0

[HitObjects]
256,192,9810,12,0,11010,0:0:0:0:
256,192,12210,12,0,13410,0:0:0:0:
256,192,14610,12,0,17010,0:0:0:0:
160,64,18240,5,0,0:0:0:0:
160,64,18390,1,0,0:0:0:0:
160,64,18540,1,0,0:0:0:0:
160,64,18690,1,0,0:0:0:0:
160,64,18840,1,0,0:0:0:0:
160,64,18990,1,0,0:0:0:0:
160,64,19140,1,0,0:0:0:0:
160,64,19290,1,0,0:0:0:0:
160,64,19440,6,0,B|416:224|416:224|96:288,1,560
123,282,21240,1,0,0:0:0:0:
123,282,21540,1,0,0:0:0:0:
416,64,21840,2,0,B|224:256,2,240
256,128,23040,1,0,0:0:0:0:
256,128,23640,1,0,0:0:0:0:
256,128,23940,1,0,0:0:0:0:
192,288,24240,6,0,B|256:64|352:320,2,240
351,317,25440,1,0,0:0:0:0:
351,317,25740,1,0,0:0:0:0:
351,317,26040,1,0,0:0:0:0:
351,317,26340,1,0,0:0:0:0:
351,317,26606,2,0,B|192:320,5,160
201,319,28290,1,0,0:0:0:0:
201,319,28440,1,0,0:0:0:0:
201,319,28590,1,0,0:0:0:0:
192,320,28740,5,0,0:0:0:0:
201,319,28890,1,0,0:0:0:0:
192,320,29040,1,0,0:0:0:0:
192,320,29340,2,0,B|192:160,1,160
192,160,29940,1,0,0:0:0:0:
192,160,30240,2,0,B|352:160,2,160
160,160,31440,1,0,0:0:0:0:
320,160,31740,1,0,0:0:0:0:
160,160,32040,1,0,0:0:0:0:
320,160,32340,1,0,0:0:0:0:
320,160,32640,2,0,B|160:160,1,160
160,160,33240,2,0,B|320:160,1,160
256,64,33840,5,0,0:0:0:0:
192,128,34140,1,0,0:0:0:0:
320,128,34440,1,0,0:0:0:0:
384,192,34740,1,0,0:0:0:0:
288,192,35040,1,0,0:0:0:0:
224,192,35340,1,0,0:0:0:0:
128,192,35640,1,0,0:0:0:0:
256,96,36240,1,0,0:0:0:0:
192,192,36540,1,0,0:0:0:0:
256,288,36840,1,0,0:0:0:0:
320,192,37140,1,0,0:0:0:0:
256,192,37440,12,0,38640,0:0:0:0:
