osu file format v14

[General]
AudioFilename: Owens.mp3
AudioLeadIn: 0
PreviewTime: -1
Countdown: 1
SampleSet: Normal
StackLeniency: 0.7
Mode: 3
LetterboxInBreaks: 1
SpecialStyle: 0
WidescreenStoryboard: 0

[Editor]
DistanceSpacing: 0.8
BeatDivisor: 4
GridSize: 8
TimelineZoom: 2.7

[Metadata]
Title:Owens
TitleUnicode:Owens
Artist:Nico Nico Douga
ArtistUnicode:Nico Nico Douga
Creator:zZ_Natsu_Zz
Version:Collab
Source:
Tags:
BeatmapID:790945
BeatmapSetID:359711

[Difficulty]
HPDrainRate:8
CircleSize:4
OverallDifficulty:8
ApproachRate:5
SliderMultiplier:1.4
SliderTickRate:1

[Events]
//Background and Video events
//Break Periods
//Storyboard Layer 0 (Background)
//Storyboard Layer 1 (Fail)
//Storyboard Layer 2 (Pass)
//Storyboard Layer 3 (Foreground)
//Storyboard Sound Samples

[TimingPoints]
1278,324.324324324324,4,1,0,0,1,0

[HitObjects]
64,192,1278,5,0,0:0:0:0:
320,192,1278,1,0,0:0:0:0:
448,192,1278,1,0,0:0:0:0:
192,192,1359,1,0,0:0:0:0:
320,192,1440,1,0,0:0:0:0:
64,192,1440,1,0,0:0:0:0:
448,192,1521,1,0,0:0:0:0:
192,192,1602,1,0,0:0:0:0:
320,192,1602,1,0,0:0:0:0:
64,192,1683,1,0,0:0:0:0:
448,192,1764,1,0,0:0:0:0:
192,192,1764,1,0,0:0:0:0:
320,192,1845,1,0,0:0:0:0:
192,192,1926,1,0,0:0:0:0:
320,192,2007,1,0,0:0:0:0:
448,192,2088,1,0,0:0:0:0:
64,192,2169,1,0,0:0:0:0:
192,192,2250,1,0,0:0:0:0:
320,192,2250,1,0,0:0:0:0:
448,192,2332,1,0,0:0:0:0:
320,192,2413,1,0,0:0:0:0:
192,192,2494,1,0,0:0:0:0:
64,192,2575,1,0,0:0:0:0:
448,192,2575,1,0,0:0:0:0:
192,192,2656,1,0,0:0:0:0:
448,192,2737,1,0,0:0:0:0:
320,192,2737,1,0,0:0:0:0:
64,192,2737,1,0,0:0:0:0:
192,192,2818,1,0,0:0:0:0:
64,192,2899,1,0,0:0:0:0:
448,192,2899,1,0,0:0:0:0:
192,192,2980,1,0,0:0:0:0:
320,192,3061,1,0,0:0:0:0:
448,192,3061,1,0,0:0:0:0:
64,192,3142,1,0,0:0:0:0:
320,192,3223,1,0,0:0:0:0:
448,192,3223,1,0,0:0:0:0:
192,192,3223,1,0,0:0:0:0:
64,192,3305,1,0,0:0:0:0:
192,192,3386,1,0,0:0:0:0:
448,192,3386,1,0,0:0:0:0:
320,192,3467,1,0,0:0:0:0:
192,192,3548,1,0,0:0:0:0:
64,192,3548,1,0,0:0:0:0:
448,192,3548,1,0,0:0:0:0:
320,192,3629,1,0,0:0:0:0:
64,192,3710,1,0,0:0:0:0:
448,192,3710,1,0,0:0:0:0:
320,192,3791,1,0,0:0:0:0:
64,192,3872,1,0,0:0:0:0:
192,192,3872,1,0,0:0:0:0:
448,192,3872,1,0,0:0:0:0:
320,192,3953,1,0,0:0:0:0:
64,192,4034,1,0,0:0:0:0:
192,192,4034,1,0,0:0:0:0:
320,192,4115,1,0,0:0:0:0:
448,192,4196,1,0,0:0:0:0:
192,192,4196,1,0,0:0:0:0:
64,192,4277,1,0,0:0:0:0:
192,192,4359,1,0,0:0:0:0:
320,192,4359,1,0,0:0:0:0:
448,192,4440,1,0,0:0:0:0:
64,192,4521,1,0,0:0:0:0:
320,192,4521,1,0,0:0:0:0:
192,192,4602,1,0,0:0:0:0:
448,192,4683,1,0,0:0:0:0:
320,192,4764,1,0,0:0:0:0:
192,192,4845,1,0,0:0:0:0:
64,192,4845,1,0,0:0:0:0:
448,192,4926,1,0,0:0:0:0:
192,192,5007,1,0,0:0:0:0:
320,192,5088,1,0,0:0:0:0:
448,192,5169,1,0,0:0:0:0:
64,192,5169,1,0,0:0:0:0:
320,192,5250,1,0,0:0:0:0:
192,192,5332,1,0,0:0:0:0:
448,192,5332,1,0,0:0:0:0:
320,192,5413,1,0,0:0:0:0:
448,192,5494,1,0,0:0:0:0:
192,192,5494,1,0,0:0:0:0:
64,192,5575,1,0,0:0:0:0:
320,192,5656,1,0,0:0:0:0:
192,192,5656,1,0,0:0:0:0:
448,192,5737,1,0,0:0:0:0:
64,192,5818,1,0,0:0:0:0:
320,192,5818,1,0,0:0:0:0:
192,192,5899,1,0,0:0:0:0:
448,192,5980,1,0,0:0:0:0:
64,192,5980,1,0,0:0:0:0:
320,192,6021,1,0,0:0:0:0:
192,192,6061,1,0,0:0:0:0:
64,192,6102,1,0,0:0:0:0:
320,192,6142,1,0,0:0:0:0:
448,192,6142,1,0,0:0:0:0:
192,192,6223,1,0,0:0:0:0:
64,192,6305,1,0,0:0:0:0:
448,192,6305,1,0,0:0:0:0:
192,192,6345,1,0,0:0:0:0:
320,192,6386,1,0,0:0:0:0:
448,192,6426,1,0,0:0:0:0:
192,192,6467,1,0,0:0:0:0:
320,192,6467,1,0,0:0:0:0:
64,192,6467,1,0,0:0:0:0:
448,192,6548,1,0,0:0:0:0:
64,192,6629,1,0,0:0:0:0:
192,192,6629,1,0,0:0:0:0:
320,192,6710,1,0,0:0:0:0:
448,192,6791,1,0,0:0:0:0:
192,192,6791,1,0,0:0:0:0:
64,192,6791,1,0,0:0:0:0:
320,192,6872,1,0,0:0:0:0:
64,192,6953,1,0,0:0:0:0:
448,192,6953,1,0,0:0:0:0:
192,192,7034,1,0,0:0:0:0:
320,192,7115,1,0,0:0:0:0:
448,192,7115,1,0,0:0:0:0:
192,192,7196,1,0,0:0:0:0:
64,192,7277,1,0,0:0:0:0:
448,192,7359,1,0,0:0:0:0:
320,192,7440,1,0,0:0:0:0:
64,192,7440,1,0,0:0:0:0:
192,192,7521,1,0,0:0:0:0:
320,192,7602,1,0,0:0:0:0:
448,192,7683,1,0,0:0:0:0:
64,192,7764,1,0,0:0:0:0:
320,192,7764,1,0,0:0:0:0:
192,192,7845,1,0,0:0:0:0:
320,192,7926,1,0,0:0:0:0:
448,192,7926,1,0,0:0:0:0:
64,192,7926,1,0,0:0:0:0:
192,192,8007,1,0,0:0:0:0:
320,192,8088,1,0,0:0:0:0:
448,192,8088,1,0,0:0:0:0:
192,192,8169,1,0,0:0:0:0:
64,192,8250,1,0,0:0:0:0:
448,192,8250,1,0,0:0:0:0:
320,192,8332,1,0,0:0:0:0:
192,192,8413,1,0,0:0:0:0:
64,192,8413,1,0,0:0:0:0:
448,192,8413,1,0,0:0:0:0:
320,192,8494,1,0,0:0:0:0:
448,192,8575,1,0,0:0:0:0:
64,192,8656,1,0,0:0:0:0:
192,192,8737,1,0,0:0:0:0:
448,192,8737,1,0,0:0:0:0:
320,192,8737,1,0,0:0:0:0:
64,192,8818,1,0,0:0:0:0:
320,192,8899,1,0,0:0:0:0:
448,192,8980,1,0,0:0:0:0:
320,192,9061,1,0,0:0:0:0:
192,192,9061,1,0,0:0:0:0:
64,192,9061,1,0,0:0:0:0:
448,192,9142,1,0,0:0:0:0:
64,192,9223,1,0,0:0:0:0:
320,192,9223,1,0,0:0:0:0:
192,192,9305,1,0,0:0:0:0:
320,192,9386,1,0,0:0:0:0:
448,192,9386,1,0,0:0:0:0:
192,192,9467,1,0,0:0:0:0:
64,192,9548,1,0,0:0:0:0:
448,192,9548,1,0,0:0:0:0:
320,192,9629,1,0,0:0:0:0:
192,192,9710,1,0,0:0:0:0:
64,192,9710,1,0,0:0:0:0:
448,192,9710,1,0,0:0:0:0:
320,192,9791,1,0,0:0:0:0:
448,192,9872,1,0,0:0:0:0:
320,192,9953,1,0,0:0:0:0:
192,192,10034,1,0,0:0:0:0:
448,192,10034,1,0,0:0:0:0:
64,192,10115,1,0,0:0:0:0:
192,192,10196,1,0,0:0:0:0:
320,192,10277,1,0,0:0:0:0:
448,192,10359,1,0,0:0:0:0:
192,192,10359,1,0,0:0:0:0:
64,192,10359,1,0,0:0:0:0:
320,192,10440,1,0,0:0:0:0:
192,192,10521,1,0,0:0:0:0:
64,192,10521,1,0,0:0:0:0:
448,192,10521,1,0,0:0:0:0:
448,192,10683,1,0,0:0:0:0:
320,192,10764,1,0,0:0:0:0:
64,192,10845,1,0,0:0:0:0:
192,192,10926,1,0,0:0:0:0:
320,192,11007,1,0,0:0:0:0:
448,192,11007,1,0,0:0:0:0:
64,192,11007,1,0,0:0:0:0:
320,192,11169,1,0,0:0:0:0:
192,192,11250,1,0,0:0:0:0:
64,192,11250,1,0,0:0:0:0:
448,192,11250,1,0,0:0:0:0:
64,192,11413,1,0,0:0:0:0:
320,192,11494,1,0,0:0:0:0:
448,192,11494,1,0,0:0:0:0:
64,192,11656,1,0,0:0:0:0:
320,192,11656,1,0,0:0:0:0:
448,192,11818,1,0,0:0:0:0:
320,192,11980,1,0,0:0:0:0:
192,192,11980,1,0,0:0:0:0:
64,192,11980,1,0,0:0:0:0:
448,192,12142,1,0,0:0:0:0:
448,192,12305,1,0,0:0:0:0:
64,192,12305,1,0,0:0:0:0:
192,192,12467,1,0,0:0:0:0:
320,192,12629,1,0,0:0:0:0:
448,192,12629,1,0,0:0:0:0:
192,192,12791,1,0,0:0:0:0:
64,192,12953,1,0,0:0:0:0:
320,192,12953,1,0,0:0:0:0:
448,192,13115,1,0,0:0:0:0:
192,192,13277,1,0,0:0:0:0:
320,192,13277,1,0,0:0:0:0:
64,192,13440,1,0,0:0:0:0:
192,192,13602,1,0,0:0:0:0:
448,192,13602,1,0,0:0:0:0:
320,192,13764,1,0,0:0:0:0:
192,192,13926,1,0,0:0:0:0:
64,192,13926,1,0,0:0:0:0:
320,192,14088,1,0,0:0:0:0:
448,192,14250,1,0,0:0:0:0:
192,192,14250,1,0,0:0:0:0:
320,192,14413,1,0,0:0:0:0:
64,192,14413,1,0,0:0:0:0:
192,192,14575,1,0,0:0:0:0:
320,192,14575,1,0,0:0:0:0:
448,192,14737,1,0,0:0:0:0:
192,192,14737,1,0,0:0:0:0:
320,192,14899,1,0,0:0:0:0:
192,192,15061,1,0,0:0:0:0:
64,192,15223,1,0,0:0:0:0:
320,192,15223,1,0,0:0:0:0:
192,192,15386,1,0,0:0:0:0:
320,192,15548,1,0,0:0:0:0:
64,192,15548,1,0,0:0:0:0:
448,192,15548,1,0,0:0:0:0:
192,192,15629,1,0,0:0:0:0:
320,192,15710,1,0,0:0:0:0:
64,192,15710,1,0,0:0:0:0:
448,192,15710,1,0,0:0:0:0:
448,192,15872,1,0,0:0:0:0:
64,192,15872,1,0,0:0:0:0:
192,192,16034,1,0,0:0:0:0:
64,192,16196,1,0,0:0:0:0:
320,192,16196,1,0,0:0:0:0:
448,192,16196,1,0,0:0:0:0:
320,192,16359,1,0,0:0:0:0:
448,192,16521,1,0,0:0:0:0:
64,192,16521,1,0,0:0:0:0:
192,192,16521,1,0,0:0:0:0:
320,192,16683,1,0,0:0:0:0:
448,192,16845,1,0,0:0:0:0:
192,192,16845,1,0,0:0:0:0:
64,192,16845,1,0,0:0:0:0:
192,192,17007,1,0,0:0:0:0:
320,192,17007,1,0,0:0:0:0:
64,192,17169,1,0,0:0:0:0:
448,192,17169,1,0,0:0:0:0:
320,192,17169,1,0,0:0:0:0:
192,192,17332,1,0,0:0:0:0:
448,192,17332,1,0,0:0:0:0:
320,192,17494,1,0,0:0:0:0:
64,192,17656,1,0,0:0:0:0:
192,192,17818,1,0,0:0:0:0:
448,192,17818,1,0,0:0:0:0:
320,192,17980,1,0,0:0:0:0:
64,192,18142,1,0,0:0:0:0:
448,192,18142,1,0,0:0:0:0:
192,192,18142,1,0,0:0:0:0:
192,192,18305,1,0,0:0:0:0:
320,192,18467,1,0,0:0:0:0:
448,192,18467,1,0,0:0:0:0:
64,192,18629,1,0,0:0:0:0:
192,192,18791,1,0,0:0:0:0:
320,192,18791,1,0,0:0:0:0:
448,192,18953,1,0,0:0:0:0:
64,192,19115,1,0,0:0:0:0:
320,192,19115,1,0,0:0:0:0:
448,192,19277,1,0,0:0:0:0:
320,192,19440,1,0,0:0:0:0:
192,192,19440,1,0,0:0:0:0:
64,192,19440,1,0,0:0:0:0:
192,192,19602,1,0,0:0:0:0:
448,192,19602,1,0,0:0:0:0:
320,192,19764,1,0,0:0:0:0:
192,192,19764,1,0,0:0:0:0:
64,192,19926,1,0,0:0:0:0:
320,192,19926,1,0,0:0:0:0:
192,192,20088,1,0,0:0:0:0:
448,192,20088,1,0,0:0:0:0:
320,192,20088,1,0,0:0:0:0:
64,192,20250,1,0,0:0:0:0:
192,192,20413,1,0,0:0:0:0:
320,192,20413,1,0,0:0:0:0:
448,192,20575,1,0,0:0:0:0:
192,192,20737,1,0,0:0:0:0:
64,192,20737,1,0,0:0:0:0:
320,192,20737,1,0,0:0:0:0:
64,192,20818,1,0,0:0:0:0:
192,192,20899,1,0,0:0:0:0:
448,192,20899,1,0,0:0:0:0:
320,192,20899,1,0,0:0:0:0:
448,192,20980,1,0,0:0:0:0:
64,192,21061,1,0,0:0:0:0:
320,192,21061,1,0,0:0:0:0:
192,192,21061,1,0,0:0:0:0:
64,192,21142,1,0,0:0:0:0:
192,192,21223,1,0,0:0:0:0:
320,192,21223,1,0,0:0:0:0:
448,192,21223,1,0,0:0:0:0:
448,192,21305,1,0,0:0:0:0:
320,192,21386,1,0,0:0:0:0:
192,192,21386,1,0,0:0:0:0:
64,192,21386,1,0,0:0:0:0:
448,192,21467,1,0,0:0:0:0:
64,192,21548,1,0,0:0:0:0:
320,192,21548,1,0,0:0:0:0:
192,192,21588,1,0,0:0:0:0:
320,192,21629,1,0,0:0:0:0:
448,192,21669,1,0,0:0:0:0:
192,192,21710,1,0,0:0:0:0:
64,192,21710,1,0,0:0:0:0:
320,192,21791,1,0,0:0:0:0:
64,192,21872,1,0,0:0:0:0:
448,192,21872,1,0,0:0:0:0:
192,192,21913,1,0,0:0:0:0:
320,192,21953,1,0,0:0:0:0:
448,192,21994,1,0,0:0:0:0:
320,192,22034,1,0,0:0:0:0:
192,192,22034,1,0,0:0:0:0:
64,192,22034,128,0,24629:0:0:0:0:
448,192,22683,1,0,0:0:0:0:
192,192,22845,1,0,0:0:0:0:
320,192,23007,1,0,0:0:0:0:
448,192,23169,1,0,0:0:0:0:
448,192,23332,1,0,0:0:0:0:
192,192,23332,1,0,0:0:0:0:
320,192,23372,1,0,0:0:0:0:
192,192,23413,1,0,0:0:0:0:
448,192,23453,1,0,0:0:0:0:
320,192,23494,1,0,0:0:0:0:
192,192,23534,1,0,0:0:0:0:
448,192,23575,1,0,0:0:0:0:
320,192,23615,1,0,0:0:0:0:
192,192,23656,1,0,0:0:0:0:
448,192,23696,1,0,0:0:0:0:
320,192,23737,1,0,0:0:0:0:
192,192,23777,1,0,0:0:0:0:
448,192,23818,1,0,0:0:0:0:
320,192,23859,1,0,0:0:0:0:
192,192,23899,1,0,0:0:0:0:
448,192,23940,1,0,0:0:0:0:
320,192,23980,128,0,24629:0:0:0:0:
192,192,24629,1,0,0:0:0:0:
448,192,24629,1,0,0:0:0:0:
320,192,24710,1,0,0:0:0:0:
192,192,24791,1,0,0:0:0:0:
448,192,24872,1,0,0:0:0:0:
64,192,24872,1,0,0:0:0:0:
320,192,24953,1,0,0:0:0:0:
192,192,25034,1,0,0:0:0:0:
64,192,25115,1,0,0:0:0:0:
320,192,25115,1,0,0:0:0:0:
192,192,25196,1,0,0:0:0:0:
64,192,25277,1,0,0:0:0:0:
448,192,25359,1,0,0:0:0:0:
320,192,25359,1,0,0:0:0:0:
192,192,25440,1,0,0:0:0:0:
320,192,25521,1,0,0:0:0:0:
64,192,25602,1,0,0:0:0:0:
448,192,25602,1,0,0:0:0:0:
192,192,25764,1,0,0:0:0:0:
320,192,25764,1,0,0:0:0:0:
64,192,25926,1,0,0:0:0:0:
320,192,25926,1,0,0:0:0:0:
192,192,26007,1,0,0:0:0:0:
64,192,26088,1,0,0:0:0:0:
448,192,26169,1,0,0:0:0:0:
320,192,26169,1,0,0:0:0:0:
192,192,26250,1,0,0:0:0:0:
320,192,26332,1,0,0:0:0:0:
64,192,26413,1,0,0:0:0:0:
448,192,26413,1,0,0:0:0:0:
192,192,26494,1,0,0:0:0:0:
64,192,26575,1,0,0:0:0:0:
320,192,26656,1,0,0:0:0:0:
448,192,26656,1,0,0:0:0:0:
192,192,26737,1,0,0:0:0:0:
320,192,26818,1,0,0:0:0:0:
448,192,26899,1,0,0:0:0:0:
64,192,26899,1,0,0:0:0:0:
192,192,27061,1,0,0:0:0:0:
320,192,27061,1,0,0:0:0:0:
64,192,27223,1,0,0:0:0:0:
192,192,27223,1,0,0:0:0:0:
320,192,27305,1,0,0:0:0:0:
64,192,27386,1,0,0:0:0:0:
192,192,27467,1,0,0:0:0:0:
448,192,27467,1,0,0:0:0:0:
320,192,27548,1,0,0:0:0:0:
448,192,27629,1,0,0:0:0:0:
64,192,27710,1,0,0:0:0:0:
192,192,27710,1,0,0:0:0:0:
448,192,27710,1,0,0:0:0:0:
320,192,27791,1,0,0:0:0:0:
448,192,27872,1,0,0:0:0:0:
320,192,27953,1,0,0:0:0:0:
64,192,27953,1,0,0:0:0:0:
192,192,28034,1,0,0:0:0:0:
320,192,28115,1,0,0:0:0:0:
64,192,28196,1,0,0:0:0:0:
192,192,28196,1,0,0:0:0:0:
192,192,28359,1,0,0:0:0:0:
320,192,28359,1,0,0:0:0:0:
448,192,28521,1,0,0:0:0:0:
64,192,28521,1,0,0:0:0:0:
320,192,28602,1,0,0:0:0:0:
192,192,28683,1,0,0:0:0:0:
448,192,28764,1,0,0:0:0:0:
64,192,28764,1,0,0:0:0:0:
320,192,28845,1,0,0:0:0:0:
192,192,28926,1,0,0:0:0:0:
448,192,29007,1,0,0:0:0:0:
320,192,29007,1,0,0:0:0:0:
192,192,29088,1,0,0:0:0:0:
64,192,29169,1,0,0:0:0:0:
448,192,29250,1,0,0:0:0:0:
192,192,29250,1,0,0:0:0:0:
320,192,29332,1,0,0:0:0:0:
448,192,29413,1,0,0:0:0:0:
192,192,29413,1,0,0:0:0:0:
192,192,29494,1,0,0:0:0:0:
64,192,29494,1,0,0:0:0:0:
320,192,29656,1,0,0:0:0:0:
192,192,29656,1,0,0:0:0:0:
320,192,29818,1,0,0:0:0:0:
448,192,29818,1,0,0:0:0:0:
64,192,29899,1,0,0:0:0:0:
192,192,29980,1,0,0:0:0:0:
448,192,30061,1,0,0:0:0:0:
64,192,30061,1,0,0:0:0:0:
320,192,30142,1,0,0:0:0:0:
192,192,30223,1,0,0:0:0:0:
320,192,30305,1,0,0:0:0:0:
64,192,30305,1,0,0:0:0:0:
448,192,30386,1,0,0:0:0:0:
320,192,30467,1,0,0:0:0:0:
64,192,30548,1,0,0:0:0:0:
192,192,30548,1,0,0:0:0:0:
320,192,30629,1,0,0:0:0:0:
448,192,30710,1,0,0:0:0:0:
192,192,30791,1,0,0:0:0:0:
64,192,30791,1,0,0:0:0:0:
192,192,30953,1,0,0:0:0:0:
320,192,30953,1,0,0:0:0:0:
448,192,31115,1,0,0:0:0:0:
320,192,31115,1,0,0:0:0:0:
192,192,31196,1,0,0:0:0:0:
64,192,31277,1,0,0:0:0:0:
448,192,31359,1,0,0:0:0:0:
192,192,31359,1,0,0:0:0:0:
320,192,31440,1,0,0:0:0:0:
64,192,31521,1,0,0:0:0:0:
192,192,31602,1,0,0:0:0:0:
448,192,31602,1,0,0:0:0:0:
320,192,31683,1,0,0:0:0:0:
192,192,31764,1,0,0:0:0:0:
320,192,31845,1,0,0:0:0:0:
64,192,31845,1,0,0:0:0:0:
448,192,31926,1,0,0:0:0:0:
64,192,32007,1,0,0:0:0:0:
448,192,32088,1,0,0:0:0:0:
320,192,32088,1,0,0:0:0:0:
64,192,32250,1,0,0:0:0:0:
320,192,32250,1,0,0:0:0:0:
320,192,32413,1,0,0:0:0:0:
448,192,32413,1,0,0:0:0:0:
64,192,32494,1,0,0:0:0:0:
192,192,32575,1,0,0:0:0:0:
320,192,32656,1,0,0:0:0:0:
448,192,32656,1,0,0:0:0:0:
192,192,32737,1,0,0:0:0:0:
64,192,32818,1,0,0:0:0:0:
192,192,32899,1,0,0:0:0:0:
448,192,32899,1,0,0:0:0:0:
320,192,32980,1,0,0:0:0:0:
448,192,33061,1,0,0:0:0:0:
320,192,33142,1,0,0:0:0:0:
192,192,33142,1,0,0:0:0:0:
64,192,33223,1,0,0:0:0:0:
448,192,33305,1,0,0:0:0:0:
320,192,33386,1,0,0:0:0:0:
192,192,33386,1,0,0:0:0:0:
192,192,33548,1,0,0:0:0:0:
64,192,33548,1,0,0:0:0:0:
320,192,33710,1,0,0:0:0:0:
448,192,33710,1,0,0:0:0:0:
64,192,33791,1,0,0:0:0:0:
192,192,33872,1,0,0:0:0:0:
320,192,33953,1,0,0:0:0:0:
448,192,33953,1,0,0:0:0:0:
64,192,34034,1,0,0:0:0:0:
320,192,34115,1,0,0:0:0:0:
192,192,34196,1,0,0:0:0:0:
64,192,34196,1,0,0:0:0:0:
320,192,34277,1,0,0:0:0:0:
448,192,34359,1,0,0:0:0:0:
64,192,34440,1,0,0:0:0:0:
320,192,34440,1,0,0:0:0:0:
192,192,34521,1,0,0:0:0:0:
64,192,34602,1,0,0:0:0:0:
320,192,34683,1,0,0:0:0:0:
448,192,34683,1,0,0:0:0:0:
192,192,34764,1,0,0:0:0:0:
64,192,34845,1,0,0:0:0:0:
320,192,34845,1,0,0:0:0:0:
448,192,34926,1,0,0:0:0:0:
320,192,35007,1,0,0:0:0:0:
192,192,35007,1,0,0:0:0:0:
64,192,35007,1,0,0:0:0:0:
448,192,35088,1,0,0:0:0:0:
320,192,35169,1,0,0:0:0:0:
192,192,35250,1,0,0:0:0:0:
64,192,35250,1,0,0:0:0:0:
320,192,35332,1,0,0:0:0:0:
448,192,35413,1,0,0:0:0:0:
64,192,35494,1,0,0:0:0:0:
320,192,35494,1,0,0:0:0:0:
192,192,35575,1,0,0:0:0:0:
320,192,35656,1,0,0:0:0:0:
448,192,35737,1,0,0:0:0:0:
192,192,35737,1,0,0:0:0:0:
320,192,35818,1,0,0:0:0:0:
192,192,35899,1,0,0:0:0:0:
64,192,35980,1,0,0:0:0:0:
320,192,35980,1,0,0:0:0:0:
192,192,36142,1,0,0:0:0:0:
448,192,36142,1,0,0:0:0:0:
320,192,36305,1,0,0:0:0:0:
64,192,36305,1,0,0:0:0:0:
192,192,36386,1,0,0:0:0:0:
448,192,36467,1,0,0:0:0:0:
320,192,36548,1,0,0:0:0:0:
192,192,36548,1,0,0:0:0:0:
64,192,36629,1,0,0:0:0:0:
192,192,36710,1,0,0:0:0:0:
320,192,36791,1,0,0:0:0:0:
448,192,36791,1,0,0:0:0:0:
192,192,36872,1,0,0:0:0:0:
64,192,36953,1,0,0:0:0:0:
448,192,37034,1,0,0:0:0:0:
192,192,37034,1,0,0:0:0:0:
320,192,37115,1,0,0:0:0:0:
448,192,37196,1,0,0:0:0:0:
64,192,37277,1,0,0:0:0:0:
192,192,37277,1,0,0:0:0:0:
192,192,37440,1,0,0:0:0:0:
448,192,37440,1,0,0:0:0:0:
64,192,37602,1,0,0:0:0:0:
320,192,37602,1,0,0:0:0:0:
192,192,37683,1,0,0:0:0:0:
448,192,37764,1,0,0:0:0:0:
320,192,37845,1,0,0:0:0:0:
192,192,37845,1,0,0:0:0:0:
64,192,37926,1,0,0:0:0:0:
320,192,38007,1,0,0:0:0:0:
192,192,38088,1,0,0:0:0:0:
448,192,38088,1,0,0:0:0:0:
320,192,38169,1,0,0:0:0:0:
192,192,38250,1,0,0:0:0:0:
64,192,38332,1,0,0:0:0:0:
448,192,38332,1,0,0:0:0:0:
192,192,38413,1,0,0:0:0:0:
320,192,38494,1,0,0:0:0:0:
448,192,38575,1,0,0:0:0:0:
192,192,38575,1,0,0:0:0:0:
320,192,38737,1,0,0:0:0:0:
64,192,38737,1,0,0:0:0:0:
320,192,38899,1,0,0:0:0:0:
192,192,38899,1,0,0:0:0:0:
448,192,38980,1,0,0:0:0:0:
320,192,39061,1,0,0:0:0:0:
64,192,39142,1,0,0:0:0:0:
192,192,39142,1,0,0:0:0:0:
320,192,39223,1,0,0:0:0:0:
448,192,39305,1,0,0:0:0:0:
64,192,39386,1,0,0:0:0:0:
320,192,39386,1,0,0:0:0:0:
192,192,39467,1,0,0:0:0:0:
64,192,39548,1,0,0:0:0:0:
320,192,39629,1,0,0:0:0:0:
448,192,39629,1,0,0:0:0:0:
192,192,39710,1,0,0:0:0:0:
64,192,39791,1,0,0:0:0:0:
448,192,39872,1,0,0:0:0:0:
320,192,39872,1,0,0:0:0:0:
64,192,40034,1,0,0:0:0:0:
320,192,40034,1,0,0:0:0:0:
320,192,40196,1,0,0:0:0:0:
448,192,40196,1,0,0:0:0:0:
192,192,40277,1,0,0:0:0:0:
320,192,40359,1,0,0:0:0:0:
448,192,40440,1,0,0:0:0:0:
64,192,40440,1,0,0:0:0:0:
192,192,40521,1,0,0:0:0:0:
320,192,40602,1,0,0:0:0:0:
192,192,40683,1,0,0:0:0:0:
64,192,40683,1,0,0:0:0:0:
320,192,40764,1,0,0:0:0:0:
64,192,40845,1,0,0:0:0:0:
192,192,40845,1,0,0:0:0:0:
320,192,40926,1,0,0:0:0:0:
448,192,40926,1,0,0:0:0:0:
192,192,41007,1,0,0:0:0:0:
64,192,41007,1,0,0:0:0:0:
448,192,41088,1,0,0:0:0:0:
320,192,41088,1,0,0:0:0:0:
192,192,41169,1,0,0:0:0:0:
64,192,41169,1,0,0:0:0:0:
320,192,41250,1,0,0:0:0:0:
448,192,41250,1,0,0:0:0:0:
64,192,41332,1,0,0:0:0:0:
192,192,41332,1,0,0:0:0:0:
448,192,41413,1,0,0:0:0:0:
320,192,41413,1,0,0:0:0:0:
192,192,41494,1,0,0:0:0:0:
64,192,41494,1,0,0:0:0:0:
448,192,41656,1,0,0:0:0:0:
192,192,41656,1,0,0:0:0:0:
192,192,41818,1,0,0:0:0:0:
448,192,41818,1,0,0:0:0:0:
320,192,41980,1,0,0:0:0:0:
64,192,42142,1,0,0:0:0:0:
320,192,42142,1,0,0:0:0:0:
192,192,42223,1,0,0:0:0:0:
448,192,42223,1,0,0:0:0:0:
320,192,42305,1,0,0:0:0:0:
64,192,42305,1,0,0:0:0:0:
192,192,42386,1,0,0:0:0:0:
448,192,42386,1,0,0:0:0:0:
320,192,42467,1,0,0:0:0:0:
64,192,42467,1,0,0:0:0:0:
192,192,42548,1,0,0:0:0:0:
448,192,42548,1,0,0:0:0:0:
320,192,42629,1,0,0:0:0:0:
64,192,42629,1,0,0:0:0:0:
192,192,42710,1,0,0:0:0:0:
448,192,42710,1,0,0:0:0:0:
64,192,42791,1,0,0:0:0:0:
320,192,42791,1,0,0:0:0:0:
192,192,42953,1,0,0:0:0:0:
320,192,43115,1,0,0:0:0:0:
448,192,43115,1,0,0:0:0:0:
192,192,43196,1,0,0:0:0:0:
64,192,43196,1,0,0:0:0:0:
64,192,43440,1,0,0:0:0:0:
320,192,43440,1,0,0:0:0:0:
192,192,43602,1,0,0:0:0:0:
448,192,43602,1,0,0:0:0:0:
320,192,43683,1,0,0:0:0:0:
192,192,43764,1,0,0:0:0:0:
64,192,43764,1,0,0:0:0:0:
320,192,43845,1,0,0:0:0:0:
448,192,43845,1,0,0:0:0:0:
192,192,43926,1,0,0:0:0:0:
64,192,43926,1,0,0:0:0:0:
320,192,44007,1,0,0:0:0:0:
448,192,44007,1,0,0:0:0:0:
192,192,44088,1,0,0:0:0:0:
64,192,44088,1,0,0:0:0:0:
448,192,44129,1,0,0:0:0:0:
320,192,44169,1,0,0:0:0:0:
192,192,44210,1,0,0:0:0:0:
64,192,44250,1,0,0:0:0:0:
448,192,44291,1,0,0:0:0:0:
320,192,44332,1,0,0:0:0:0:
192,192,44372,1,0,0:0:0:0:
64,192,44413,1,0,0:0:0:0:
448,192,44453,1,0,0:0:0:0:
320,192,44494,1,0,0:0:0:0:
192,192,44534,1,0,0:0:0:0:
64,192,44575,1,0,0:0:0:0:
448,192,44615,1,0,0:0:0:0:
320,192,44656,1,0,0:0:0:0:
192,192,44696,1,0,0:0:0:0:
64,192,44737,1,0,0:0:0:0:
448,192,44777,1,0,0:0:0:0:
320,192,44818,1,0,0:0:0:0:
192,192,44859,1,0,0:0:0:0:
64,192,44899,1,0,0:0:0:0:
448,192,44940,1,0,0:0:0:0:
320,192,44980,1,0,0:0:0:0:
192,192,45021,1,0,0:0:0:0:
64,192,45061,1,0,0:0:0:0:
448,192,45102,1,0,0:0:0:0:
320,192,45142,1,0,0:0:0:0:
192,192,45183,1,0,0:0:0:0:
64,192,45223,1,0,0:0:0:0:
448,192,45264,1,0,0:0:0:0:
320,192,45305,1,0,0:0:0:0:
192,192,45345,1,0,0:0:0:0:
64,192,45386,1,0,0:0:0:0:
448,192,45386,1,0,0:0:0:0:
320,192,45386,1,0,0:0:0:0:
192,192,45710,1,0,0:0:0:0:
64,192,45710,1,0,0:0:0:0:
320,192,45872,1,0,0:0:0:0:
192,192,45872,1,0,0:0:0:0:
448,192,46034,1,0,0:0:0:0:
320,192,46034,1,0,0:0:0:0:
192,192,46196,1,0,0:0:0:0:
64,192,46196,1,0,0:0:0:0:
320,192,46359,1,0,0:0:0:0:
64,192,46359,1,0,0:0:0:0:
192,192,46521,1,0,0:0:0:0:
448,192,46521,1,0,0:0:0:0:
320,192,46602,1,0,0:0:0:0:
64,192,46602,1,0,0:0:0:0:
192,192,46683,1,0,0:0:0:0:
448,192,46683,1,0,0:0:0:0:
320,192,46845,1,0,0:0:0:0:
64,192,46845,1,0,0:0:0:0:
320,192,47007,1,0,0:0:0:0:
448,192,47007,1,0,0:0:0:0:
64,192,47169,1,0,0:0:0:0:
192,192,47169,1,0,0:0:0:0:
320,192,47332,1,0,0:0:0:0:
448,192,47332,1,0,0:0:0:0:
64,192,47494,1,0,0:0:0:0:
320,192,47494,1,0,0:0:0:0:
192,192,47656,1,0,0:0:0:0:
448,192,47656,1,0,0:0:0:0:
320,192,47818,1,0,0:0:0:0:
192,192,47818,1,0,0:0:0:0:
320,192,47980,1,0,0:0:0:0:
448,192,47980,1,0,0:0:0:0:
64,192,47980,1,0,0:0:0:0:
64,192,48223,1,0,0:0:0:0:
192,192,48223,1,0,0:0:0:0:
448,192,48223,1,0,0:0:0:0:
192,192,48467,1,0,0:0:0:0:
320,192,48467,1,0,0:0:0:0:
64,192,48629,1,0,0:0:0:0:
448,192,48629,1,0,0:0:0:0:
64,192,48791,1,0,0:0:0:0:
192,192,48791,1,0,0:0:0:0:
192,192,48953,1,0,0:0:0:0:
448,192,48953,1,0,0:0:0:0:
320,192,49115,1,0,0:0:0:0:
192,192,49115,1,0,0:0:0:0:
64,192,49196,1,0,0:0:0:0:
448,192,49196,1,0,0:0:0:0:
320,192,49277,1,0,0:0:0:0:
448,192,49277,1,0,0:0:0:0:
192,192,49440,1,0,0:0:0:0:
64,192,49440,1,0,0:0:0:0:
192,192,49602,1,0,0:0:0:0:
448,192,49602,1,0,0:0:0:0:
320,192,49764,1,0,0:0:0:0:
448,192,49764,1,0,0:0:0:0:
192,192,49926,1,0,0:0:0:0:
64,192,49926,1,0,0:0:0:0:
320,192,50088,1,0,0:0:0:0:
448,192,50088,1,0,0:0:0:0:
448,192,50250,1,0,0:0:0:0:
64,192,50250,1,0,0:0:0:0:
320,192,50291,1,0,0:0:0:0:
192,192,50332,1,0,0:0:0:0:
64,192,50372,1,0,0:0:0:0:
192,192,50413,1,0,0:0:0:0:
320,192,50453,1,0,0:0:0:0:
448,192,50494,1,0,0:0:0:0:
64,192,50534,1,0,0:0:0:0:
192,192,50575,1,0,0:0:0:0:
320,192,50575,1,0,0:0:0:0:
448,192,50575,1,0,0:0:0:0:
192,192,50899,1,0,0:0:0:0:
64,192,50899,1,0,0:0:0:0:
192,192,51061,1,0,0:0:0:0:
448,192,51061,1,0,0:0:0:0:
320,192,51548,1,0,0:0:0:0:
448,192,51548,1,0,0:0:0:0:
64,192,51588,1,0,0:0:0:0:
192,192,51629,1,0,0:0:0:0:
320,192,51669,1,0,0:0:0:0:
448,192,51710,1,0,0:0:0:0:
320,192,51750,1,0,0:0:0:0:
192,192,51791,1,0,0:0:0:0:
64,192,51832,1,0,0:0:0:0:
448,192,51872,1,0,0:0:0:0:
320,192,51872,1,0,0:0:0:0:
192,192,51872,1,0,0:0:0:0:
64,192,52196,1,0,0:0:0:0:
320,192,52196,1,0,0:0:0:0:
192,192,52359,1,0,0:0:0:0:
448,192,52359,1,0,0:0:0:0:
320,192,52845,1,0,0:0:0:0:
192,192,52845,1,0,0:0:0:0:
64,192,52886,1,0,0:0:0:0:
192,192,52926,1,0,0:0:0:0:
320,192,52967,1,0,0:0:0:0:
448,192,53007,1,0,0:0:0:0:
320,192,53048,1,0,0:0:0:0:
192,192,53088,1,0,0:0:0:0:
64,192,53129,1,0,0:0:0:0:
192,192,53169,1,0,0:0:0:0:
320,192,53169,1,0,0:0:0:0:
448,192,53169,1,0,0:0:0:0:
64,192,53494,1,0,0:0:0:0:
192,192,53494,1,0,0:0:0:0:
320,192,53818,1,0,0:0:0:0:
448,192,53818,1,0,0:0:0:0:
192,192,53818,1,0,0:0:0:0:
192,192,54142,1,0,0:0:0:0:
448,192,54142,1,0,0:0:0:0:
64,192,54305,1,0,0:0:0:0:
64,192,54386,1,0,0:0:0:0:
448,192,54467,1,0,0:0:0:0:
320,192,54467,1,0,0:0:0:0:
192,192,54467,1,0,0:0:0:0:
192,192,54791,1,0,0:0:0:0:
64,192,54791,1,0,0:0:0:0:
192,192,55115,1,0,0:0:0:0:
320,192,55115,1,0,0:0:0:0:
448,192,55115,1,0,0:0:0:0:
64,192,55440,1,0,0:0:0:0:
320,192,55440,1,0,0:0:0:0:
192,192,55764,1,0,0:0:0:0:
320,192,55764,1,0,0:0:0:0:
64,192,55764,1,0,0:0:0:0:
320,192,55926,1,0,0:0:0:0:
448,192,55926,1,0,0:0:0:0:
192,192,56088,1,0,0:0:0:0:
64,192,56088,1,0,0:0:0:0:
320,192,56250,1,0,0:0:0:0:
448,192,56250,1,0,0:0:0:0:
192,192,56413,1,0,0:0:0:0:
64,192,56413,1,0,0:0:0:0:
320,192,56575,1,0,0:0:0:0:
448,192,56575,1,0,0:0:0:0:
192,192,56737,1,0,0:0:0:0:
64,192,56737,1,0,0:0:0:0:
320,192,56899,1,0,0:0:0:0:
448,192,56899,1,0,0:0:0:0:
192,192,57061,1,0,0:0:0:0:
64,192,57061,1,0,0:0:0:0:
320,192,57142,1,0,0:0:0:0:
448,192,57142,1,0,0:0:0:0:
192,192,57223,1,0,0:0:0:0:
64,192,57223,1,0,0:0:0:0:
320,192,57305,1,0,0:0:0:0:
448,192,57305,1,0,0:0:0:0:
64,192,57386,1,0,0:0:0:0:
192,192,57386,1,0,0:0:0:0:
320,192,57467,1,0,0:0:0:0:
448,192,57467,1,0,0:0:0:0:
192,192,57548,1,0,0:0:0:0:
64,192,57548,1,0,0:0:0:0:
320,192,57629,1,0,0:0:0:0:
448,192,57629,1,0,0:0:0:0:
192,192,57710,1,0,0:0:0:0:
64,192,57710,1,0,0:0:0:0:
320,192,57791,1,0,0:0:0:0:
448,192,57791,1,0,0:0:0:0:
192,192,57872,1,0,0:0:0:0:
64,192,57872,1,0,0:0:0:0:
448,192,57913,1,0,0:0:0:0:
320,192,57953,1,0,0:0:0:0:
192,192,57994,1,0,0:0:0:0:
448,192,58034,1,0,0:0:0:0:
64,192,58034,1,0,0:0:0:0:
320,192,58115,1,0,0:0:0:0:
192,192,58115,1,0,0:0:0:0:
448,192,58196,1,0,0:0:0:0:
192,192,58196,1,0,0:0:0:0:
64,192,58237,1,0,0:0:0:0:
192,192,58277,1,0,0:0:0:0:
320,192,58318,1,0,0:0:0:0:
192,192,58359,1,0,0:0:0:0:
64,192,58359,128,0,59656:0:0:0:0:
448,192,58359,1,0,0:0:0:0:
448,192,58683,1,0,0:0:0:0:
448,192,58845,1,0,0:0:0:0:
448,192,59007,1,0,0:0:0:0:
320,192,59088,1,0,0:0:0:0:
448,192,59169,1,0,0:0:0:0:
320,192,59250,1,0,0:0:0:0:
448,192,59332,1,0,0:0:0:0:
320,192,59413,1,0,0:0:0:0:
448,192,59494,1,0,0:0:0:0:
320,192,59575,1,0,0:0:0:0:
448,192,59656,1,0,0:0:0:0:
192,192,59656,1,0,0:0:0:0:
320,192,59818,1,0,0:0:0:0:
64,192,59818,1,0,0:0:0:0:
192,192,59980,1,0,0:0:0:0:
448,192,59980,1,0,0:0:0:0:
320,192,60142,1,0,0:0:0:0:
192,192,60142,1,0,0:0:0:0:
192,192,60305,1,0,0:0:0:0:
64,192,60305,1,0,0:0:0:0:
320,192,60467,1,0,0:0:0:0:
448,192,60467,1,0,0:0:0:0:
192,192,60548,1,0,0:0:0:0:
64,192,60548,1,0,0:0:0:0:
448,192,60629,1,0,0:0:0:0:
320,192,60629,1,0,0:0:0:0:
192,192,60791,1,0,0:0:0:0:
64,192,60791,1,0,0:0:0:0:
192,192,60953,1,0,0:0:0:0:
320,192,60953,1,0,0:0:0:0:
64,192,60953,1,0,0:0:0:0:
448,192,61034,1,0,0:0:0:0:
320,192,61115,1,0,0:0:0:0:
192,192,61196,1,0,0:0:0:0:
64,192,61196,1,0,0:0:0:0:
320,192,61277,1,0,0:0:0:0:
448,192,61359,1,0,0:0:0:0:
64,192,61440,1,0,0:0:0:0:
320,192,61440,1,0,0:0:0:0:
192,192,61521,1,0,0:0:0:0:
320,192,61602,1,0,0:0:0:0:
192,192,61683,1,0,0:0:0:0:
448,192,61683,1,0,0:0:0:0:
448,192,61845,1,0,0:0:0:0:
320,192,61926,1,0,0:0:0:0:
192,192,61926,1,0,0:0:0:0:
448,192,62007,1,0,0:0:0:0:
64,192,62088,1,0,0:0:0:0:
320,192,62088,1,0,0:0:0:0:
192,192,62088,1,0,0:0:0:0:
448,192,62169,1,0,0:0:0:0:
64,192,62250,1,0,0:0:0:0:
320,192,62250,1,0,0:0:0:0:
192,192,62250,1,0,0:0:0:0:
448,192,62332,1,0,0:0:0:0:
320,192,62413,1,0,0:0:0:0:
64,192,62494,1,0,0:0:0:0:
448,192,62494,1,0,0:0:0:0:
192,192,62575,1,0,0:0:0:0:
320,192,62656,1,0,0:0:0:0:
448,192,62737,1,0,0:0:0:0:
64,192,62737,1,0,0:0:0:0:
320,192,62899,1,0,0:0:0:0:
320,192,62980,1,0,0:0:0:0:
64,192,62980,1,0,0:0:0:0:
448,192,62980,1,0,0:0:0:0:
192,192,62980,1,0,0:0:0:0:
64,192,63223,1,0,0:0:0:0:
320,192,63223,1,0,0:0:0:0:
192,192,63386,1,0,0:0:0:0:
320,192,63386,1,8,0:0:0:0:
448,192,63426,1,0,0:0:0:0:
320,192,63467,1,0,0:0:0:0:
192,192,63507,1,0,0:0:0:0:
64,192,63548,1,0,0:0:0:0:
448,192,63548,1,0,0:0:0:0:
320,192,63629,1,0,0:0:0:0:
192,192,63710,1,0,0:0:0:0:
64,192,63791,1,0,0:0:0:0:
320,192,63791,1,0,0:0:0:0:
192,192,63872,1,0,0:0:0:0:
64,192,63953,1,0,0:0:0:0:
448,192,64034,1,0,0:0:0:0:
320,192,64034,1,0,0:0:0:0:
64,192,64196,1,0,0:0:0:0:
192,192,64277,1,0,0:0:0:0:
320,192,64359,1,0,0:0:0:0:
64,192,64359,1,0,0:0:0:0:
448,192,64359,1,0,0:0:0:0:
192,192,64440,1,0,0:0:0:0:
64,192,64521,1,0,0:0:0:0:
320,192,64521,1,0,0:0:0:0:
192,192,64602,1,0,0:0:0:0:
448,192,64642,1,0,0:0:0:0:
64,192,64642,1,0,0:0:0:0:
192,192,64683,1,0,0:0:0:0:
320,192,64723,1,0,0:0:0:0:
64,192,64764,1,0,0:0:0:0:
448,192,64764,1,0,0:0:0:0:
192,192,64805,1,0,0:0:0:0:
320,192,64845,1,0,0:0:0:0:
64,192,64845,128,0,66142:0:0:0:0:
448,192,64845,128,0,66142:0:0:0:0:
320,192,65494,1,0,0:0:0:0:
192,192,65494,1,0,0:0:0:0:
192,192,65737,1,0,0:0:0:0:
320,192,65737,1,0,0:0:0:0:
192,192,65980,1,0,0:0:0:0:
320,192,65980,1,0,0:0:0:0:
320,192,66305,1,0,0:0:0:0:
192,192,66467,1,0,0:0:0:0:
320,192,66467,1,0,0:0:0:0:
64,192,66467,1,0,0:0:0:0:
448,192,66548,1,0,0:0:0:0:
320,192,66629,1,0,0:0:0:0:
192,192,66710,1,0,0:0:0:0:
64,192,66710,1,0,0:0:0:0:
320,192,66791,1,0,0:0:0:0:
448,192,66872,1,0,0:0:0:0:
64,192,66953,1,0,0:0:0:0:
320,192,66953,1,0,0:0:0:0:
192,192,67034,1,0,0:0:0:0:
64,192,67115,1,0,0:0:0:0:
320,192,67115,1,0,0:0:0:0:
192,192,67196,1,0,0:0:0:0:
64,192,67277,1,0,0:0:0:0:
192,192,67277,128,0,67440:0:0:0:0:
320,192,67277,1,0,0:0:0:0:
64,192,67440,1,0,0:0:0:0:
448,192,67440,1,0,0:0:0:0:
192,192,67521,1,0,0:0:0:0:
64,192,67602,1,0,0:0:0:0:
192,192,67683,1,0,0:0:0:0:
320,192,67683,1,0,0:0:0:0:
448,192,67764,1,0,0:0:0:0:
320,192,67845,1,0,0:0:0:0:
64,192,67926,1,0,0:0:0:0:
448,192,67926,1,0,0:0:0:0:
192,192,68007,1,0,0:0:0:0:
320,192,68088,1,0,0:0:0:0:
448,192,68169,1,0,0:0:0:0:
192,192,68169,1,0,0:0:0:0:
192,192,68332,1,0,0:0:0:0:
320,192,68413,1,0,0:0:0:0:
64,192,68413,1,0,0:0:0:0:
64,192,68575,1,0,0:0:0:0:
320,192,68575,1,0,0:0:0:0:
448,192,68656,1,0,0:0:0:0:
64,192,68737,1,0,0:0:0:0:
192,192,68737,1,0,0:0:0:0:
320,192,68737,1,0,0:0:0:0:
448,192,68737,1,0,0:0:0:0:
64,192,68899,1,0,0:0:0:0:
448,192,69061,1,0,0:0:0:0:
192,192,69142,1,0,0:0:0:0:
64,192,69223,1,0,0:0:0:0:
448,192,69223,1,0,0:0:0:0:
192,192,69305,1,0,0:0:0:0:
320,192,69305,1,0,0:0:0:0:
64,192,69386,1,0,0:0:0:0:
192,192,69386,1,0,0:0:0:0:
320,192,69386,1,0,0:0:0:0:
448,192,69386,1,0,0:0:0:0:
64,192,69710,1,0,0:0:0:0:
320,192,69710,1,0,0:0:0:0:
448,192,69872,1,0,0:0:0:0:
192,192,69872,1,0,0:0:0:0:
64,192,69953,1,0,0:0:0:0:
64,192,70034,1,0,0:0:0:0:
192,192,70034,1,0,0:0:0:0:
320,192,70034,1,0,0:0:0:0:
320,192,70115,1,0,0:0:0:0:
448,192,70115,1,0,0:0:0:0:
64,192,70359,1,0,0:0:0:0:
192,192,70359,1,0,0:0:0:0:
320,192,70359,1,0,0:0:0:0:
192,192,70521,1,0,0:0:0:0:
320,192,70521,1,0,0:0:0:0:
448,192,70521,1,0,0:0:0:0:
64,192,70845,1,0,0:0:0:0:
320,192,70845,1,0,0:0:0:0:
448,192,70926,1,0,0:0:0:0:
192,192,71007,1,0,0:0:0:0:
320,192,71007,1,0,0:0:0:0:
64,192,71169,1,0,0:0:0:0:
448,192,71169,1,0,0:0:0:0:
64,192,71332,1,0,0:0:0:0:
448,192,71332,1,0,0:0:0:0:
320,192,71413,1,0,0:0:0:0:
192,192,71494,1,0,0:0:0:0:
64,192,71575,1,0,0:0:0:0:
320,192,71575,1,0,0:0:0:0:
192,192,71656,1,0,0:0:0:0:
64,192,71737,1,0,0:0:0:0:
448,192,71818,1,0,0:0:0:0:
320,192,71818,1,0,0:0:0:0:
64,192,71980,1,0,0:0:0:0:
320,192,72061,1,0,0:0:0:0:
448,192,72061,1,0,0:0:0:0:
448,192,72223,1,0,0:0:0:0:
64,192,72305,1,0,0:0:0:0:
192,192,72305,1,0,0:0:0:0:
320,192,72305,1,0,0:0:0:0:
320,192,72386,1,0,0:0:0:0:
192,192,72467,1,0,0:0:0:0:
320,192,72467,1,0,0:0:0:0:
448,192,72467,1,0,0:0:0:0:
192,192,72548,1,0,0:0:0:0:
64,192,72629,1,0,0:0:0:0:
320,192,72629,1,0,0:0:0:0:
192,192,72710,1,0,0:0:0:0:
320,192,72791,1,0,0:0:0:0:
448,192,72872,1,0,0:0:0:0:
192,192,72872,1,0,0:0:0:0:
320,192,72953,1,0,0:0:0:0:
192,192,73034,1,0,0:0:0:0:
448,192,73115,1,0,0:0:0:0:
320,192,73115,1,0,0:0:0:0:
64,192,73196,1,0,0:0:0:0:
320,192,73277,1,0,0:0:0:0:
192,192,73359,1,0,0:0:0:0:
64,192,73359,1,0,0:0:0:0:
448,192,73521,1,0,0:0:0:0:
64,192,73602,1,0,0:0:0:0:
192,192,73602,1,0,0:0:0:0:
192,192,73764,1,0,0:0:0:0:
320,192,73764,1,0,0:0:0:0:
64,192,73926,1,0,0:0:0:0:
448,192,73926,1,0,0:0:0:0:
192,192,73926,1,0,0:0:0:0:
320,192,74007,1,0,0:0:0:0:
192,192,74088,1,0,0:0:0:0:
64,192,74169,1,0,0:0:0:0:
320,192,74169,1,0,0:0:0:0:
192,192,74250,1,0,0:0:0:0:
64,192,74332,1,0,0:0:0:0:
448,192,74413,1,0,0:0:0:0:
320,192,74413,1,0,0:0:0:0:
192,192,74494,1,0,0:0:0:0:
64,192,74575,1,0,0:0:0:0:
192,192,74656,1,0,0:0:0:0:
320,192,74656,1,0,0:0:0:0:
64,192,74737,1,0,0:0:0:0:
320,192,74737,1,0,0:0:0:0:
448,192,74737,1,0,0:0:0:0:
448,192,74818,1,0,0:0:0:0:
320,192,74899,1,0,0:0:0:0:
192,192,74899,1,0,0:0:0:0:
448,192,74899,1,0,0:0:0:0:
64,192,74980,1,0,0:0:0:0:
320,192,75061,1,0,0:0:0:0:
64,192,75082,1,0,0:0:0:0:
448,192,75102,1,0,0:0:0:0:
320,192,75142,1,0,0:0:0:0:
192,192,75183,1,0,0:0:0:0:
64,192,75223,1,0,0:0:0:0:
448,192,75223,1,0,0:0:0:0:
64,192,75548,1,0,0:0:0:0:
192,192,75548,1,0,0:0:0:0:
320,192,75548,1,0,0:0:0:0:
192,192,75872,1,0,0:0:0:0:
320,192,75872,1,0,0:0:0:0:
448,192,75872,1,0,0:0:0:0:
192,192,76115,1,0,0:0:0:0:
320,192,76115,1,0,0:0:0:0:
192,192,76359,1,0,0:0:0:0:
320,192,76359,1,0,0:0:0:0:
64,192,76440,1,0,0:0:0:0:
64,192,76521,1,0,0:0:0:0:
448,192,76521,1,0,0:0:0:0:
64,192,76683,1,0,0:0:0:0:
320,192,76683,1,0,0:0:0:0:
192,192,76764,1,0,0:0:0:0:
448,192,76764,1,0,0:0:0:0:
320,192,76926,1,0,0:0:0:0:
192,192,76926,1,0,0:0:0:0:
64,192,77007,1,0,0:0:0:0:
448,192,77007,1,0,0:0:0:0:
320,192,77088,1,0,0:0:0:0:
64,192,77250,1,0,0:0:0:0:
448,192,77250,1,0,0:0:0:0:
192,192,77332,1,0,0:0:0:0:
320,192,77494,1,0,0:0:0:0:
64,192,77494,1,0,0:0:0:0:
192,192,77575,1,0,0:0:0:0:
448,192,77656,1,0,0:0:0:0:
64,192,77656,1,0,0:0:0:0:
192,192,77737,1,0,0:0:0:0:
320,192,77818,1,0,0:0:0:0:
448,192,77818,1,0,0:0:0:0:
64,192,77818,1,0,0:0:0:0:
192,192,78061,1,0,0:0:0:0:
320,192,78061,1,0,0:0:0:0:
192,192,78223,1,0,0:0:0:0:
64,192,78305,1,0,0:0:0:0:
448,192,78305,1,0,0:0:0:0:
320,192,78467,1,0,0:0:0:0:
192,192,78548,1,0,0:0:0:0:
448,192,78548,1,0,0:0:0:0:
320,192,78791,1,0,0:0:0:0:
448,192,78872,1,0,0:0:0:0:
320,192,78953,1,0,0:0:0:0:
192,192,79034,1,0,0:0:0:0:
320,192,79115,1,0,0:0:0:0:
64,192,79115,1,0,0:0:0:0:
448,192,79115,1,0,0:0:0:0:
448,192,79359,1,0,0:0:0:0:
320,192,79359,1,0,0:0:0:0:
64,192,79440,1,0,0:0:0:0:
192,192,79521,1,0,0:0:0:0:
64,192,79602,1,0,0:0:0:0:
320,192,79602,1,0,0:0:0:0:
192,192,79683,1,0,0:0:0:0:
448,192,79764,1,0,0:0:0:0:
320,192,79764,1,0,0:0:0:0:
64,192,79764,1,0,0:0:0:0:
192,192,79926,1,0,0:0:0:0:
320,192,80007,1,0,0:0:0:0:
448,192,80088,1,0,0:0:0:0:
64,192,80088,1,0,0:0:0:0:
320,192,80169,1,0,0:0:0:0:
192,192,80250,1,0,0:0:0:0:
320,192,80332,1,0,0:0:0:0:
64,192,80332,1,0,0:0:0:0:
320,192,80413,1,0,0:0:0:0:
448,192,80413,1,0,0:0:0:0:
192,192,80413,1,0,0:0:0:0:
320,192,80494,1,0,0:0:0:0:
448,192,80494,1,0,0:0:0:0:
64,192,80494,1,0,0:0:0:0:
320,192,80575,1,0,0:0:0:0:
192,192,80575,1,0,0:0:0:0:
64,192,80737,1,0,0:0:0:0:
320,192,80737,1,0,0:0:0:0:
192,192,80737,1,0,0:0:0:0:
64,192,80899,1,0,0:0:0:0:
192,192,80899,1,0,0:0:0:0:
320,192,81142,1,0,0:0:0:0:
64,192,81223,1,0,0:0:0:0:
192,192,81223,1,0,0:0:0:0:
448,192,81305,1,0,0:0:0:0:
64,192,81386,1,0,0:0:0:0:
192,192,81386,1,0,0:0:0:0:
320,192,81386,1,0,0:0:0:0:
448,192,81467,1,0,0:0:0:0:
192,192,81548,1,0,0:0:0:0:
320,192,81548,1,0,0:0:0:0:
64,192,81710,1,0,0:0:0:0:
320,192,81710,1,0,0:0:0:0:
192,192,81710,1,0,0:0:0:0:
448,192,81710,1,0,0:0:0:0:
64,192,82034,1,0,0:0:0:0:
448,192,82034,1,0,0:0:0:0:
192,192,82359,1,0,0:0:0:0:
64,192,82683,1,0,0:0:0:0:
320,192,82845,1,0,0:0:0:0:
64,192,83169,1,0,0:0:0:0:
192,192,83169,1,0,0:0:0:0:
192,192,83332,1,0,0:0:0:0:
320,192,83332,1,0,0:0:0:0:
64,192,83332,1,0,0:0:0:0:
320,192,83494,1,0,0:0:0:0:
448,192,83494,1,0,0:0:0:0:
192,192,83656,1,0,0:0:0:0:
448,192,83656,1,0,0:0:0:0:
192,192,83980,1,0,0:0:0:0:
448,192,83980,1,0,0:0:0:0:
64,192,84305,1,0,0:0:0:0:
320,192,84305,1,0,0:0:0:0:
192,192,84467,1,0,0:0:0:0:
448,192,84629,1,0,0:0:0:0:
64,192,84629,1,0,0:0:0:0:
192,192,84791,1,0,0:0:0:0:
320,192,84791,1,0,0:0:0:0:
64,192,84953,1,0,0:0:0:0:
320,192,84953,1,0,0:0:0:0:
448,192,84953,1,0,0:0:0:0:
64,192,85115,1,0,0:0:0:0:
320,192,85115,1,0,0:0:0:0:
192,192,85196,1,0,0:0:0:0:
448,192,85277,1,0,0:0:0:0:
64,192,85277,1,0,0:0:0:0:
64,192,85440,1,0,0:0:0:0:
192,192,85440,1,0,0:0:0:0:
192,192,85602,1,0,0:0:0:0:
448,192,85602,1,0,0:0:0:0:
320,192,85602,1,0,0:0:0:0:
192,192,85764,1,0,0:0:0:0:
64,192,85764,1,0,0:0:0:0:
192,192,85926,128,0,85953:0:0:0:0:
320,192,85926,128,0,85953:0:0:0:0:
320,192,86088,1,0,0:0:0:0:
64,192,86250,128,0,86277:0:0:0:0:
448,192,86250,128,0,86277:0:0:0:0:
192,192,86494,128,0,86521:0:0:0:0:
448,192,86494,128,0,86521:0:0:0:0:
64,192,86737,128,0,86764:0:0:0:0:
448,192,86737,128,0,86764:0:0:0:0:
448,192,86818,1,0,0:0:0:0:
320,192,86818,1,0,0:0:0:0:
192,192,86899,1,0,0:0:0:0:
448,192,86899,1,0,0:0:0:0:
64,192,87223,1,0,0:0:0:0:
320,192,87223,1,0,0:0:0:0:
192,192,87548,1,0,0:0:0:0:
448,192,87548,1,0,0:0:0:0:
320,192,87872,128,0,87899:0:0:0:0:
448,192,87872,128,0,87899:0:0:0:0:
64,192,87872,128,0,88196:0:0:0:0:
192,192,88034,1,0,0:0:0:0:
448,192,88034,1,0,0:0:0:0:
320,192,88196,128,0,88223:0:0:0:0:
448,192,88196,128,0,88223:0:0:0:0:
64,192,88359,1,0,0:0:0:0:
192,192,88359,1,0,0:0:0:0:
192,192,88521,1,0,0:0:0:0:
320,192,88521,1,0,0:0:0:0:
320,192,88683,1,0,0:0:0:0:
448,192,88683,1,0,0:0:0:0:
448,192,88845,1,0,0:0:0:0:
64,192,88845,1,0,0:0:0:0:
448,192,89169,1,0,0:0:0:0:
192,192,89169,128,0,89196:0:0:0:0:
320,192,89169,128,0,89196:0:0:0:0:
64,192,89494,1,0,0:0:0:0:
192,192,89494,128,0,89521:0:0:0:0:
320,192,89494,128,0,89521:0:0:0:0:
192,192,89656,1,0,0:0:0:0:
192,192,89818,1,0,0:0:0:0:
448,192,89818,1,0,0:0:0:0:
320,192,89980,1,0,0:0:0:0:
64,192,89980,1,0,0:0:0:0:
448,192,90142,1,0,0:0:0:0:
320,192,90142,128,0,90169:0:0:0:0:
64,192,90142,128,0,90169:0:0:0:0:
320,192,90305,1,0,0:0:0:0:
448,192,90305,1,0,0:0:0:0:
64,192,90386,1,0,0:0:0:0:
192,192,90386,1,0,0:0:0:0:
320,192,90467,1,0,0:0:0:0:
448,192,90467,1,0,0:0:0:0:
64,192,90629,1,0,0:0:0:0:
448,192,90791,1,0,0:0:0:0:
320,192,90791,128,0,90818:0:0:0:0:
192,192,90791,128,0,90818:0:0:0:0:
64,192,90953,1,0,0:0:0:0:
320,192,90953,1,0,0:0:0:0:
64,192,91115,1,0,0:0:0:0:
448,192,91115,1,0,0:0:0:0:
192,192,91277,1,0,0:0:0:0:
320,192,91277,1,0,0:0:0:0:
64,192,91440,1,0,0:0:0:0:
448,192,91440,1,0,0:0:0:0:
192,192,91602,1,0,0:0:0:0:
320,192,91602,1,0,0:0:0:0:
64,192,91683,1,0,0:0:0:0:
448,192,91683,1,0,0:0:0:0:
192,192,91764,1,0,0:0:0:0:
320,192,91764,1,0,0:0:0:0:
192,192,91926,1,0,0:0:0:0:
320,192,91926,1,0,0:0:0:0:
64,192,92088,128,0,92413:0:0:0:0:
192,192,92413,1,0,0:0:0:0:
320,192,92413,1,0,0:0:0:0:
448,192,92413,1,0,0:0:0:0:
64,192,92494,1,0,0:0:0:0:
192,192,92575,1,0,0:0:0:0:
320,192,92575,1,0,0:0:0:0:
448,192,92656,1,0,0:0:0:0:
320,192,92737,1,0,0:0:0:0:
192,192,92818,1,0,0:0:0:0:
64,192,92818,1,0,0:0:0:0:
320,192,92899,1,0,0:0:0:0:
448,192,92980,1,0,0:0:0:0:
320,192,93061,1,0,0:0:0:0:
448,192,93061,1,0,0:0:0:0:
192,192,93142,1,0,0:0:0:0:
320,192,93223,1,0,0:0:0:0:
64,192,93223,1,0,0:0:0:0:
448,192,93305,1,0,0:0:0:0:
64,192,93386,1,0,0:0:0:0:
320,192,93386,1,0,0:0:0:0:
320,192,93548,1,0,0:0:0:0:
192,192,93629,1,0,0:0:0:0:
448,192,93629,1,0,0:0:0:0:
64,192,93710,1,0,0:0:0:0:
320,192,93872,1,0,0:0:0:0:
64,192,93872,1,0,0:0:0:0:
192,192,93953,1,0,0:0:0:0:
64,192,94034,1,0,0:0:0:0:
192,192,94115,1,0,0:0:0:0:
448,192,94115,1,0,0:0:0:0:
320,192,94196,1,0,0:0:0:0:
192,192,94277,1,0,0:0:0:0:
448,192,94277,1,0,0:0:0:0:
64,192,94359,1,0,0:0:0:0:
320,192,94359,1,0,0:0:0:0:
192,192,94440,1,0,0:0:0:0:
320,192,94521,1,0,0:0:0:0:
448,192,94521,1,0,0:0:0:0:
192,192,94602,1,0,0:0:0:0:
64,192,94683,1,0,0:0:0:0:
320,192,94683,1,0,0:0:0:0:
448,192,94683,1,0,0:0:0:0:
320,192,94845,1,0,0:0:0:0:
192,192,94845,1,0,0:0:0:0:
64,192,94926,1,0,0:0:0:0:
320,192,95007,1,0,0:0:0:0:
448,192,95007,1,0,0:0:0:0:
320,192,95169,1,0,0:0:0:0:
192,192,95169,1,0,0:0:0:0:
64,192,95250,1,0,0:0:0:0:
320,192,95332,1,0,0:0:0:0:
64,192,95332,1,0,0:0:0:0:
192,192,95494,1,0,0:0:0:0:
448,192,95494,1,0,0:0:0:0:
320,192,95575,1,0,0:0:0:0:
192,192,95656,1,0,0:0:0:0:
448,192,95656,1,0,0:0:0:0:
64,192,95737,1,0,0:0:0:0:
192,192,95818,1,0,0:0:0:0:
320,192,95818,1,0,0:0:0:0:
320,192,95899,1,0,0:0:0:0:
64,192,95980,1,0,0:0:0:0:
192,192,95980,1,0,0:0:0:0:
320,192,95980,1,0,0:0:0:0:
64,192,96142,1,0,0:0:0:0:
320,192,96142,1,0,0:0:0:0:
192,192,96223,1,0,0:0:0:0:
64,192,96305,1,0,0:0:0:0:
320,192,96305,1,0,0:0:0:0:
64,192,96467,1,0,0:0:0:0:
320,192,96467,1,0,0:0:0:0:
192,192,96548,1,0,0:0:0:0:
192,192,96629,1,0,0:0:0:0:
64,192,96629,1,0,0:0:0:0:
448,192,96629,1,0,0:0:0:0:
192,192,96953,1,0,0:0:0:0:
320,192,96953,1,0,0:0:0:0:
448,192,96953,1,0,0:0:0:0:
192,192,97115,1,0,0:0:0:0:
448,192,97115,1,0,0:0:0:0:
320,192,97277,1,0,0:0:0:0:
64,192,97277,1,0,0:0:0:0:
192,192,97277,1,0,0:0:0:0:
320,192,97359,1,0,0:0:0:0:
448,192,97440,1,0,0:0:0:0:
320,192,97521,1,0,0:0:0:0:
448,192,97602,1,0,0:0:0:0:
320,192,97683,1,0,0:0:0:0:
448,192,97764,1,0,0:0:0:0:
320,192,97845,1,0,0:0:0:0:
192,192,97926,1,0,0:0:0:0:
320,192,97926,1,0,0:0:0:0:
448,192,97926,1,0,0:0:0:0:
192,192,98250,1,0,0:0:0:0:
320,192,98250,1,0,0:0:0:0:
64,192,98250,1,0,0:0:0:0:
448,192,98277,128,0,98305:0:0:0:0:
320,192,98305,1,0,0:0:0:0:
192,192,98332,1,0,0:0:0:0:
192,192,98575,1,0,0:0:0:0:
64,192,98575,1,0,0:0:0:0:
320,192,98575,1,0,0:0:0:0:
448,192,98656,1,0,0:0:0:0:
192,192,98737,1,0,0:0:0:0:
448,192,98818,1,0,0:0:0:0:
192,192,98899,1,0,0:0:0:0:
320,192,98980,1,0,0:0:0:0:
64,192,99061,1,0,0:0:0:0:
192,192,99142,1,0,0:0:0:0:
192,192,99223,1,0,0:0:0:0:
320,192,99223,1,0,0:0:0:0:
448,192,99223,1,0,0:0:0:0:
64,192,99548,1,0,0:0:0:0:
192,192,99548,1,0,0:0:0:0:
320,192,99548,1,0,0:0:0:0:
64,192,99872,1,0,0:0:0:0:
192,192,99872,1,0,0:0:0:0:
448,192,99872,1,0,0:0:0:0:
320,192,99913,1,0,0:0:0:0:
192,192,99953,1,0,0:0:0:0:
64,192,99994,1,0,0:0:0:0:
64,192,100196,1,0,0:0:0:0:
192,192,100237,1,0,0:0:0:0:
320,192,100277,1,0,0:0:0:0:
448,192,100318,1,0,0:0:0:0:
448,192,100521,1,0,0:0:0:0:
320,192,100561,1,0,0:0:0:0:
192,192,100602,1,0,0:0:0:0:
64,192,100642,1,0,0:0:0:0:
64,192,100845,1,0,0:0:0:0:
192,192,100886,1,0,0:0:0:0:
320,192,100926,1,0,0:0:0:0:
448,192,100967,1,0,0:0:0:0:
64,192,101169,1,0,0:0:0:0:
192,192,101169,1,0,0:0:0:0:
448,192,101169,1,0,0:0:0:0:
192,192,101413,1,0,0:0:0:0:
64,192,101494,1,0,0:0:0:0:
448,192,101494,1,0,0:0:0:0:
320,192,101494,1,0,0:0:0:0:
320,192,101656,1,0,0:0:0:0:
448,192,101656,1,0,0:0:0:0:
64,192,101818,1,0,0:0:0:0:
192,192,101818,1,0,0:0:0:0:
448,192,101818,1,0,0:0:0:0:
192,192,101899,1,0,0:0:0:0:
448,192,101980,1,0,0:0:0:0:
64,192,101980,1,0,0:0:0:0:
192,192,102061,1,0,0:0:0:0:
320,192,102142,1,0,0:0:0:0:
64,192,102142,1,0,0:0:0:0:
192,192,102142,1,0,0:0:0:0:
448,192,102223,1,0,0:0:0:0:
320,192,102305,1,0,0:0:0:0:
64,192,102305,1,0,0:0:0:0:
192,192,102467,128,0,104818:0:0:0:0:
320,192,102467,128,0,104818:0:0:0:0:
64,192,104818,1,0,0:0:0:0:
448,192,104818,1,0,0:0:0:0:
