osu file format v14

[General]
AudioFilename: nyanpasu.mp3
AudioLeadIn: 0
PreviewTime: 7984
Countdown: 0
SampleSet: Normal
StackLeniency: 0.7
Mode: 0
LetterboxInBreaks: 0
WidescreenStoryboard: 1

[Editor]
Bookmarks: 0,2057,3119,4201,5196,7984,10772,12099,16944,20860,25373,29356,31745,35860,38250,40307,42431,46612,49135,57166,61081,63604,65727,67719,71966,91148
DistanceSpacing: 1
BeatDivisor: 4
GridSize: 4
TimelineZoom: 1

[Metadata]
Title:Nyan~pasu!
TitleUnicode:Nyan~pasu!
Artist:Nico Nico Douga
ArtistUnicode:Nico Nico Douga
Creator:rekongstor
Version:Normal
Source:Non Non Biyori
Tags:nicovideo nico douga non biyori nyan pasu nyanpasu
BeatmapID:852669
BeatmapSetID:391432

[Difficulty]
HPDrainRate:4
CircleSize:4
OverallDifficulty:4
ApproachRate:5
SliderMultiplier:0.700000005960469
SliderTickRate:1

[Events]
//Background and Video events
0,0,"npbg.jpg",0,0
Video,0,"Non Non Biyori [360p].mp4"
//Break Periods
//Storyboard Layer 0 (Background)
//Storyboard Layer 1 (Fail)
//Storyboard Layer 2 (Pass)
//Storyboard Layer 3 (Foreground)
//Storyboard Sound Samples

[TimingPoints]
20,265.486725663717,4,1,0,60,1,0

[HitObjects]
388,196,8117,5,0,0:0:0:0:
348,100,8515,2,8,P|292:72|156:124,1,210.000001788141
136,184,9577,1,0,0:0:0:0:
168,244,9843,1,4,0:0:0:0:
284,324,10373,5,0,0:0:0:0:
312,260,10639,2,8,B|380:192|316:124|240:108|224:124,1,210.000001788141
208,184,11701,1,0,0:0:0:0:
120,292,12232,1,4,0:0:0:0:
84,232,12497,1,4,0:0:0:0:
92,164,12763,6,0,P|172:72|256:72,1,210.000001788141
316,80,13825,2,2,B|392:140|420:216|420:272,1,210.000001788141
356,264,14887,5,0,0:0:0:0:
260,268,15285,1,0,0:0:0:0:
172,204,15750,1,0,0:0:0:0:
136,176,15949,2,4,B|152:96|232:88|316:116,1,210.000001788141
336,168,17011,6,8,B|324:236|260:264|168:248,1,210.000001788141
136,196,18073,2,8,B|156:128|212:76|244:112|240:200,1,210.000001788141
180,172,19135,6,0,P|156:268|180:288,1,140.000001192094
240,312,19931,1,0,0:0:0:0:
308,308,20196,2,12,B|368:276|408:244|368:196,1,140.000001192094
356,140,20993,6,8,P|340:84|328:80,1,70.0000005960469
268,104,21524,2,0,P|216:120|204:140,1,70.0000005960469
180,192,22055,2,8,B|164:256|180:276,1,70.0000005960469
200,284,22453,2,0,P|244:288|268:260,1,70.0000005960469
292,256,22851,2,4,P|324:212|316:188,1,70.0000005960469
256,192,23382,12,0,25241,0:0:0:0:
116,104,25506,5,0,0:0:0:0:
68,236,26037,1,0,0:0:0:0:
136,248,26303,1,0,0:0:0:0:
176,192,26568,2,8,P|208:148|232:148,2,70.0000005960469
172,264,27365,1,4,0:0:0:0:
240,268,27630,6,0,P|272:296|300:300,1,70.0000005960469
360,272,28161,2,8,B|372:200|284:136|232:120,1,210.000001788141
184,160,29223,1,4,0:0:0:0:
92,72,29754,6,2,B|40:132|32:224|44:284,1,210.000001788141
96,300,30816,2,2,B|184:328|224:284|268:204,1,210.000001788141
324,196,31878,1,0,0:0:0:0:
312,72,32409,1,0,0:0:0:0:
188,80,32940,1,0,0:0:0:0:
140,120,33205,1,0,0:0:0:0:
120,180,33471,1,4,0:0:0:0:
136,240,33736,6,8,L|168:320,2,70.0000005960469
200,244,34533,1,4,0:0:0:0:
280,148,35064,2,8,L|212:112,2,70.0000005960469
156,120,36126,5,0,0:0:0:0:
84,224,36657,2,0,P|92:264|120:280,1,70.0000005960469
176,264,37188,1,0,0:0:0:0:
236,244,37453,1,0,0:0:0:0:
256,184,37719,2,4,L|200:124,1,70.0000005960469
164,88,38250,6,0,P|136:96|104:120,1,70.0000005960469
92,188,38781,2,0,P|100:252|104:260,1,70.0000005960469
172,268,39312,2,0,P|224:228|232:220,1,70.0000005960469
208,156,39843,2,0,P|232:104|244:96,1,70.0000005960469
312,104,40373,2,8,L|348:128,2,35.0000002980235
244,112,40904,2,8,L|204:144,2,35.0000002980235
256,180,41435,2,4,L|232:212,2,35.0000002980235,8|4|8,0:0|0:0|0:0,0:0:0:0:
320,148,41966,1,4,0:0:0:0:
184,112,42497,6,0,P|124:144|120:148,1,70.0000005960469
128,216,43028,2,0,P|172:224|200:212,1,70.0000005960469
204,148,43559,2,0,P|244:124|268:120,1,70.0000005960469
324,164,44090,1,0,0:0:0:0:
332,232,44356,1,4,0:0:0:0:
256,192,44621,12,0,46480,0:0:0:0:
116,128,46745,5,0,0:0:0:0:
300,300,47807,1,0,0:0:0:0:
436,88,48869,2,2,B|312:60|216:52|152:80,1,280.000002384188
124,200,50462,1,0,0:0:0:0:
176,236,50727,1,4,0:0:0:0:
232,268,50993,6,0,P|292:312|296:316,1,70.0000005960469
344,280,51524,2,0,P|340:224|328:208,1,70.0000005960469
276,188,52055,2,8,P|224:168|200:168,1,70.0000005960469
156,200,52586,1,0,0:0:0:0:
144,228,52719,1,4,0:0:0:0:
144,260,52851,1,0,0:0:0:0:
176,308,53117,2,4,B|264:328|344:300|372:228|372:152,1,280.000002384188
256,192,54710,12,0,56834,0:0:0:0:
168,88,57365,6,8,P|136:108|128:144,1,70.0000005960469
124,208,57896,2,8,P|128:232|140:256,1,35.0000002980235
196,272,58294,2,8,L|232:292,1,35.0000002980235
236,220,58692,2,8,P|224:196|180:176,1,70.0000005960469
176,108,59223,1,4,0:0:0:0:
232,68,59489,6,0,P|360:96|420:164,1,210.000001788141
400,220,60550,2,8,P|388:252|352:272,1,70.0000005960469
264,220,61214,2,4,B|244:232|216:260|208:272,1,70.0000005960469
196,300,61612,6,0,P|64:236|48:176,1,210.000001788141
80,128,62674,1,8,0:0:0:0:
200,92,63205,2,4,P|248:88|276:100,1,70.0000005960469
312,120,63736,6,0,L|316:192,1,70.0000005960469
248,212,64267,2,0,P|200:228|184:244,1,70.0000005960469
192,312,64798,2,8,P|212:344|244:352,1,70.0000005960469
312,344,65329,2,4,P|368:344|384:328,1,70.0000005960469
428,288,65860,5,0,0:0:0:0:
428,184,66258,1,0,0:0:0:0:
324,160,66657,1,8,0:0:0:0:
256,140,66922,2,4,P|176:128|128:176,1,140.000001192094
56,280,67984,5,0,0:0:0:0:
124,272,68250,1,0,0:0:0:0:
192,292,68515,2,0,B|288:308|376:268|384:220,1,210.000001788141
380,168,69577,1,0,0:0:0:0:
348,104,69843,1,4,0:0:0:0:
296,72,70108,6,0,P|192:76|88:128,1,210.000001788141
128,184,71170,1,0,0:0:0:0:
232,160,71568,2,4,P|228:140|212:124,1,35.0000002980235
288,128,71966,6,8,P|328:168|332:192,1,70.0000005960469
264,200,72497,2,8,P|308:252|316:256,1,70.0000005960469
248,292,73028,2,8,P|216:284|184:256,1,70.0000005960469
180,228,73427,2,8,B|156:180|168:152,1,70.0000005960469
200,152,73825,2,4,P|184:112|160:80,1,70.0000005960469
256,192,74422,12,0,76480,0:0:0:0:
