osu file format v14

[General]
AudioFilename: nyanpasu.mp3
AudioLeadIn: 0
PreviewTime: 7984
Countdown: 0
SampleSet: Normal
StackLeniency: 0.7
Mode: 0
LetterboxInBreaks: 0
WidescreenStoryboard: 0

[Editor]
Bookmarks: 0,2057,3119,4201,5196,7984,10772,12099,16944,25373,29356,31745,35860,38250,40307,42431,46612,49135,57166,61081,63604,65727,67719,71966,91148
DistanceSpacing: 0.9
BeatDivisor: 4
GridSize: 4
TimelineZoom: 1

[Metadata]
Title:Nyan~pasu!
TitleUnicode:Nyan~pasu!
Artist:Nico Nico Douga
ArtistUnicode:Nico Nico Douga
Creator:rekongstor
Version:Insane
Source:Non Non Biyori
Tags:nicovideo nico douga non biyori nyan pasu nyanpasu
BeatmapID:852668
BeatmapSetID:391432

[Difficulty]
HPDrainRate:7
CircleSize:4.2
OverallDifficulty:7
ApproachRate:9
SliderMultiplier:1.4
SliderTickRate:1

[Events]
//Background and Video events
0,0,"npbg.jpg",0,0
Video,0,"Non Non Biyori [360p].mp4"
//Break Periods
2,53316,56499
2,76414,90747
//Storyboard Layer 0 (Background)
//Storyboard Layer 1 (Fail)
//Storyboard Layer 2 (Pass)
//Storyboard Layer 3 (Foreground)
//Storyboard Sound Samples

[TimingPoints]
20,265.486725663717,4,1,0,60,1,0

[HitObjects]
44,52,20,6,8,B|56:200|88:244|144:340|200:328|300:212,1,420
352,136,1081,2,8,B|308:316|76:312|32:148,1,420
160,128,2143,2,8,B|104:268|296:348|264:-16|420:236,1,420
376,112,3205,1,0,0:0:0:0:
312,112,3338,1,0,0:0:0:0:
252,128,3471,1,4,0:0:0:0:
192,144,3604,1,0,0:0:0:0:
224,264,3869,2,4,L|292:316,2,70
176,228,4267,6,8,B|172:120|276:36|424:40|424:256,1,420
328,312,5329,2,8,B|144:340|128:260|24:156|136:48,1,420
168,240,6391,5,0,0:0:0:0:
348,104,6723,1,0,0:0:0:0:
120,128,7055,1,0,0:0:0:0:
340,288,7453,1,4,0:0:0:0:
112,192,8117,6,8,P|152:132|236:88,1,140
268,80,8515,1,0,0:0:0:0:
368,156,8781,2,0,L|340:232,1,70
284,244,9046,1,0,0:0:0:0:
284,244,9179,1,0,0:0:0:0:
228,212,9312,1,0,0:0:0:0:
188,164,9444,2,4,L|240:96,1,70
288,84,9710,1,0,0:0:0:0:
336,124,9843,1,0,0:0:0:0:
216,128,10108,6,8,L|164:200,1,70
196,244,10373,2,4,L|244:184,2,70
144,128,10904,5,0,0:0:0:0:
192,88,11037,1,0,0:0:0:0:
228,140,11170,1,0,0:0:0:0:
280,104,11303,1,0,0:0:0:0:
300,164,11435,1,0,0:0:0:0:
292,228,11568,1,0,0:0:0:0:
252,276,11701,2,4,P|320:200|376:216,1,140
400,188,12232,5,0,0:0:0:0:
148,188,12497,1,0,0:0:0:0:
252,116,12763,6,4,L|304:256,1,140
240,264,13161,1,0,0:0:0:0:
176,260,13294,2,0,P|96:232|84:160,1,140
108,128,13692,1,0,0:0:0:0:
164,96,13825,1,0,0:0:0:0:
224,80,13958,2,0,L|312:108,1,70
300,164,14223,2,4,L|220:176,1,70
176,208,14489,1,0,0:0:0:0:
176,208,14621,1,4,0:0:0:0:
124,92,14887,5,0,0:0:0:0:
408,192,15285,1,0,0:0:0:0:
140,284,15683,1,0,0:0:0:0:
176,164,15949,5,0,0:0:0:0:
192,136,16015,1,4,0:0:0:0:
220,124,16081,1,0,0:0:0:0:
284,112,16214,1,0,0:0:0:0:
312,128,16281,1,4,0:0:0:0:
336,148,16347,1,0,0:0:0:0:
352,208,16480,1,0,0:0:0:0:
336,268,16612,1,0,0:0:0:0:
284,304,16745,1,0,0:0:0:0:
224,324,16878,1,0,0:0:0:0:
180,280,17011,6,12,B|144:192|164:124,1,140
236,40,17542,2,12,P|324:132|348:152,1,140
348,192,17940,1,0,0:0:0:0:
320,248,18073,1,0,0:0:0:0:
256,244,18205,1,0,0:0:0:0:
288,188,18338,1,0,0:0:0:0:
224,188,18471,1,0,0:0:0:0:
248,128,18604,2,0,L|156:132,1,70
132,172,18869,1,0,0:0:0:0:
40,176,19002,6,0,L|92:240,1,70
144,276,19267,1,0,0:0:0:0:
208,280,19400,2,0,L|292:240,1,70
324,212,19666,1,0,0:0:0:0:
276,96,19931,2,0,L|176:124,1,70
156,148,20196,1,4,0:0:0:0:
136,208,20329,1,4,0:0:0:0:
164,264,20462,1,0,0:0:0:0:
212,304,20595,2,0,L|284:256,1,70
328,152,20993,6,0,L|264:92,1,70
216,108,21258,2,0,L|156:192,1,70
216,216,21524,2,0,L|276:260,1,70
336,264,21789,2,0,L|392:192,1,70
380,144,22055,1,0,0:0:0:0:
344,92,22188,1,0,0:0:0:0:
284,80,22320,1,0,0:0:0:0:
220,84,22453,1,4,0:0:0:0:
164,112,22586,2,0,P|160:176|180:200,2,70
256,192,23382,12,0,25241,0:0:0:0:
124,192,25506,6,0,L|180:140,1,70
240,152,25772,2,0,L|288:216,1,70
312,264,26037,1,0,0:0:0:0:
264,304,26170,1,0,0:0:0:0:
200,308,26303,1,0,0:0:0:0:
140,296,26435,1,0,0:0:0:0:
96,252,26568,1,0,0:0:0:0:
100,188,26701,2,0,L|124:104,1,70
24,36,27099,1,4,0:0:0:0:
148,64,27365,1,4,0:0:0:0:
348,140,27763,5,0,0:0:0:0:
296,176,27896,1,0,0:0:0:0:
352,208,28028,1,0,0:0:0:0:
296,236,28161,1,0,0:0:0:0:
236,216,28294,2,0,L|184:152,1,70
240,120,28559,2,0,L|320:100,1,70
372,108,28825,2,4,L|408:184,3,70
312,84,29489,5,0,0:0:0:0:
252,72,29621,1,0,0:0:0:0:
192,88,29754,2,0,L|152:160,1,70
200,196,30020,1,0,0:0:0:0:
244,240,30152,1,0,0:0:0:0:
296,276,30285,2,4,L|368:228,2,70
240,308,30683,1,0,0:0:0:0:
180,296,30816,2,0,L|112:264,1,70
116,204,31081,1,0,0:0:0:0:
112,140,31214,1,0,0:0:0:0:
112,140,31347,1,0,0:0:0:0:
228,92,31612,1,0,0:0:0:0:
340,152,31878,5,0,0:0:0:0:
280,172,32011,1,0,0:0:0:0:
320,220,32143,1,0,0:0:0:0:
264,252,32276,2,0,L|196:264,1,70
132,260,32542,1,0,0:0:0:0:
88,216,32674,1,0,0:0:0:0:
148,196,32807,1,0,0:0:0:0:
100,156,32940,1,0,0:0:0:0:
156,132,33073,1,0,0:0:0:0:
216,116,33205,2,0,L|256:192,1,70
220,300,33604,2,4,L|300:300,2,70
172,284,34002,5,0,0:0:0:0:
128,328,34135,1,0,0:0:0:0:
84,284,34267,2,0,P|40:184|88:92,1,210
144,92,34798,1,0,0:0:0:0:
144,92,34931,1,0,0:0:0:0:
208,92,35064,1,0,0:0:0:0:
244,144,35196,1,0,0:0:0:0:
268,204,35329,1,0,0:0:0:0:
268,268,35462,2,2,L|124:332,1,140
108,204,35993,5,0,0:0:0:0:
124,144,36126,2,0,L|184:96,1,70
236,76,36391,2,0,L|336:80,1,70
356,116,36657,2,0,L|392:200,1,70
368,240,36922,2,0,L|296:292,2,70
312,212,37320,1,0,0:0:0:0:
256,244,37453,1,0,0:0:0:0:
136,280,37719,1,4,0:0:0:0:
228,196,37984,1,4,0:0:0:0:
412,236,38382,5,0,0:0:0:0:
360,200,38515,2,0,L|292:240,1,70
244,204,38781,1,0,0:0:0:0:
192,168,38913,1,0,0:0:0:0:
132,188,39046,1,0,0:0:0:0:
120,252,39179,2,0,L|188:308,1,70
236,288,39444,2,0,L|324:288,2,70
232,224,39843,2,4,L|224:144,2,70
108,240,40373,5,0,0:0:0:0:
88,180,40506,1,0,0:0:0:0:
104,120,40639,1,0,0:0:0:0:
228,100,40904,1,0,0:0:0:0:
264,152,41037,1,0,0:0:0:0:
236,208,41170,1,0,0:0:0:0:
152,300,41435,1,0,0:0:0:0:
216,300,41568,1,0,0:0:0:0:
280,300,41701,1,0,0:0:0:0:
288,176,41966,2,4,L|288:84,1,70
288,106,42232,1,4,0:0:0:0:
164,108,42497,6,4,L|156:156,2,35
164,172,42763,1,0,0:0:0:0:
216,288,43028,6,8,L|264:260,2,35
272,260,43294,1,0,0:0:0:0:
244,96,43559,5,0,0:0:0:0:
192,136,43692,1,0,0:0:0:0:
164,192,43825,1,0,0:0:0:0:
172,256,43958,1,0,0:0:0:0:
224,288,44090,2,0,L|248:248,2,35
284,304,44356,2,0,L|336:228,1,70
352,124,44754,5,0,0:0:0:0:
300,88,44887,1,0,0:0:0:0:
236,76,45020,1,0,0:0:0:0:
172,88,45152,1,0,0:0:0:0:
128,132,45285,1,0,0:0:0:0:
108,192,45418,2,0,L|140:268,1,70
176,304,45683,2,0,L|252:240,2,70
128,188,46214,1,0,0:0:0:0:
256,192,46480,1,0,0:0:0:0:
132,160,46745,6,0,P|112:196|128:252,1,70
148,276,47011,1,0,0:0:0:0:
208,296,47143,1,0,0:0:0:0:
272,296,47276,2,0,P|300:272|308:212,1,70
308,180,47542,1,0,0:0:0:0:
352,136,47674,1,0,0:0:0:0:
324,80,47807,2,0,L|252:116,1,70
200,124,48073,2,2,L|108:148,2,70
184,184,48471,1,0,0:0:0:0:
192,248,48736,5,0,0:0:0:0:
248,276,48869,1,0,0:0:0:0:
280,220,49002,1,0,0:0:0:0:
404,216,49267,1,0,0:0:0:0:
404,88,49533,1,0,0:0:0:0:
404,88,49666,1,0,0:0:0:0:
404,88,49798,1,0,0:0:0:0:
340,88,49931,6,0,L|256:96,1,70
268,156,50196,2,0,L|308:240,1,70
264,272,50462,2,4,L|184:240,3,70
152,204,50993,5,0,0:0:0:0:
104,164,51126,2,0,L|164:108,1,70
220,120,51391,1,0,0:0:0:0:
248,176,51524,1,0,0:0:0:0:
244,240,51657,2,0,L|160:280,1,70
184,332,51922,1,0,0:0:0:0:
244,352,52055,1,0,0:0:0:0:
304,328,52188,1,0,0:0:0:0:
360,300,52320,1,0,0:0:0:0:
364,236,52453,1,0,0:0:0:0:
352,176,52586,1,0,0:0:0:0:
300,140,52719,1,0,0:0:0:0:
300,140,52851,2,4,P|224:116|160:152,1,140
136,316,57099,5,6,0:0:0:0:
132,188,57365,5,0,0:0:0:0:
252,152,57630,1,0,0:0:0:0:
372,192,57896,2,0,L|356:268,1,70
216,300,58294,5,0,0:0:0:0:
176,248,58427,1,0,0:0:0:0:
164,188,58559,1,0,0:0:0:0:
176,124,58692,1,0,0:0:0:0:
216,76,58825,1,0,0:0:0:0:
276,56,58958,1,0,0:0:0:0:
324,96,59090,2,0,L|364:184,1,70
348,224,59356,1,0,0:0:0:0:
336,284,59489,6,0,B|256:324|184:292|120:236|88:176,1,280
108,128,60152,1,0,0:0:0:0:
148,80,60285,1,0,0:0:0:0:
212,68,60418,1,0,0:0:0:0:
268,96,60550,2,0,L|328:152,2,70
104,192,61214,5,0,0:0:0:0:
168,84,61480,1,0,0:0:0:0:
228,68,61612,2,0,B|316:72|372:136,1,140
356,184,62011,1,0,0:0:0:0:
300,208,62143,1,0,0:0:0:0:
340,256,62276,1,0,0:0:0:0:
296,300,62409,2,0,L|208:296,1,70
164,288,62674,2,0,B|88:196|84:116|100:64,1,210
152,72,63205,1,0,0:0:0:0:
152,72,63471,1,0,0:0:0:0:
276,48,63736,6,0,L|348:104,3,70
316,152,64267,2,0,L|256:104,3,70
216,152,64798,1,0,0:0:0:0:
260,200,64931,1,0,0:0:0:0:
232,256,65064,1,0,0:0:0:0:
172,240,65196,2,0,L|96:208,3,70
136,336,65860,5,4,0:0:0:0:
368,320,66258,1,4,0:0:0:0:
236,128,66657,1,4,0:0:0:0:
108,76,66922,5,0,0:0:0:0:
104,112,66989,1,0,0:0:0:0:
100,148,67055,1,0,0:0:0:0:
92,216,67188,2,2,P|108:300|164:348,1,140
332,332,67851,6,0,L|364:264,1,70
336,212,68117,2,4,L|280:156,1,70
160,168,68515,2,0,L|104:220,3,70
96,276,69046,5,0,0:0:0:0:
148,316,69179,1,0,0:0:0:0:
200,280,69312,1,0,0:0:0:0:
252,316,69444,1,0,0:0:0:0:
300,272,69577,2,0,L|372:232,1,70
361,238,69843,1,0,0:0:0:0:
361,238,69975,1,0,0:0:0:0:
368,176,70108,5,0,0:0:0:0:
368,176,70241,1,0,0:0:0:0:
368,176,70373,2,0,L|312:108,1,70
260,112,70639,1,0,0:0:0:0:
200,132,70772,1,0,0:0:0:0:
188,192,70904,2,0,L|208:244,2,35
132,220,71170,1,0,0:0:0:0:
96,272,71303,1,0,0:0:0:0:
124,328,71435,2,0,L|204:336,1,70
256,320,71701,1,0,0:0:0:0:
156,244,71966,6,0,L|116:100,1,140
240,80,72497,2,0,L|328:196,1,140
292,248,72896,1,0,0:0:0:0:
232,260,73028,2,0,L|136:236,1,70
120,200,73294,2,0,L|180:144,3,70
228,124,73825,1,0,0:0:0:0:
348,144,74090,1,0,0:0:0:0:
356,332,74489,5,0,0:0:0:0:
328,276,74621,1,0,0:0:0:0:
288,228,74754,1,0,0:0:0:0:
232,204,74887,1,0,0:0:0:0:
168,212,75020,1,0,0:0:0:0:
124,256,75152,1,0,0:0:0:0:
96,312,75285,1,0,0:0:0:0:
96,312,75418,1,0,0:0:0:0:
96,312,75550,1,0,0:0:0:0:
96,312,75683,2,0,L|184:316,1,70
228,312,75949,2,4,L|272:172,1,140
128,200,91347,5,0,0:0:0:0:
188,92,91612,1,0,0:0:0:0:
260,196,91878,1,0,0:0:0:0:
288,140,92011,1,0,0:0:0:0:
316,84,92143,1,0,0:0:0:0:
384,176,92409,5,0,0:0:0:0:
376,240,92542,1,0,0:0:0:0:
356,300,92674,1,0,0:0:0:0:
304,336,92807,1,0,0:0:0:0:
244,324,92940,2,0,L|164:272,1,70
160,228,93205,2,0,L|180:152,1,70
232,128,93471,1,0,0:0:0:0:
256,252,93736,5,6,0:0:0:0:
