osu file format v14

[General]
AudioFilename: nyanpasu.mp3
AudioLeadIn: 0
PreviewTime: 7984
Countdown: 0
SampleSet: Normal
StackLeniency: 0.7
Mode: 0
LetterboxInBreaks: 0
WidescreenStoryboard: 1

[Editor]
Bookmarks: 0,2057,3119,4201,5196,7984,10772,12099,16944,20860,25373,29356,31745,35860,38250,40307,42431,46612,49135,57166,61081,63604,65727,67719,71966,91148
DistanceSpacing: 1
BeatDivisor: 4
GridSize: 4
TimelineZoom: 1

[Metadata]
Title:Nyan~pasu!
TitleUnicode:Nyan~pasu!
Artist:Nico Nico Douga
ArtistUnicode:Nico Nico Douga
Creator:rekongstor
Version:Hard
Source:Non Non Biyori
Tags:nicovideo nico douga non biyori nyan pasu nyanpasu
BeatmapID:852667
BeatmapSetID:391432

[Difficulty]
HPDrainRate:4
CircleSize:3.5
OverallDifficulty:5
ApproachRate:7
SliderMultiplier:1
SliderTickRate:1

[Events]
//Background and Video events
0,0,"npbg.jpg",0,0
Video,0,"Non Non Biyori [360p].mp4"
//Break Periods
2,53317,56465
2,76149,90447
//Storyboard Layer 0 (Background)
//Storyboard Layer 1 (Fail)
//Storyboard Layer 2 (Pass)
//Storyboard Layer 3 (Foreground)
//Storyboard Sound Samples

[TimingPoints]
20,265.486725663717,4,1,0,60,1,0

[HitObjects]
256,192,6391,12,0,7453,0:0:0:0:
128,156,8117,6,0,P|168:128|232:136,1,100
268,132,8515,2,0,B|360:104|416:140|416:200|396:284|344:332,1,300
292,240,9577,1,0,0:0:0:0:
240,152,9843,1,4,0:0:0:0:
388,140,10241,6,0,P|368:220|368:240,1,100
348,284,10639,2,0,B|240:336|104:272,1,250
120,176,11568,2,0,L|180:172,1,50
452,152,12232,5,0,0:0:0:0:
280,104,12497,1,0,0:0:0:0:
172,104,12763,5,0,0:0:0:0:
156,152,12896,1,4,0:0:0:0:
144,200,13028,1,0,0:0:0:0:
232,244,13294,1,0,0:0:0:0:
272,212,13427,1,4,0:0:0:0:
304,176,13559,1,0,0:0:0:0:
240,100,13825,6,0,P|200:116|176:132,1,50
152,144,14090,2,0,P|136:192|140:204,1,50
148,240,14356,2,0,P|168:264|200:276,1,50
232,260,14621,1,4,0:0:0:0:
308,196,14887,5,0,0:0:0:0:
116,80,15285,1,0,0:0:0:0:
156,300,15683,1,0,0:0:0:0:
268,276,15949,6,8,L|200:280,1,50
172,256,16214,2,8,L|148:204,1,50
156,160,16480,2,8,L|208:136,1,50
248,116,16745,2,4,L|304:160,1,50
324,180,17011,5,0,0:0:0:0:
224,180,17276,1,0,0:0:0:0:
124,168,17542,1,0,0:0:0:0:
116,216,17674,1,4,0:0:0:0:
116,268,17807,1,0,0:0:0:0:
260,292,18073,5,0,0:0:0:0:
264,244,18205,1,4,0:0:0:0:
272,196,18338,1,0,0:0:0:0:
288,148,18471,2,4,L|348:132,1,50
196,84,19002,5,0,0:0:0:0:
164,124,19135,2,0,L|152:192,1,50
148,224,19400,1,0,0:0:0:0:
176,264,19533,1,0,0:0:0:0:
220,288,19666,2,0,L|276:292,1,50
320,300,19931,1,0,0:0:0:0:
368,308,20064,1,0,0:0:0:0:
412,288,20196,2,2,P|444:248|424:204,2,100
372,148,20993,6,0,L|276:84,1,100
288,192,21524,2,0,L|192:132,1,100
140,216,22055,2,0,L|224:276,1,100
292,300,22520,2,0,L|336:284,1,25
348,252,22719,1,4,0:0:0:0:
356,204,22851,1,0,0:0:0:0:
256,192,23250,12,4,25241,0:0:0:0:
140,112,25506,6,8,L|116:176,3,50
136,208,26037,2,8,L|184:220,3,50
232,200,26568,2,4,B|328:136|440:156,1,200
404,252,27365,1,0,0:0:0:0:
368,108,27763,5,0,0:0:0:0:
320,92,27896,2,0,P|284:80|256:76,1,50
224,80,28161,2,0,P|192:80|160:96,1,50
132,108,28427,2,0,P|108:124|100:156,1,50
92,192,28692,2,8,L|124:240,3,50
168,244,29223,2,4,P|212:228|248:168,1,100
312,116,29754,6,0,B|368:192|352:280|232:328|192:344,1,300
52,184,30816,2,0,B|104:104|248:64|344:92,1,300
312,116,31878,6,8,L|248:140,3,50
268,184,32409,2,8,L|320:224,3,50
352,192,32940,1,4,0:0:0:0:
312,100,33205,2,4,L|192:116,1,100
300,164,33736,1,0,0:0:0:0:
384,220,34002,6,8,B|296:276|236:220|160:200|96:248,1,300
104,148,35064,1,0,0:0:0:0:
136,116,35196,1,0,0:0:0:0:
180,96,35329,1,0,0:0:0:0:
228,92,35462,1,0,0:0:0:0:
240,192,35727,1,4,0:0:0:0:
152,144,35993,5,8,0:0:0:0:
120,180,36126,2,8,L|120:236,3,50
144,276,36657,1,0,0:0:0:0:
184,304,36789,1,4,0:0:0:0:
232,316,36922,1,0,0:0:0:0:
280,296,37055,2,8,L|316:240,1,50
328,208,37320,2,0,L|320:156,1,50
292,116,37586,1,0,0:0:0:0:
244,96,37719,1,0,0:0:0:0:
160,152,37984,1,4,0:0:0:0:
444,100,38382,5,0,0:0:0:0:
376,108,38515,2,0,L|312:104,1,50
276,120,38781,2,0,L|216:160,1,50
236,196,39046,2,0,L|292:232,1,50
256,268,39312,2,0,L|212:292,3,50
168,264,39843,2,0,L|148:200,2,50
164,100,40373,6,8,L|216:144,2,50
264,116,40904,2,8,L|220:72,2,50
200,192,41435,2,8,L|144:144,2,50
252,104,41966,1,4,0:0:0:0:
116,252,42497,5,0,0:0:0:0:
104,152,42763,1,0,0:0:0:0:
204,156,43028,1,0,0:0:0:0:
216,256,43294,1,0,0:0:0:0:
312,288,43559,2,0,P|348:256|336:188,1,100
252,180,44090,1,0,0:0:0:0:
156,148,44356,1,0,0:0:0:0:
32,232,44754,6,0,L|72:276,6,50
80,248,45683,2,0,L|132:292,1,50
268,260,46214,5,0,0:0:0:0:
268,100,46480,1,0,0:0:0:0:
116,52,46745,6,4,B|120:172|180:152|224:136|332:236,1,300
248,296,47807,2,2,B|324:224|312:152|236:68|176:68,1,300
132,92,48736,1,0,0:0:0:0:
116,140,48869,6,0,B|184:72|244:12|324:24|360:108,1,300
376,200,49931,5,2,0:0:0:0:
376,200,50064,1,2,0:0:0:0:
336,172,50196,1,2,0:0:0:0:
336,172,50329,1,2,0:0:0:0:
292,148,50462,1,2,0:0:0:0:
192,140,50727,1,4,0:0:0:0:
256,192,50993,12,4,53117,0:0:0:0:
192,128,57365,5,8,0:0:0:0:
304,72,57630,1,8,0:0:0:0:
340,192,57896,2,0,L|288:208,1,50
192,204,58294,2,0,L|144:244,1,50
68,288,58692,1,0,0:0:0:0:
108,320,58825,1,0,0:0:0:0:
152,348,58958,1,0,0:0:0:0:
204,348,59090,2,0,L|232:296,1,50
276,284,59356,1,0,0:0:0:0:
316,256,59489,6,2,B|356:188|284:132|204:108|100:148,1,300
192,200,60550,1,0,0:0:0:0:
280,156,60816,1,0,0:0:0:0:
132,152,61214,6,0,L|156:212,1,50
196,288,61612,2,2,B|308:284|348:216|324:116|224:112,1,300
144,164,62674,1,0,0:0:0:0:
292,300,63205,5,0,0:0:0:0:
224,132,63471,1,0,0:0:0:0:
160,156,63736,6,8,L|112:196,2,50
260,152,64267,2,8,L|304:200,2,50
248,252,64798,6,0,L|236:196,1,50
196,96,65064,2,0,L|160:144,1,50
120,240,65329,2,0,L|172:244,1,50
284,256,65595,1,4,0:0:0:0:
352,184,65860,5,0,0:0:0:0:
120,80,66258,1,0,0:0:0:0:
108,336,66657,1,0,0:0:0:0:
268,284,66922,2,8,L|316:248,1,50
356,180,67188,1,0,0:0:0:0:
196,128,67453,1,4,0:0:0:0:
116,252,67851,5,0,0:0:0:0:
100,204,67984,2,8,B|140:108|228:92|292:76|364:112|432:196,1,400
396,228,69179,1,0,0:0:0:0:
352,252,69312,6,8,B|300:212|296:120|276:64|124:144,1,300
104,180,70241,1,0,0:0:0:0:
84,224,70373,1,0,0:0:0:0:
84,276,70506,1,4,0:0:0:0:
124,308,70639,1,0,0:0:0:0:
180,224,70904,1,0,0:0:0:0:
280,220,71170,1,4,0:0:0:0:
120,176,71966,5,0,0:0:0:0:
296,76,72232,1,0,0:0:0:0:
316,276,72497,1,0,0:0:0:0:
132,200,72763,1,0,0:0:0:0:
276,60,73028,1,0,0:0:0:0:
424,192,73294,1,0,0:0:0:0:
228,160,73559,5,0,0:0:0:0:
180,248,73692,1,4,0:0:0:0:
256,312,73825,1,0,0:0:0:0:
256,192,74223,12,4,75949,0:0:0:0:
144,196,91347,5,0,0:0:0:0:
144,196,91878,1,0,0:0:0:0:
140,100,92409,5,0,0:0:0:0:
300,264,92674,1,0,0:0:0:0:
80,196,92940,1,0,0:0:0:0:
300,132,93205,1,0,0:0:0:0:
92,232,93471,1,4,0:0:0:0:
320,196,93736,5,2,0:0:0:0:
