osu file format v14

[General]
AudioFilename: Miya to Odoru.mp3
AudioLeadIn: 0
PreviewTime: 55785
Countdown: 0
SampleSet: Soft
StackLeniency: 0.7
Mode: 0
LetterboxInBreaks: 1
WidescreenStoryboard: 0

[Editor]
DistanceSpacing: 1
BeatDivisor: 4
GridSize: 4
TimelineZoom: 1

[Metadata]
Title:Miya to Odoru
TitleUnicode:
Artist:Nico Nico Douga
ArtistUnicode:
Creator:murasamenosigure
Version:Normal
Source:
Tags:Amagami Scarlet Sisters Saten-san
BeatmapID:111447
BeatmapSetID:34262

[Difficulty]
HPDrainRate:3
CircleSize:3
OverallDifficulty:3
ApproachRate:4
SliderMultiplier:0.99999990463257
SliderTickRate:1

[Events]
//Background and Video events
0,0,"miya_to_odoruBG.png",0,0
//Break Periods
//Storyboard Layer 0 (Background)
//Storyboard Layer 1 (Fail)
//Storyboard Layer 2 (Pass)
//Storyboard Layer 3 (Foreground)
//Storyboard Sound Samples

[TimingPoints]
38.265320357392,482.664155844156,4,1,0,70,1,0
9691,-100,4,2,1,70,0,0
56027,-100,4,2,1,75,0,1
59767,-100,4,2,1,70,0,1
63629,-100,4,2,1,60,0,1
67249,-100,4,2,1,70,0,1
71351,-100,4,2,1,60,0,1
71472,-100,4,2,1,60,0,0
79107,-100,4,2,1,55,0,0
82935,-100,4,2,1,50,0,0

[Colours]
Combo1 : 255,0,255
Combo2 : 255,128,128
Combo3 : 255,128,192
Combo4 : 255,128,255

[HitObjects]
256,72,9691,6,0,B|256:176,1,99.999990463257,8|8,0:0|0:0,0:0:0:0:
212,264,10656,1,0,0:0:0:0:
112,264,11139,1,8,0:0:0:0:
44,188,11622,2,0,B|28:128|72:80,1,99.999990463257,0|8,0:0|0:0,0:0:0:0:
160,72,12587,1,0,0:0:0:0:
160,72,13070,1,8,0:0:0:0:
256,92,13552,6,0,B|268:144|344:160,1,99.999990463257,0|8,0:0|0:0,0:0:0:0:
424,168,14518,2,0,B|460:216|420:272,1,99.999990463257,0|8,0:0|0:0,0:0:0:0:
340,308,15483,2,0,B|236:264,1,99.999990463257,0|8,0:0|0:0,0:0:0:0:
172,204,16448,2,0,B|172:136,2,49.9999952316285
92,256,17414,6,0,B|64:212|96:148,1,99.999990463257,8|0,0:0|0:0,0:0:0:0:
156,84,18379,1,0,0:0:0:0:
256,100,18862,2,0,B|304:132|360:100,1,99.999990463257,8|0,0:0|0:0,0:0:0:0:
432,164,19827,2,0,B|428:212|460:260,1,99.999990463257,8|0,0:0|0:0,0:0:0:0:
396,336,20792,1,8,0:0:0:0:
320,272,21275,6,0,B|220:208,1,99.999990463257,0|8,0:0|0:0,0:0:0:0:
136,236,22240,1,0,0:0:0:0:
200,312,22723,2,0,B|236:220,1,99.999990463257,8|0,0:0|0:0,0:0:0:0:
248,120,23688,2,0,B|280:72|252:20,2,99.999990463257,8|0|8,0:0|0:0|0:0,0:0:0:0:
160,68,25136,5,0,0:0:0:0:
72,128,25619,1,8,0:0:0:0:
116,216,26102,1,0,0:0:0:0:
96,316,26584,1,8,0:0:0:0:
96,316,27067,2,0,B|160:360|200:344,1,99.999990463257,0|8,0:0|0:0,0:0:0:0:
248,268,28032,5,0,0:0:0:0:
248,268,28515,2,0,B|304:260|340:304,1,99.999990463257,8|0,0:0|0:0,0:0:0:0:
436,308,29480,2,0,B|472:252|436:204,1,99.999990463257,8|0,0:0|0:0,0:0:0:0:
396,124,30446,1,8,0:0:0:0:
396,124,30928,2,0,B|416:60|464:44,2,99.999990463257
316,180,32376,1,0,0:0:0:0:
248,108,32859,5,0,0:0:0:0:
248,108,33342,2,0,B|212:64|156:64,1,99.999990463257,8|0,0:0|0:0,0:0:0:0:
152,164,34307,2,0,B|84:252,1,99.999990463257,8|0,0:0|0:0,0:0:0:0:
172,304,35272,1,8,0:0:0:0:
268,332,35755,2,0,B|320:308|388:324,1,99.999990463257,0|8,0:0|0:0,0:0:0:0:
336,232,36720,6,0,B|292:136,1,99.999990463257,0|8,0:0|0:0,0:0:0:0:
208,88,37686,1,0,0:0:0:0:
144,164,38168,2,0,B|116:212|160:272,1,99.999990463257,8|0,0:0|0:0,0:0:0:0:
240,288,39134,2,0,B|296:256|348:296,2,99.999990463257,8|0|8,0:0|0:0|0:0,0:0:0:0:
156,344,40582,6,0,B|104:368|48:336,1,99.999990463257,0|8,0:0|0:0,0:0:0:0:
100,252,41547,2,0,B|152:224|208:260,1,99.999990463257,0|8,0:0|0:0,0:0:0:0:
280,308,42512,1,0,0:0:0:0:
380,324,42995,1,8,0:0:0:0:
456,260,43478,2,0,B|456:144,1,99.999990463257,0|8,0:0|0:0,0:0:0:0:
392,84,44443,5,0,0:0:0:0:
392,84,44926,2,0,B|328:112|284:72,1,99.999990463257,8|0,0:0|0:0,0:0:0:0:
216,144,45891,2,0,B|188:192|220:244,1,99.999990463257,8|0,0:0|0:0,0:0:0:0:
304,284,46856,1,8,0:0:0:0:
304,284,47339,2,0,B|272:336|220:336,1,99.999990463257
132,292,48304,5,0,0:0:0:0:
132,192,48787,1,8,0:0:0:0:
164,96,49270,2,0,B|220:64|276:100,1,99.999990463257,0|8,0:0|0:0,0:0:0:0:
340,32,50235,2,0,B|388:132,1,99.999990463257,0|8,0:0|0:0,0:0:0:0:
464,180,51200,2,0,B|448:248|384:248,1,99.999990463257,0|8,0:0|0:0,0:0:0:0:
328,184,52165,5,0,0:0:0:0:
252,120,52648,1,8,0:0:0:0:
252,120,53131,2,0,B|184:108|136:132,1,99.999990463257,0|8,0:0|0:0,0:0:0:0:
212,208,54096,1,0,0:0:0:0:
216,308,54579,2,0,B|200:360|140:368,2,99.999990463257,8|0|8,0:0|0:0|0:0,0:0:0:0:
292,240,56027,6,0,B|320:192|392:192,1,99.999990463257,0|8,0:0|0:0,0:0:0:0:
476,204,56992,2,0,B|500:136|480:100,1,99.999990463257,0|8,0:0|0:0,0:0:0:0:
392,64,57957,2,0,B|352:96|280:92,1,99.999990463257,0|8,0:0|0:0,0:0:0:0:
200,76,58923,5,0,0:0:0:0:
152,80,59164,1,0,0:0:0:0:
120,120,59405,1,8,0:0:0:0:
192,188,59888,6,0,B|252:168|296:228,1,99.999990463257,0|8,0:0|0:0,0:0:0:0:
316,116,60853,2,0,B|348:72|408:80,1,99.999990463257,0|8,0:0|0:0,0:0:0:0:
432,176,61819,2,0,B|388:200|376:276,1,99.999990463257,0|8,0:0|0:0,0:0:0:0:
316,332,62784,1,0,0:0:0:0:
316,332,63267,1,8,0:0:0:0:
232,276,63749,6,0,B|128:216,1,99.999990463257,0|8,0:0|0:0,0:0:0:0:
212,148,64715,2,0,B|128:96,1,99.999990463257,0|8,0:0|0:0,0:0:0:0:
40,140,65680,2,0,B|16:196|44:256,1,99.999990463257,0|8,0:0|0:0,0:0:0:0:
112,304,66645,1,0,0:0:0:0:
152,332,66887,1,0,0:0:0:0:
200,340,67128,1,8,0:0:0:0:
292,304,67611,6,0,B|328:340|400:332,2,99.999990463257,0|8|0,0:0|0:0|0:0,0:0:0:0:
264,204,69059,1,8,0:0:0:0:
264,204,69541,2,0,B|244:144|184:124,1,99.999990463257,0|8,0:0|0:0,0:0:0:0:
120,192,70507,2,0,B|52:192,2,49.9999952316285
196,252,71472,6,0,B|224:296|300:296,1,99.999990463257,0|8,0:0|0:0,0:0:0:0:
380,280,72437,1,0,0:0:0:0:
452,212,72920,1,8,0:0:0:0:
428,116,73403,1,0,0:0:0:0:
364,36,73885,2,0,B|248:64,1,99.999990463257,8|0,0:0|0:0,0:0:0:0:
228,152,74851,6,0,B|204:208|152:220,1,99.999990463257,8|0,0:0|0:0,0:0:0:0:
72,164,75816,2,0,B|72:64,2,99.999990463257,8|0|8,0:0|0:0|0:0,0:0:0:0:
60,264,77264,1,0,0:0:0:0:
60,264,77747,2,8,B|152:320|272:296,1,199.999980926514
332,240,79195,6,0,B|388:256|400:312,1,99.999990463257,0|8,0:0|0:0,0:0:0:0:
476,244,80160,1,0,0:0:0:0:
476,244,80643,2,0,B|456:136,1,99.999990463257,8|0,0:0|0:0,0:0:0:0:
388,80,81608,1,8,0:0:0:0:
292,112,82091,1,0,0:0:0:0:
204,68,82573,1,8,0:0:0:0:
104,88,83056,6,0,B|84:140|108:192,1,99.999990463257,0|8,0:0|0:0,0:0:0:0:
196,192,84021,2,0,B|216:244|192:296,1,99.999990463257,0|8,0:0|0:0,0:0:0:0:
256,192,84987,12,0,86797,0:0:0:0:
