osu file format v14

[General]
AudioFilename: audio.mp3
AudioLeadIn: 0
PreviewTime: 165998
Countdown: 1
SampleSet: Normal
StackLeniency: 0.7
Mode: 0
LetterboxInBreaks: 0
WidescreenStoryboard: 0

[Editor]
Bookmarks: 30398,151898,212954
DistanceSpacing: 0.8
BeatDivisor: 4
GridSize: 8
TimelineZoom: 1

[Metadata]
Title:M.U. Renge was her? Final Devil Sister Nyanpasu
TitleUnicode:M.U. Renge was her? Final Devil Sister Nyanpasu
Artist:Nico Nico Douga
ArtistUnicode:Nico Nico Douga
Creator:alma199912
Version:The Nyanpasu Devil
Source:東方 Project
Tags:
BeatmapID:1125035
BeatmapSetID:530764

[Difficulty]
HPDrainRate:5
CircleSize:4.2
OverallDifficulty:8
ApproachRate:9.2
SliderMultiplier:1.9
SliderTickRate:2

[Events]
//Background and Video events
0,0,"BG.png",0,0
Video,0,"video.mp4"
//Break Periods
2,90298,99398
2,128848,137828
//Storyboard Layer 0 (Background)
//Storyboard Layer 1 (Fail)
//Storyboard Layer 2 (Pass)
//Storyboard Layer 3 (Foreground)
//Storyboard Sound Samples

[TimingPoints]
13598.4380793612,300,4,1,0,70,1,0
27398,-133.333333333333,4,1,0,70,0,0
27923,-100,4,1,0,5,0,0
27998,-100,4,1,0,70,0,0
39398,-133.333333333333,4,1,0,70,0,0
39698,-100,4,1,0,70,0,0
41048,-133.333333333333,4,1,0,70,0,0
41348,-100,4,1,0,70,0,0
42023,-100,4,1,0,5,0,0
42098,-100,4,1,0,70,0,0
46598,-133.333333333333,4,1,0,70,0,0
47123,-100,4,1,0,5,0,0
47198,-100,4,1,0,70,0,0
48960,-133.333333333333,4,1,0,70,0,0
49548,-100,4,1,0,70,0,0
51998,-100,4,1,0,70,0,1
56198,-133.333333333333,4,1,0,70,0,1
56723,-100,4,1,0,5,0,1
56798,-100,4,1,0,70,0,1
61298,-100,4,1,0,80,0,1
61448,-100,4,1,0,70,0,1
63623,-100,4,1,0,5,0,1
63698,-100,4,1,0,70,0,1
63923,-100,4,1,0,5,0,1
63998,-100,4,1,0,70,0,1
65798,-133.333333333333,4,1,0,70,0,1
66323,-100,4,1,0,5,0,1
66398,-100,4,1,0,70,0,1
68723,-100,4,1,0,5,0,1
68798,-100,4,1,0,70,0,1
71198,-100,4,1,0,70,0,0
73523,-100,4,1,0,5,0,0
73598,-100,4,1,0,70,0,0
75923,-100,4,1,0,5,0,0
75998,-100,4,1,0,70,0,0
109598,-100,4,1,0,70,0,1
113798,-133.333333333333,4,1,0,70,0,1
114323,-100,4,1,0,5,0,1
114398,-100,4,1,0,70,0,1
116723,-100,4,1,0,5,0,1
116798,-100,4,1,0,70,0,1
117998,-133.333333333333,4,1,0,70,0,1
118523,-100,4,1,0,5,0,1
118598,-100,4,1,0,70,0,1
123398,-133.333333333333,4,1,0,70,0,1
123923,-100,4,1,0,5,0,1
123998,-100,4,1,0,70,0,1
126323,-100,4,1,0,5,0,1
126398,-100,4,1,0,70,0,1
128798,-100,4,1,0,70,0,0
138398,-100,4,1,0,60,0,0
147998,-100,4,1,0,70,0,0
152198,-133.333333333333,4,1,0,70,0,0
152723,-100,4,1,0,5,0,0
152798,-100,4,1,0,70,0,0
156623,-100,4,1,0,5,0,0
156698,-100,4,1,0,70,0,0
156923,-100,4,1,0,5,0,0
156998,-100,4,1,0,70,0,0
157598,-100,4,1,0,70,0,1
157823,-100,4,1,0,5,0,1
157898,-100,4,1,0,70,0,1
158123,-100,4,1,0,5,0,1
158198,-100,4,1,0,70,0,1
158423,-100,4,1,0,5,0,1
158498,-100,4,1,0,70,0,1
162248,-100,4,1,0,5,0,1
162323,-100,4,1,0,70,0,1
162623,-100,4,1,0,5,0,1
162698,-100,4,1,0,70,0,1
162923,-100,4,1,0,5,0,1
162998,-100,4,1,0,70,0,1
163223,-100,4,1,0,5,0,1
163298,-100,4,1,0,70,0,1
165998,-100,4,1,0,70,0,0
167198,-100,4,1,0,70,0,1
171698,-66.6666666666667,4,1,0,70,0,1
171848,-100,4,1,0,5,0,1
171923,-100,4,1,0,70,0,1
178823,-100,4,1,0,5,0,1
178898,-100,4,1,0,70,0,1
179123,-100,4,1,0,5,0,1
179198,-100,4,1,0,70,0,1
181223,-100,4,1,0,5,0,1
181298,-100,4,1,0,70,0,1
181523,-100,4,1,0,5,0,1
181598,-100,4,1,0,70,0,1
186398,-100,4,1,0,70,0,0
193523,-100,4,1,0,5,0,0
193598,-100,4,1,0,70,0,0
197498,-100,4,1,0,60,0,0
198398,-100,4,1,0,60,0,0
202373,-100,4,1,0,5,0,0
202448,-100,4,1,0,70,0,0
202823,-100,4,1,0,5,0,0
202898,-100,4,1,0,70,0,0
203123,-100,4,1,0,5,0,0
203198,-100,4,1,0,70,0,0
204773,-100,4,1,0,5,0,0
204848,-100,4,1,0,70,0,0
205223,-100,4,1,0,5,0,0
205298,-100,4,1,0,70,0,0
212648,-100,4,1,0,5,0,0

[HitObjects]
256,192,13599,12,2,15699,0:2:0:0:
256,192,15998,5,0,0:0:0:0:
256,192,16073,12,0,18098,0:2:0:0:
256,192,18398,5,0,0:0:0:0:
256,192,18473,12,2,20498,0:2:0:0:
256,192,20798,5,0,0:0:0:0:
256,192,20873,12,2,21698,0:2:0:0:
270,58,21998,5,2,0:1:0:0:
302,77,22073,1,2,0:2:0:0:
319,110,22148,1,2,0:2:0:0:
320,147,22223,1,2,0:2:0:0:
306,182,22298,1,2,0:2:0:0:
279,208,22373,1,2,0:2:0:0:
243,221,22448,1,2,0:2:0:0:
206,209,22523,1,2,0:2:0:0:
175,185,22598,5,2,0:2:0:0:
137,182,22673,1,2,0:2:0:0:
101,196,22748,1,2,0:2:0:0:
92,233,22823,1,2,0:2:0:0:
106,267,22898,1,2,0:2:0:0:
141,280,22973,1,2,0:2:0:0:
178,272,23048,1,2,0:2:0:0:
215,264,23123,1,2,0:2:0:0:
251,275,23198,5,2,0:2:0:0:
390,338,23498,1,0,0:0:0:0:
475,212,23798,1,0,0:0:0:0:
351,135,24098,1,0,0:0:0:0:
387,201,24248,2,0,P|426:121|363:59,1,190
194,96,24698,5,0,0:0:0:0:
53,153,24998,1,0,0:0:0:0:
176,245,25298,1,0,0:0:0:0:
332,27,25598,5,0,0:0:0:0:
440,104,25898,2,0,P|478:130|495:178,1,95
414,183,26198,1,0,0:0:0:0:
224,252,26498,1,0,0:0:0:0:
230,337,26648,2,0,P|145:287|177:179,1,190
224,76,27098,1,0,0:0:0:0:
87,163,27398,2,0,P|165:266|288:224,1,249.375009512902
294,213,27998,5,2,2:1:0:0:
374,81,28298,1,0,0:0:0:0:
438,220,28598,1,0,2:1:0:0:
350,345,28898,1,0,0:0:0:0:
280,294,29048,2,0,P|336:261|395:268,2,95,0|2|0,0:0|2:1|0:0,0:0:0:0:
364,260,29498,5,0,0:0:0:0:
491,176,29798,1,0,2:1:0:0:
355,109,30098,1,0,0:0:0:0:
214,120,30398,6,0,P|243:82|250:36,1,95,2|0,2:1|0:0,0:0:0:0:
154,166,30698,2,0,P|172:210|209:239,1,95
141,92,30998,2,0,P|82:87|42:109,1,95,2|0,2:1|0:0,0:0:0:0:
64,224,31298,5,0,0:0:0:0:
16,296,31448,2,0,P|108:296|144:204,1,190,2|2,2:1|2:1,0:0:0:0:
228,144,31898,1,2,2:1:0:0:
340,104,32198,1,2,2:1:0:0:
372,212,32348,5,0,0:0:0:0:
372,212,32423,1,0,0:0:0:0:
372,212,32498,1,0,0:0:0:0:
452,288,32648,1,0,0:0:0:0:
452,288,32723,1,0,0:0:0:0:
452,288,32798,6,0,P|480:228|468:180,1,95,0|0,0:0|2:2,0:0:0:0:
456,68,33098,2,0,P|418:14|370:1,1,95,0|0,0:0|2:0,0:0:0:0:
377,83,33398,2,0,P|312:95|280:133,1,95,0|0,2:0|2:0,2:0:0:0:
212,40,33698,1,0,0:0:0:0:
120,96,33848,2,0,P|164:136|224:140,1,95,0|0,0:0|2:0,0:0:0:0:
288,112,34148,6,0,P|288:172|268:212,1,95,0|0,2:0|2:0,2:0:0:0:
184,232,34448,2,0,P|232:283|282:293,1,95,0|0,2:0|2:0,2:0:0:0:
340,248,34748,1,0,2:0:0:0:
449,216,34898,1,0,2:0:0:0:
423,327,35048,1,0,2:0:0:0:
296,348,35198,6,0,P|248:316|224:272,1,95,0|0,0:0|2:0,0:0:0:0:
236,192,35498,2,0,P|179:204|144:248,1,95,0|0,0:0|2:0,0:0:0:0:
136,320,35798,1,0,0:0:0:0:
65,263,35948,1,0,2:0:0:0:
55,247,36023,1,0,2:0:0:0:
49,228,36098,1,0,2:0:0:0:
45,209,36173,1,0,2:0:0:0:
43,190,36248,1,0,2:0:0:0:
52,120,36398,6,0,P|125:121|160:155,1,95,0|0,0:0|2:0,0:0:0:0:
224,84,36698,1,0,2:0:0:0:
256,160,36848,1,0,1:2:0:0:
160,152,36998,2,0,P|131:107|143:43,1,95,0|0,2:0|2:0,0:0:0:0:
300,88,37298,1,0,1:0:0:0:
340,160,37448,1,0,2:0:0:0:
281,224,37598,6,0,P|345:250|426:165,1,190,0|0,2:0|2:0,2:0:0:0:
483,106,38198,2,0,P|416:86|355:109,1,95,0|0,2:0|2:0,2:0:0:0:
292,204,38648,2,0,P|217:258|126:242,1,190,0|0,2:0|2:0,2:0:0:0:
194,157,39098,5,0,2:0:0:0:
240,68,39398,2,0,P|171:57|113:96,1,142.500005435944,0|0,2:0|2:0,1:0:0:0:
237,186,39998,6,0,P|285:235|286:298,1,95,0|0,2:0|2:0,2:0:0:0:
231,318,40298,2,0,P|305:343|341:327,1,95,0|0,2:0|2:0,2:0:0:0:
396,356,40598,2,0,P|392:304|362:266,1,95,0|0,2:0|2:0,2:0:0:0:
297,227,40898,1,0,2:0:0:0:
210,228,41048,2,0,P|242:162|318:145,1,142.500005435944,0|0,2:0|2:0,2:0:0:0:
332,149,41498,5,0,2:0:0:0:
391,217,41798,2,0,P|423:165|365:69,1,142.5,0|0,2:0|2:0,2:0:0:0:
378,69,42098,1,8,0:0:0:0:
296,194,42398,6,0,P|304:240|334:277,1,95,0|0,0:0|0:0,0:0:0:0:
225,148,42698,2,0,P|178:156|141:186,1,95,0|0,0:0|0:0,0:0:0:0:
275,82,42998,2,0,P|265:35|236:-1,1,95,0|0,1:0|0:0,0:0:0:0:
339,127,43298,2,0,P|385:117|422:88,1,95,0|0,0:0|0:0,0:0:0:0:
185,231,43598,6,0,P|149:261|131:305,1,95,0|0,0:0|0:0,0:0:0:0:
189,146,43898,2,0,P|158:110|114:92,1,95,0|0,0:0|0:0,0:0:0:0:
271,156,44198,2,0,P|306:124|324:81,1,95
264,234,44498,2,0,P|294:269|338:287,1,95,0|0,2:0|2:0,2:0:0:0:
188,245,44798,5,0,2:0:0:0:
189,93,45098,1,0,2:0:0:0:
323,163,45398,1,0,2:0:0:0:
396,261,45698,1,0,2:0:0:0:
452,324,45848,2,2,P|368:344|316:244,1,190,2|2,2:1|2:1,2:1:0:0:
240,188,46298,5,0,2:0:0:0:
308,112,46598,2,0,P|222:82|146:211,1,249.375009512902,0|0,2:0|2:0,2:0:0:0:
144,236,47198,6,0,L|163:309,3,71.25
264,224,47798,2,0,L|283:297,3,71.25,0|0|0|0,0:0|0:0|0:0|0:0,0:0:0:0:
372,208,48398,6,0,L|385:271,3,63.3333333333333
392,292,48810,1,0,0:0:0:0:
416,298,48960,2,0,P|466:266|390:94,1,285.000010871888
256,192,49673,12,0,51098,3:0:0:0:
368,92,51398,5,0,3:0:0:0:
368,115,51473,1,0,3:0:0:0:
368,139,51548,1,0,3:0:0:0:
368,163,51623,1,0,3:0:0:0:
368,187,51698,1,0,3:0:0:0:
368,210,51773,1,0,3:0:0:0:
368,234,51848,1,0,3:0:0:0:
368,258,51923,1,0,3:0:0:0:
368,282,51998,5,0,0:2:0:0:
224,296,52298,2,0,P|216:224|160:160,1,142.5,8|0,0:2|0:2,0:2:0:0:
144,160,52598,1,0,0:2:0:0:
128,72,52898,1,8,0:2:0:0:
52,40,53048,2,0,P|112:-8|208:80,1,190,0|0,0:2|0:2,0:2:0:0:
256,112,53498,5,8,0:2:0:0:
360,64,53648,1,0,0:2:0:0:
352,176,53798,1,0,0:2:0:0:
440,144,54098,2,0,P|444:196|412:252,1,95,8|0,0:2|0:2,0:2:0:0:
224,296,54398,5,0,0:2:0:0:
237,115,54548,1,0,0:2:0:0:
338,278,54698,1,0,0:2:0:0:
161,200,54848,1,8,0:2:0:0:
339,165,54998,1,0,0:2:0:0:
152,84,55148,1,0,0:2:0:0:
152,84,55223,1,0,0:2:0:0:
152,84,55298,2,0,P|112:128|96:176,1,95,8|0,0:2|0:2,0:2:0:0:
132,276,55598,5,0,0:2:0:0:
224,148,55748,1,0,0:2:0:0:
260,292,55898,1,8,0:2:0:0:
328,192,56048,1,0,0:2:0:0:
378,285,56198,2,0,P|467:198|416:86,1,249.375009512902
387,83,56798,5,8,2:2:0:0:
379,182,57098,2,0,P|306:155|281:94,1,142.5,8|0,0:2|0:2,0:2:0:0:
280,72,57398,1,0,0:2:0:0:
168,19,57698,1,8,0:2:0:0:
80,24,57848,2,0,P|120:96|220:92,1,190,0|0,0:2|0:2,0:2:0:0:
296,148,58298,5,8,0:2:0:0:
296,262,58448,1,0,0:2:0:0:
191,220,58598,1,0,0:2:0:0:
116,108,58898,2,0,P|138:67|180:45,1,95,8|0,0:2|0:2,0:2:0:0:
228,40,59198,5,0,0:2:0:0:
260,198,59348,1,8,0:2:0:0:
340,52,59498,1,0,0:2:0:0:
180,132,59648,1,0,0:2:0:0:
365,154,59798,1,0,0:2:0:0:
376,328,59948,1,0,0:2:0:0:
376,328,60023,1,0,0:2:0:0:
376,328,60098,2,0,P|393:265|430:223,1,95,8|0,0:2|0:2,0:2:0:0:
428,216,60398,5,0,0:2:0:0:
405,135,60548,2,0,P|415:100|396:28,1,95,8|8,0:2|0:2,0:2:0:0:
315,11,60848,1,0,0:0:0:0:
309,105,60998,1,8,0:2:0:0:
309,105,61073,1,8,0:2:0:0:
309,105,61148,1,8,0:2:0:0:
221,67,61298,1,8,0:2:0:0:
221,67,61448,1,0,0:2:0:0:
119,80,61598,5,0,0:2:0:0:
62,171,61898,2,0,P|80:222|155:247,1,95,8|0,0:2|0:2,0:2:0:0:
138,256,62198,1,0,0:2:0:0:
214,283,62348,2,0,P|188:326|144:338,2,95,0|8|0,0:2|0:2|0:2,0:2:0:0:
203,197,62798,6,0,P|270:212|296:266,1,95,0|0,0:2|0:2,0:2:0:0:
307,255,63023,1,0,0:0:0:0:
338,265,63098,1,0,0:0:0:0:
371,266,63173,1,0,0:0:0:0:
403,257,63248,1,0,0:0:0:0:
428,235,63323,1,0,0:0:0:0:
444,213,63398,6,0,P|456:145|406:83,1,142.5,0|0,0:2|0:2,0:2:0:0:
377,75,63698,2,0,P|310:96|203:75,1,142.5,8|0,0:2|0:2,0:2:0:0:
212,83,63998,5,0,0:2:0:0:
107,250,64148,1,0,0:2:0:0:
99,62,64298,1,0,0:2:0:0:
211,204,64448,1,0,0:2:0:0:
40,159,64598,1,8,0:2:0:0:
297,129,64748,1,0,0:2:0:0:
297,129,64823,1,0,0:2:0:0:
297,129,64898,2,0,P|327:164|329:210,1,95,8|0,0:2|0:2,0:2:0:0:
185,362,65198,5,0,0:2:0:0:
229,233,65348,1,0,0:2:0:0:
298,361,65498,1,8,0:2:0:0:
329,251,65648,1,0,0:2:0:0:
429,326,65798,2,0,P|479:237|379:140,1,249.375009512902
346,136,66398,5,0,0:2:0:0:
410,290,66698,1,8,0:2:0:0:
243,287,66998,2,0,P|192:261|155:195,1,95,0|0,0:2|0:2,0:2:0:0:
106,134,67298,1,8,0:2:0:0:
178,65,67448,2,0,P|240:-5|336:39,1,190,0|0,0:2|0:2,0:2:0:0:
264,83,67898,6,0,P|268:128|260:164,2,47.5,8|0|0,0:2|0:2|0:2,0:2:0:0:
376,68,68198,1,0,0:2:0:0:
332,192,68348,1,0,0:2:0:0:
230,120,68498,2,0,P|161:135|107:181,1,142.5,8|0,0:2|0:2,0:2:0:0:
94,200,68798,5,0,0:2:0:0:
33,116,68948,2,0,L|33:62,2,47.5,0|0|8,0:2|0:2|0:2,0:2:0:0:
7,233,69248,2,0,P|59:288|89:294,1,95,0|0,0:2|0:2,0:2:0:0:
188,285,69548,1,0,0:2:0:0:
188,285,69623,1,0,0:2:0:0:
188,285,69698,2,0,P|230:241|264:230,1,95,8|0,0:2|0:2,0:2:0:0:
293,313,69998,6,0,P|346:251|347:210,1,95,0|0,0:2|0:2,0:2:0:0:
412,184,70298,2,0,P|371:159|324:157,1,95,8|0,0:2|0:2,0:2:0:0:
261,230,70598,2,0,P|234:191|231:144,1,95,0|0,0:2|0:2,0:2:0:0:
292,64,70898,2,0,P|211:46|175:64,1,95,8|0,0:2|0:2,0:2:0:0:
168,46,71198,5,0,2:1:0:0:
104,116,71348,1,0,2:1:0:0:
40,186,71498,1,0,2:1:0:0:
246,102,71648,5,0,2:1:0:0:
182,172,71798,1,0,2:1:0:0:
118,242,71948,1,0,2:1:0:0:
325,157,72098,5,0,2:1:0:0:
261,227,72248,1,0,2:1:0:0:
197,309,72398,6,0,P|107:321|57:246,1,190,0|0,3:2|3:2,3:2:0:0:
152,237,72848,2,0,P|238:201|329:226,1,190,0|0,3:0|3:0,3:0:0:0:
316,336,73298,2,0,P|390:323|425:231,1,142.5,0|0,3:0|3:0,3:0:0:0:
442,218,73598,5,0,0:0:0:0:
407,43,73748,1,0,0:0:0:0:
492,120,73898,1,0,0:0:0:0:
308,100,74048,1,0,0:0:0:0:
323,212,74198,5,0,2:0:0:0:
408,143,74348,1,0,2:0:0:0:
408,143,74423,1,0,2:0:0:0:
408,143,74498,1,0,2:0:0:0:
364,62,74648,1,0,2:0:0:0:
266,33,74798,6,0,P|185:54|168:163,1,190,0|0,3:0|3:0,3:0:0:0:
246,122,75248,2,0,P|231:203|123:231,1,190,0|0,3:0|3:0,3:0:0:0:
161,148,75698,2,0,P|78:168|48:233,1,142.5,0|0,3:0|3:0,3:0:0:0:
78,279,76048,6,0,P|95:306|156:334,1,95
244,313,76298,1,0,0:0:0:0:
106,186,76498,2,0,P|123:213|184:241,1,95
272,220,76748,1,0,0:0:0:0:
297,26,76898,1,0,0:0:0:0:
195,111,77048,1,0,0:0:0:0:
380,129,77198,5,2,3:0:0:0:
483,54,77348,1,2,3:0:0:0:
483,54,77423,1,2,3:0:0:0:
483,54,77498,1,2,3:0:0:0:
303,63,77648,5,2,3:0:0:0:
304,277,77798,1,2,3:0:0:0:
406,108,77948,1,2,3:0:0:0:
214,205,78098,1,2,3:0:0:0:
403,219,78248,1,2,3:0:0:0:
178,126,78398,6,0,P|132:114|88:129,1,95
72,230,78698,1,0,0:0:0:0:
0,114,78848,2,0,P|20:72|61:48,1,95
186,46,79148,1,0,0:0:0:0:
272,48,79298,5,0,0:0:0:0:
284,55,79373,1,0,0:0:0:0:
296,62,79448,1,0,0:0:0:0:
308,68,79523,1,0,0:0:0:0:
319,76,79598,2,0,P|382:138|347:240,1,190,0|0,3:3|3:3,3:3:0:0:
294,164,80048,2,0,P|266:236|331:317,1,190,0|0,3:3|3:3,3:3:0:0:
357,326,80498,2,0,P|434:307|458:288,1,95
453,208,80798,5,4,2:0:0:0:
453,208,80873,1,0,2:0:0:0:
453,208,80948,1,0,2:0:0:0:
358,143,81098,1,0,2:0:0:0:
358,143,81173,1,0,2:0:0:0:
358,143,81248,1,0,2:0:0:0:
255,83,81398,2,0,P|219:45|164:34,1,95,0|0,2:0|2:0,2:0:0:0:
177,124,81698,2,0,P|162:168|127:199,1,95,0|0,2:0|2:0,2:0:0:0:
71,121,81998,5,0,2:0:0:0:
46,227,82148,1,0,2:0:0:0:
46,227,82223,1,0,2:0:0:0:
46,227,82298,2,0,P|89:281|156:286,1,95,0|0,2:0|2:0,2:0:0:0:
146,286,82598,5,0,2:0:0:0:
247,318,82748,1,0,2:0:0:0:
247,318,82823,1,0,2:0:0:0:
247,318,82898,2,0,P|261:255|285:231,1,95
378,274,83198,6,0,P|430:276|473:242,1,95
405,187,83498,2,0,P|444:151|450:97,1,95
343,62,83798,1,0,0:0:0:0:
320,55,83873,1,0,0:0:0:0:
303,71,83948,1,0,0:0:0:0:
279,71,84023,1,0,0:0:0:0:
266,91,84098,1,0,0:0:0:0:
242,85,84173,1,0,0:0:0:0:
221,97,84248,6,0,P|212:42|185:6,1,95
157,13,84473,1,0,0:0:0:0:
99,119,84698,2,0,L|121:178,3,47.5
126,197,84998,1,0,0:0:0:0:
236,168,85148,1,0,0:0:0:0:
259,260,85298,2,0,P|229:327|181:338,1,95
109,237,85598,6,0,P|86:179|90:132,1,95,0|0,3:0|3:0,3:0:0:0:
96,114,85823,1,0,3:0:0:0:
106,92,85898,2,0,P|148:47|183:49,1,95,0|0,3:0|3:0,3:0:0:0:
212,56,86123,1,0,3:0:0:0:
237,78,86198,1,0,3:0:0:0:
248,105,86273,1,0,3:0:0:0:
256,133,86348,1,0,3:0:0:0:
268,162,86423,1,0,3:0:0:0:
274,188,86498,2,0,P|349:210|397:187,1,95,0|0,3:0|3:0,3:0:0:0:
397,193,86723,1,0,3:0:0:0:
418,182,86798,6,0,P|462:204|476:259,1,95,0|0,3:0|3:0,3:0:0:0:
474,283,87023,1,0,3:0:0:0:
460,309,87098,2,0,P|420:343|365:334,1,95,0|0,3:0|3:0,3:0:0:0:
302,291,87398,1,0,3:0:0:0:
290,252,87473,1,0,3:0:0:0:
306,217,87548,1,0,3:0:0:0:
330,188,87623,1,0,3:0:0:0:
362,167,87698,2,0,P|374:101|345:65,1,95,0|0,3:0|3:0,3:0:0:0:
245,81,87998,5,0,0:0:0:0:
131,71,88148,1,0,0:0:0:0:
171,181,88298,1,0,0:0:0:0:
171,181,88373,1,0,0:0:0:0:
171,181,88448,1,0,0:0:0:0:
50,220,88598,2,0,P|85:286|114:297,1,95,0|0,2:0|2:0,2:0:0:0:
246,265,88898,2,0,P|285:201|280:171,1,95,0|0,2:0|2:0,2:0:0:0:
268,139,89198,5,4,0:2:0:0:
353,58,89348,1,0,2:2:0:0:
353,58,89423,1,0,2:2:0:0:
353,58,89498,1,0,2:2:0:0:
373,170,89648,1,4,0:2:0:0:
484,191,89798,1,0,2:2:0:0:
484,191,89873,1,0,2:2:0:0:
484,191,89948,1,0,2:2:0:0:
407,275,90098,1,4,0:2:0:0:
96,100,99998,5,4,2:0:0:0:
229,28,100298,1,0,2:0:0:0:
225,180,100598,1,0,2:0:0:0:
92,252,100898,1,0,2:0:0:0:
60,181,101048,2,0,P|14:275|89:329,1,190,0|0,2:0|2:0,2:0:0:0:
282,288,101498,5,0,2:0:0:0:
367,161,101798,1,0,2:0:0:0:
434,298,102098,1,0,2:0:0:0:
512,114,102398,5,0,2:0:0:0:
367,66,102698,1,0,2:0:0:0:
397,213,102998,1,0,2:0:0:0:
260,156,103298,1,0,2:0:0:0:
288,85,103448,2,0,P|192:127|217:216,1,190,0|0,2:0|2:0,2:0:0:0:
332,304,103898,5,0,2:0:0:0:
448,224,104198,1,0,2:0:0:0:
304,53,104798,5,4,2:0:0:0:
269,201,105098,1,0,2:0:0:0:
154,101,105398,1,0,2:0:0:0:
392,140,105698,1,0,2:0:0:0:
343,83,105848,2,0,P|394:66|442:86,2,95,0|4|0,2:0|2:0|2:0,2:0:0:0:
352,284,106298,5,0,2:0:0:0:
204,324,106598,1,0,2:0:0:0:
240,184,106898,1,0,2:0:0:0:
391,171,107198,5,4,3:2:0:0:
311,42,107498,1,0,3:2:0:0:
225,168,107798,1,4,3:2:0:0:
86,106,108098,1,0,3:2:0:0:
98,30,108248,2,0,P|19:71|33:159,1,190,4|4,3:2|3:2,3:2:0:0:
166,268,108698,5,4,3:2:0:0:
316,245,108998,1,4,3:2:0:0:
367,101,109298,1,4,3:2:0:0:
252,158,109598,5,6,2:2:0:0:
121,79,109898,1,2,2:2:0:0:
130,230,110198,1,2,2:2:0:0:
304,248,110498,1,2,2:2:0:0:
303,322,110648,2,2,P|378:250|326:174,1,190,2|2,2:2|2:2,2:2:0:0:
332,87,111098,5,2,2:2:0:0:
255,2,111248,1,2,2:2:0:0:
222,111,111398,1,2,2:2:0:0:
88,38,111698,1,2,2:2:0:0:
78,189,111998,6,0,P|82:268|101:296,1,95,0|0,2:0|2:0,2:0:0:0:
162,300,112298,2,0,P|132:343|84:359,2,95,0|0|0,2:0|2:0|2:0,2:0:0:0:
212,175,112748,1,0,2:0:0:0:
212,175,112823,1,0,2:0:0:0:
212,175,112898,2,0,P|263:221|281:273,1,95,0|0,2:0|2:0,2:0:0:0:
292,357,113198,5,0,2:0:0:0:
401,326,113348,2,0,P|457:310|481:269,1,95,0|0,2:0|2:0,2:0:0:0:
477,167,113648,1,0,2:0:0:0:
411,256,113798,2,0,P|304:213|297:86,1,249.375009512902,0|0,2:0|2:0,2:0:0:0:
310,54,114398,5,4,2:0:0:0:
438,112,114698,1,0,2:0:0:0:
381,236,114998,1,0,2:0:0:0:
244,160,115298,1,0,2:0:0:0:
239,236,115448,2,0,P|170:179|203:97,1,190,0|0,2:0|2:0,2:0:0:0:
201,58,115898,5,0,2:0:0:0:
28,109,116048,1,0,2:0:0:0:
90,5,116198,1,0,2:0:0:0:
98,226,116498,2,0,P|120:292|178:331,1,142.5,0|0,2:0|2:0,2:0:0:0:
202,336,116798,6,0,P|248:345|296:332,1,95,0|0,2:0|2:0,2:0:0:0:
334,313,117098,1,0,2:0:0:0:
393,206,117248,1,0,2:0:0:0:
462,312,117398,1,0,2:0:0:0:
496,212,117548,1,0,2:0:0:0:
496,212,117623,1,0,2:0:0:0:
496,212,117698,2,0,P|475:157|419:115,1,95,0|0,2:0|2:0,2:0:0:0:
424,108,117998,6,0,P|448:13|318:14,1,249.375009512902,0|0,2:0|2:0,2:0:0:0:
308,28,118598,5,2,3:2:0:0:
299,54,118673,1,2,3:2:0:0:
280,75,118748,1,2,3:2:0:0:
254,86,118823,1,2,3:2:0:0:
228,75,118898,1,2,3:2:0:0:
201,69,118973,1,2,3:2:0:0:
176,80,119048,1,2,3:2:0:0:
158,101,119123,1,2,3:2:0:0:
152,128,119198,5,2,3:2:0:0:
324,226,119498,1,2,3:1:0:0:
305,92,119798,1,2,3:1:0:0:
193,263,120098,1,2,3:1:0:0:
247,310,120248,2,2,P|163:335|119:258,1,190,2|2,3:1|3:1,3:1:0:0:
220,117,120698,5,2,3:1:0:0:
320,63,120848,1,2,3:1:0:0:
337,176,120998,1,2,3:1:0:0:
467,92,121298,1,2,3:1:0:0:
429,230,121598,6,2,P|398:274|343:298,1,95,2|2,2:1|2:1,2:1:0:0:
276,264,121898,2,2,P|272:316|299:358,2,95,2|2|2,2:1|2:1|2:1,2:1:0:0:
334,190,122348,1,2,2:1:0:0:
334,190,122423,1,2,2:1:0:0:
334,190,122498,2,2,P|285:171|241:179,1,95,2|2,2:1|2:1,2:1:0:0:
185,290,122798,5,2,2:1:0:0:
82,219,122948,2,2,P|37:181|32:134,1,95,2|2,2:1|2:1,2:1:0:0:
77,42,123248,1,2,2:1:0:0:
124,132,123398,2,0,P|160:96|208:92,1,71.2500027179719,2|0,2:1|2:1,2:1:0:0:
192,164,123698,2,0,P|256:180|312:168,1,106.875004076958,0|0,2:1|2:1,2:1:0:0:
332,153,123998,5,2,3:1:0:0:
328,304,124298,1,2,3:1:0:0:
192,234,124598,1,2,3:1:0:0:
188,95,124898,1,2,3:1:0:0:
167,65,125048,2,2,P|134:30|91:11,2,95,2|0|2,3:1|3:1|3:1,3:1:0:0:
91,11,125498,5,2,3:1:0:0:
101,135,125648,1,2,3:1:0:0:
211,204,125798,1,2,3:1:0:0:
304,145,126098,2,2,P|318:210|264:297,1,142.5,2|2,2:1|2:1,2:1:0:0:
271,296,126398,5,2,2:1:0:0:
163,334,126548,1,2,2:1:0:0:
182,218,126698,2,2,P|121:216|70:189,2,95,2|2|2,2:1|2:1|2:1,2:1:0:0:
284,169,127148,1,2,2:1:0:0:
284,169,127223,1,2,2:1:0:0:
284,169,127298,2,2,P|356:180|405:158,1,95,2|2,2:1|2:1,2:1:0:0:
407,97,127598,6,0,P|452:148|449:209,1,95,2|0,3:2|3:1,3:1:0:0:
326,55,127898,2,0,P|377:10|438:13,1,95,2|0,3:2|3:2,3:2:0:0:
282,129,128198,2,0,P|237:77|240:17,1,95,2|0,3:2|3:2,3:2:0:0:
355,167,128498,2,0,P|303:212|243:209,1,95,2|0,3:2|3:2,3:2:0:0:
71,121,138398,5,6,3:2:0:0:
237,77,138698,1,2,3:2:0:0:
120,261,138998,1,2,3:2:0:0:
250,201,139298,5,2,3:2:0:0:
262,123,139448,2,2,P|325:167|288:272,1,190,2|2,3:2|3:2,3:2:0:0:
149,196,139898,1,2,3:2:0:0:
213,58,140198,1,2,3:2:0:0:
213,58,140348,1,2,3:2:0:0:
213,58,140498,1,2,3:2:0:0:
308,51,140798,5,2,3:2:0:0:
422,154,141098,1,2,3:2:0:0:
276,183,141398,1,2,3:2:0:0:
384,276,141698,5,2,3:2:0:0:
387,195,141848,2,2,P|308:237|322:325,1,190,2|2,3:2|3:2,3:2:0:0:
467,240,142298,1,2,3:2:0:0:
447,100,142598,1,2,3:2:0:0:
315,41,142898,1,2,3:2:0:0:
198,157,143198,5,12,3:2:0:0:
147,41,143498,1,0,3:2:0:0:
80,137,143798,1,8,3:2:0:0:
180,249,144098,5,0,3:2:0:0:
228,343,144248,2,0,P|281:326|305:282,2,95,8|4|8,3:2|3:2|3:2,3:2:0:0:
110,340,144698,1,8,3:2:0:0:
41,237,144998,1,8,3:2:0:0:
109,132,145298,1,8,3:2:0:0:
260,64,145598,6,0,P|301:114|302:158,1,95,12|0,3:2|3:2,3:2:0:0:
260,241,145898,1,8,3:2:0:0:
169,204,146048,1,0,3:2:0:0:
73,223,146198,2,0,P|96:283|134:305,1,95,12|0,3:2|3:2,3:2:0:0:
259,318,146498,1,8,3:2:0:0:
362,250,146648,1,8,3:2:0:0:
304,147,146798,2,0,P|241:114|204:123,1,95,12|8,3:2|3:2,3:2:0:0:
121,194,147098,2,0,P|183:226|220:217,1,95,12|8,3:2|3:2,3:2:0:0:
312,165,147398,5,12,3:2:0:0:
383,81,147548,1,8,3:2:0:0:
383,81,147623,1,8,3:2:0:0:
383,81,147698,1,12,3:2:0:0:
477,90,147848,1,8,3:2:0:0:
492,211,147998,5,12,2:2:0:0:
284,148,148298,1,2,2:2:0:0:
136,256,148598,1,0,2:2:0:0:
328,272,148898,5,2,2:2:0:0:
283,211,149048,2,0,P|263:313|350:344,1,190,0|0,2:2|2:2,2:2:0:0:
464,268,149498,5,2,2:2:0:0:
484,140,149648,1,0,2:2:0:0:
356,188,149798,1,0,2:2:0:0:
204,72,150098,1,2,2:2:0:0:
80,264,150398,6,0,P|128:296|204:284,1,95,0|0,2:0|2:0,2:0:0:0:
264,356,150698,2,0,P|281:312|275:265,1,95,2|0,2:0|2:0,2:0:0:0:
172,196,150998,1,0,2:0:0:0:
288,176,151148,1,0,2:0:0:0:
288,176,151223,1,0,2:0:0:0:
288,176,151298,2,0,P|360:192|384:212,1,95,2|0,2:0|2:0,2:0:0:0:
432,304,151598,5,0,2:0:0:0:
488,204,151748,1,0,2:0:0:0:
376,180,151898,1,2,2:0:0:0:
456,96,152048,1,0,2:0:0:0:
372,100,152198,2,0,B|260:20|248:176|120:60,1,249.375009512902,0|0,2:0|2:0,2:0:0:0:
100,72,152798,5,2,3:3:0:0:
120,224,153098,1,2,3:3:0:0:
264,172,153398,1,2,3:3:0:0:
404,116,153698,1,2,3:3:0:0:
376,84,153848,2,2,P|332:56|272:56,2,95,2|2|2,3:3|3:3|3:3,3:3:0:0:
290,52,154298,5,2,3:3:0:0:
392,196,154448,1,2,3:3:0:0:
240,204,154598,1,2,3:3:0:0:
156,84,154898,2,0,P|104:108|72:172,1,95,2|0,3:3|3:0,3:0:0:0:
88,280,155198,5,8,3:2:0:0:
224,312,155348,1,0,3:0:0:0:
192,192,155498,2,0,P|256:168|304:192,1,95,0|0,3:0|3:0,3:0:0:0:
336,264,155798,1,8,3:2:0:0:
400,152,155948,1,0,3:0:0:0:
400,152,156023,1,0,3:0:0:0:
400,152,156098,2,0,P|440:200|452:256,1,95,0|0,3:0|3:0,3:0:0:0:
456,284,156398,6,0,P|440:328|352:332,1,142.5,8|0,3:2|3:0,3:0:0:0:
320,296,156698,2,0,P|284:240|184:224,1,142.5,8|0,3:2|3:0,3:0:0:0:
182,227,156998,1,8,3:2:0:0:
156,248,157073,1,8,3:2:0:0:
124,257,157148,1,8,3:2:0:0:
91,252,157223,1,8,3:2:0:0:
66,229,157298,1,8,3:2:0:0:
24,128,157448,1,8,3:2:0:0:
140,136,157598,6,0,P|188:136|272:96,1,142.5,0|0,3:0|3:0,3:0:0:0:
296,76,157898,2,0,P|392:84|448:144,1,142.5,0|0,3:0|3:0,3:0:0:0:
408,140,158198,2,0,P|416:196|472:288,1,142.5,0|0,3:0|3:0,3:0:0:0:
484,304,158498,1,0,3:0:0:0:
356,320,158648,2,0,P|296:328|188:252,1,190,0|0,3:0|3:0,3:0:0:0:
180,228,159098,5,0,3:0:0:0:
96,132,159248,1,0,3:0:0:0:
56,244,159398,1,0,3:0:0:0:
240,148,159698,1,0,3:0:0:0:
424,136,159998,6,0,P|484:200|480:232,1,95,0|0,3:0|3:0,3:0:0:0:
368,232,160298,2,0,P|308:168|312:136,1,95,0|0,3:0|3:0,3:0:0:0:
304,60,160598,1,0,3:0:0:0:
204,64,160748,1,0,3:0:0:0:
204,64,160823,1,0,3:0:0:0:
204,64,160898,2,0,P|152:84|132:124,1,95,0|0,3:0|3:0,3:0:0:0:
185,188,161198,5,0,3:0:0:0:
226,347,161348,1,0,3:0:0:0:
285,250,161498,1,0,3:0:0:0:
130,287,161648,1,0,3:0:0:0:
267,167,161798,2,0,P|199:103|107:223,1,285,0|0,3:0|3:0,3:0:0:0:
200,276,162398,6,0,P|277:261|370:276,1,142.5,0|0,3:0|3:0,3:0:0:0:
382,285,162698,2,0,P|453:249|500:170,1,142.5,0|0,3:0|3:0,3:0:0:0:
496,149,162998,2,0,P|430:137|351:92,1,142.5,0|0,3:0|3:0,3:0:0:0:
341,81,163298,1,0,3:0:0:0:
255,38,163448,2,0,P|199:96|210:198,1,190,0|0,3:0|3:0,3:0:0:0:
237,231,163898,5,0,3:0:0:0:
367,227,164048,1,0,3:0:0:0:
301,336,164198,1,0,3:0:0:0:
299,124,164498,1,0,3:0:0:0:
157,146,164798,6,0,P|141:200|106:239,1,95,0|0,3:0|3:0,3:0:0:0:
61,149,165098,2,0,P|77:95|112:56,1,95,0|0,3:0|3:0,3:0:0:0:
225,48,165398,1,0,3:0:0:0:
306,120,165548,1,0,3:0:0:0:
306,120,165623,1,0,3:0:0:0:
306,120,165698,2,0,P|295:195|325:240,1,95,0|0,3:0|3:0,3:0:0:0:
336,244,165998,6,0,P|347:319|317:364,1,95,2|0,3:0|3:0,3:0:0:0:
248,344,166298,1,0,0:0:0:0:
192,256,166448,2,2,P|146:316|93:327,1,95,2|2,3:0|3:0,3:0:0:0:
44,272,166748,1,0,0:0:0:0:
108,154,166898,1,6,0:2:0:0:
108,154,167198,5,6,2:1:0:0:
290,64,167498,1,2,2:1:0:0:
260,255,167798,1,2,2:1:0:0:
156,66,168098,1,2,2:1:0:0:
75,57,168248,2,2,P|123:145|202:135,1,190,2|2,2:1|2:1,2:1:0:0:
446,93,168698,5,2,2:1:0:0:
270,168,168848,1,2,2:1:0:0:
327,39,168998,1,2,2:1:0:0:
448,281,169298,1,2,2:1:0:0:
234,298,169598,5,10,2:1:0:0:
140,152,169748,1,10,2:1:0:0:
127,337,169898,1,10,2:1:0:0:
248,184,170048,1,10,2:1:0:0:
65,241,170198,1,10,2:1:0:0:
269,284,170348,1,10,2:1:0:0:
269,284,170423,1,10,2:1:0:0:
269,283,170498,2,10,P|249:326|211:354,1,95,10|10,2:1|2:1,2:1:0:0:
141,285,170798,5,2,2:2:0:0:
52,218,170948,1,2,2:2:0:0:
237,238,171098,1,2,2:2:0:0:
175,144,171248,1,2,2:2:0:0:
324,211,171398,1,2,2:2:0:0:
383,133,171698,2,0,P|438:102|459:161,1,142.500005435944,0|0,2:1|2:1,2:1:0:0:
419,270,171998,5,6,2:1:0:0:
230,251,172298,1,2,2:1:0:0:
347,108,172598,1,2,2:1:0:0:
185,58,172898,1,2,2:1:0:0:
277,43,173048,2,2,P|253:128|151:151,1,190,2|2,2:1|2:1,2:1:0:0:
80,108,173498,5,2,2:1:0:0:
25,222,173648,1,2,2:1:0:0:
166,225,173798,1,2,2:1:0:0:
302,86,174098,1,2,2:1:0:0:
458,167,174398,5,2,2:1:0:0:
281,274,174548,1,2,2:1:0:0:
356,86,174698,1,2,2:1:0:0:
405,281,174848,1,2,2:1:0:0:
253,153,174998,1,2,2:1:0:0:
418,192,175148,1,2,2:1:0:0:
418,192,175223,1,2,2:1:0:0:
418,192,175298,2,2,P|401:248|351:286,1,95,2|2,2:1|2:1,2:1:0:0:
274,301,175598,6,0,P|224:288|196:236,1,95,2|0,2:1|2:1,2:1:0:0:
181,156,175898,2,0,P|116:156|76:188,1,95,2|0,2:1|2:1,2:1:0:0:
56,260,176198,5,2,2:3:0:0:
65,286,176273,1,2,2:3:0:0:
91,296,176348,1,2,2:3:0:0:
119,296,176423,1,2,2:3:0:0:
145,286,176498,1,2,2:3:0:0:
166,267,176573,1,2,2:3:0:0:
192,257,176648,1,2,2:3:0:0:
220,256,176723,1,2,2:3:0:0:
246,265,176798,6,0,P|298:284|333:317,1,95,0|0,0:0|2:0,0:0:0:0:
416,352,177098,2,0,P|451:334|479:284,1,95,0|0,1:0|2:0,0:0:0:0:
426,190,177398,1,0,1:1:0:0:
293,188,177548,1,2,2:1:0:0:
418,74,177698,1,2,1:1:0:0:
286,56,177848,1,2,2:1:0:0:
184,56,177998,6,0,P|110:65|73:95,1,95,0|2,1:1|2:1,2:1:0:0:
72,100,178223,1,0,2:1:0:0:
52,126,178298,1,2,1:1:0:0:
45,158,178373,1,0,2:1:0:0:
49,190,178448,1,2,2:1:0:0:
60,221,178523,1,0,2:1:0:0:
82,245,178598,6,0,P|163:282|223:274,1,142.5,2|0,1:1|2:1,2:1:0:0:
175,189,178898,2,0,P|257:154|333:175,1,142.5,10|0,1:1|2:1,2:1:0:0:
373,165,179198,5,6,1:1:0:0:
409,341,179348,1,2,2:1:0:0:
276,224,179498,1,2,1:1:0:0:
463,242,179648,1,2,2:1:0:0:
287,333,179798,1,2,1:1:0:0:
131,288,179948,1,2,2:1:0:0:
131,288,180023,1,2,2:1:0:0:
131,288,180098,2,2,P|144:233|187:204,1,95,2|2,1:1|2:1,2:1:0:0:
198,156,180398,6,2,P|186:110|150:81,1,95,2|2,1:1|2:1,2:1:0:0:
122,246,180698,2,2,P|166:258|210:242,1,95,2|2,1:1|2:1,2:1:0:0:
322,105,180998,2,0,P|394:87|469:128,1,142.5,2|0,1:0|0:0,0:0:0:0:
364,181,181298,2,0,P|292:199|217:158,1,142.5,2|0,1:0|0:0,0:0:0:0:
361,299,181598,6,0,P|302:283|252:303,1,95,6|0,1:0|2:0,0:0:0:0:
201,359,181898,2,0,P|154:367|110:351,1,95,2|0,1:0|2:0,0:0:0:0:
164,226,182198,2,0,P|179:181|215:151,1,95,2|0,1:0|2:0,0:0:0:0:
200,53,182498,1,2,1:1:0:0:
103,113,182648,2,0,P|56:121|20:151,2,95,2|0|0,2:0|1:0|2:0,0:0:0:0:
235,99,183098,6,0,L|282:101,2,47.5,2|0|2,1:1|2:1|2:1,2:1:0:0:
231,232,183398,1,2,1:1:0:0:
329,142,183548,2,0,P|364:111|411:103,1,95,2|0,2:0|0:0,0:0:0:0:
425,235,183848,1,0,2:1:0:0:
292,237,183998,6,0,P|280:289|300:341,1,95,6|2,1:1|2:1,2:1:0:0:
159,252,184298,1,2,1:1:0:0:
223,114,184448,1,2,1:1:0:0:
374,109,184598,1,6,1:1:0:0:
238,23,184748,1,2,1:1:0:0:
238,23,184823,1,2,1:1:0:0:
238,23,184898,2,2,P|167:36|121:79,1,95,2|2,1:1|1:1,1:1:0:0:
83,141,185198,5,14,1:1:0:0:
189,314,185348,1,6,1:1:0:0:
237,182,185498,1,8,1:1:0:0:
55,271,185648,1,0,1:1:0:0:
182,132,185798,2,0,P|206:75|265:64,1,95,14|0,1:1|1:1,1:1:0:0:
323,193,186098,2,0,P|299:250|240:261,1,95,14|0,1:1|1:1,1:1:0:0:
397,288,186398,6,0,L|474:221,2,95,8|0|0,2:1|2:1|2:1,2:1:0:0:
232,269,186848,2,0,L|309:202,2,95,0|0|0,2:0|2:0|2:0,2:0:0:0:
122,258,187298,1,0,2:0:0:0:
178,139,187448,1,0,2:0:0:0:
56,173,187598,5,0,1:0:0:0:
174,47,187748,2,0,L|173:-16,2,47.5,0|0|0,2:0|2:0|1:0,2:0:0:0:
102,101,188048,2,0,L|42:81,2,47.5,0|0|0,2:0|2:0|1:0,2:0:0:0:
234,68,188348,1,0,2:0:0:0:
232,192,188498,2,0,P|296:176|312:152,1,95,0|0,1:0|2:0,2:0:0:0:
382,66,188798,5,2,1:2:0:0:
393,92,188873,1,0,2:2:0:0:
405,117,188948,1,2,2:2:0:0:
415,143,189023,1,0,2:2:0:0:
426,169,189098,1,2,2:2:0:0:
262,79,189248,5,2,2:2:0:0:
273,105,189323,1,0,2:2:0:0:
285,130,189398,1,2,2:2:0:0:
295,156,189473,1,0,2:2:0:0:
306,182,189548,1,2,2:2:0:0:
321,276,189698,2,0,P|270:302|230:309,1,95,0|0,2:0|2:0,2:0:0:0:
177,217,189998,5,0,1:0:0:0:
161,104,190148,1,0,2:0:0:0:
161,104,190223,1,0,2:0:0:0:
161,104,190298,1,0,1:0:0:0:
70,173,190448,1,0,2:0:0:0:
89,285,190598,1,0,1:0:0:0:
197,319,190748,1,0,2:0:0:0:
274,235,190898,2,0,P|304:168|339:146,1,95,0|0,1:0|2:0,2:0:0:0:
427,119,191198,5,4,1:3:0:0:
427,251,191348,2,0,L|457:306,2,47.5,0|0|0,3:0|3:0|3:0,3:0:0:0:
298,218,191648,1,0,3:3:0:0:
338,73,191798,1,0,3:0:0:0:
305,92,191873,1,0,3:0:0:0:
274,69,191948,1,0,3:0:0:0:
245,94,192023,1,0,3:0:0:0:
212,74,192098,2,0,P|165:102|137:138,1,95,0|0,3:0|3:0,3:0:0:0:
60,236,192398,6,0,P|96:285|160:302,1,95,4|0,1:0|3:0,3:0:0:0:
184,200,192623,5,0,3:0:0:0:
194,215,192698,2,0,P|230:264|294:281,1,95,0|0,1:0|3:0,3:0:0:0:
340,320,192923,1,0,3:0:0:0:
340,320,192998,5,0,1:0:0:0:
452,300,193148,1,0,3:0:0:0:
459,183,193298,2,0,P|378:150|303:197,1,142.5,0|0,1:0|3:0,3:0:0:0:
306,188,193598,5,0,1:1:0:0:
248,104,193748,1,0,3:0:0:0:
214,107,193823,2,0,L|152:56,3,47.5,0|0|0|0,3:0|3:0|3:0|3:0,3:0:0:0:
96,48,194123,5,0,3:0:0:0:
56,52,194198,1,0,3:0:0:0:
28,60,194273,2,0,P|-5:103|5:154,1,95,0|0,3:0|3:0,3:0:0:0:
13,172,194498,1,0,3:0:0:0:
109,233,194648,1,0,3:0:0:0:
37,321,194798,5,0,1:0:0:0:
150,318,194948,2,0,L|139:380,2,47.5,0|0|0,3:0|3:0|1:0,3:0:0:0:
258,212,195248,1,0,2:0:0:0:
402,276,195398,1,0,1:0:0:0:
402,276,195473,1,0,2:0:0:0:
402,276,195548,2,0,L|436:317,2,47.5,0|0|0,2:0|2:0|1:0,2:0:0:0:
383,116,195848,1,0,2:0:0:0:
224,104,195998,6,0,L|176:56,3,47.5,0|0|0|0,1:1|3:1|3:1|3:1,3:1:0:0:
328,208,196298,2,0,L|352:276,1,47.5,0|0,1:1|3:1,3:1:0:0:
304,68,196448,2,0,L|296:0,3,47.5,0|0|0|0,1:1|3:1|3:1|3:1,3:1:0:0:
240,204,196748,6,0,L|226:274,1,47.5,0|0,1:1|3:1,3:1:0:0:
380,92,196898,2,0,L|397:26,1,47.5,0|0,1:1|3:1,3:1:0:0:
440,120,197048,2,0,L|482:67,1,47.5,0|0,1:1|3:1,3:1:0:0:
476,176,197198,6,0,P|489:228|399:341,1,190,8|0,1:3|1:3,2:3:0:0:
352,240,197648,1,8,3:0:0:0:
236,256,197798,2,0,P|236:316|208:376,1,95,0|8,1:0|3:0,3:0:0:0:
136,256,198098,2,0,P|136:196|164:136,1,95,0|8,1:0|3:0,3:0:0:0:
288,104,198398,6,0,L|336:56,3,47.5,0|0|0|0,1:3|3:3|3:3|3:3,3:3:0:0:
184,208,198698,2,0,L|160:276,1,47.5,0|0,1:3|3:3,3:3:0:0:
208,67,198848,2,0,L|215:-1,3,47.5,0|0|0|0,1:3|3:3|3:3|3:3,3:3:0:0:
271,203,199148,6,0,L|284:273,1,47.5,0|0,1:3|3:3,3:3:0:0:
132,92,199298,2,0,L|114:26,1,47.5,0|0,1:3|3:3,3:3:0:0:
72,120,199448,2,0,L|29:67,1,47.5,0|0,1:3|3:3,3:3:0:0:
51,180,199598,6,0,P|54:234|174:305,1,190,8|0,3:3|3:3,3:3:0:0:
268,288,200048,1,8,3:3:0:0:
212,188,200198,1,0,3:3:0:0:
300,116,200348,1,8,3:3:0:0:
396,180,200498,2,0,P|403:245|386:291,1,95,0|8,3:3|3:3,3:3:0:0:
240,336,200798,6,0,P|192:320|160:276,2,95,4|0|0,2:1|2:1|2:1,2:1:0:0:
293,238,201248,2,0,P|337:224|368:188,2,95,0|0|0,2:1|2:1|2:1,2:1:0:0:
243,159,201698,2,0,P|195:143|163:99,1,95,0|0,2:1|2:1,2:1:0:0:
256,72,201998,2,0,P|357:22|446:90,1,237.5,4|0,2:2|2:2,2:2:0:0:
256,224,202448,2,0,P|154:273|65:205,1,237.5,4|0,2:2|2:2,2:2:0:0:
195,127,202898,2,0,P|255:98|319:136,1,142.5,4|0,2:2|2:2,2:2:0:0:
347,286,203198,6,0,P|316:322|272:336,2,95,4|0|0,2:1|2:1|2:1,2:1:0:0:
219,238,203648,2,0,P|175:224|144:188,2,95,0|0|0,2:1|2:1|2:1,2:1:0:0:
269,159,204098,2,0,P|317:143|349:99,1,95,0|0,2:1|2:1,2:1:0:0:
256,72,204398,2,0,P|154:22|65:90,1,237.5,4|0,2:2|2:2,2:2:0:0:
256,224,204848,2,0,P|357:273|446:205,1,237.5,4|0,2:2|2:2,2:2:0:0:
317,127,205298,2,0,P|280:105|215:120,1,95,4|0,2:2|2:2,2:2:0:0:
256,192,206123,5,4,3:3:0:0:
256,192,206273,12,0,212648,0:0:0:0:
