osu file format v14

[General]
AudioFilename: audio.mp3
AudioLeadIn: 0
PreviewTime: 167198
Countdown: 1
SampleSet: None
StackLeniency: 0.7
Mode: 0
LetterboxInBreaks: 0
WidescreenStoryboard: 1

[Editor]
Bookmarks: 51998,71198,90398,99998
DistanceSpacing: 2.1
BeatDivisor: 4
GridSize: 8
TimelineZoom: 1

[Metadata]
Title:M.U. Renge was her? Final Devil Sister Nyanpasu
TitleUnicode:M.U. Renge was her? Final Devil Sister Nyanpasu
Artist:Nico Nico Douga
ArtistUnicode:Nico Nico Douga
Creator:alma199912
Version:I Don't Even Know (badly mapped)
Source:東方 Project
Tags:Nyanpasu~ renge UN Owen Touhou NonNonByori NicoNico Mad Remix
BeatmapID:1233111
BeatmapSetID:530764

[Difficulty]
HPDrainRate:0
CircleSize:4
OverallDifficulty:8
ApproachRate:9.3
SliderMultiplier:2
SliderTickRate:1

[Events]
//Background and Video events
0,0,"BG.png",0,0
Video,0,"video.mp4"
//Break Periods
//Storyboard Layer 0 (Background)
//Storyboard Layer 1 (Fail)
//Storyboard Layer 2 (Pass)
//Storyboard Layer 3 (Foreground)
//Storyboard Sound Samples

[TimingPoints]
13598.4380793612,300,4,1,0,100,1,0
21998,-66.6666666666667,4,1,0,100,0,0
22604,-80,4,1,0,100,0,0
23198,-100,4,1,0,100,0,0
26048,-66.6666666666667,4,1,0,100,0,0
26198,-100,4,1,0,100,0,0
26498,-66.6666666666667,4,1,0,100,0,0
26648,-100,4,1,0,100,0,0
27398,-133.333333333333,4,1,0,100,0,0
27923,-133.333333333333,4,1,0,5,0,0
27998,-66.6666666666667,4,1,0,100,0,0
28148,-100,4,1,0,5,0,0
28223,-100,4,1,0,100,0,0
29198,-66.6666666666667,4,1,0,100,0,0
29348,-100,4,1,0,5,0,0
29423,-100,4,1,0,100,0,0
30398,-66.6666666666667,4,1,0,100,0,0
30548,-100,4,1,0,5,0,0
30623,-100,4,1,0,100,0,0
30998,-66.6666666666667,4,1,0,100,0,0
31148,-100,4,1,0,5,0,0
31223,-100,4,1,0,100,0,0
31448,-66.6666666666667,4,1,0,100,0,0
31598,-100,4,1,0,5,0,0
31673,-100,4,1,0,100,0,0
31748,-66.6666666666667,4,1,0,100,0,0
32048,-100,4,1,0,5,0,0
32123,-100,4,1,0,100,0,0
32198,-66.6666666666667,4,1,0,100,0,0
32348,-100,4,1,0,100,0,0
32798,-80,4,1,0,100,0,0
35048,-100,4,1,0,100,0,0
35198,-80,4,1,0,100,0,0
35798,-66.6666666666667,4,1,0,100,0,0
36398,-100,4,1,0,100,0,0
37598,-100,4,1,0,100,0,0
38573,-100,4,1,0,5,0,0
38648,-133.333333333333,4,1,0,100,0,0
39398,-133.333333333333,4,1,0,100,0,0
39998,-100,4,1,0,100,0,0
42023,-100,4,1,0,5,0,0
42098,-66.6666666666667,4,1,0,100,0,0
42248,-66.6666666666667,4,1,0,5,0,0
42398,-100,4,1,0,100,0,0
44798,-80,4,1,0,100,0,0
45848,-66.6666666666667,4,1,0,100,0,0
46298,-80,4,1,0,100,0,0
46598,-133.333333333333,4,1,0,100,0,0
47198,-100,4,1,0,100,0,0
48998,-80,4,1,0,100,0,0
49598,-100,4,1,0,100,0,0
51398,-133.333333333333,4,1,0,100,0,0
51998,-100,4,1,0,100,0,0
54098,-66.6666666666667,4,1,0,100,0,0
54398,-100,4,1,0,100,0,0
56198,-133.333333333333,4,1,0,100,0,0
56798,-100,4,1,0,100,0,0
58898,-66.6666666666667,4,1,0,100,0,0
59198,-100,4,1,0,100,0,0
60398,-80,4,1,0,100,0,0
61298,-133.333333333333,4,1,0,100,0,0
61598,-100,4,1,0,100,0,1
63398,-80,4,1,0,100,0,1
63698,-66.6666666666667,4,1,0,100,0,1
63998,-100,4,1,0,100,0,1
65798,-133.333333333333,4,1,0,100,0,0
66398,-100,4,1,0,100,0,1
68498,-66.6666666666667,4,1,0,100,0,1
68798,-100,4,1,0,100,0,1
69998,-80,4,1,0,100,0,1
71198,-100,4,1,0,100,0,0
72398,-80,4,1,0,100,0,0
73598,-100,4,1,0,100,0,0
74798,-80,4,1,0,100,0,0
75998,-100,4,1,0,100,0,0
77198,-80,4,1,0,100,0,0
78398,-100,4,1,0,100,0,0
79298,-66.6666666666667,4,1,0,100,0,0
79598,-80,4,1,0,100,0,0
80798,-100,4,1,0,100,0,0
81998,-80,4,1,0,100,0,0
83198,-100,4,1,0,100,0,0
83798,-66.6666666666667,4,1,0,100,0,0
84248,-100,4,1,0,100,0,0
84398,-80,4,1,0,100,0,0
85598,-100,4,1,0,100,0,0
87998,-133.333333333333,4,1,0,100,0,0
88598,-66.6666666666667,4,1,0,100,0,0
89198,-100,4,1,0,100,0,0
119198,-100,4,1,0,100,0,1
123398,-133.333333333333,4,1,0,100,0,0
123998,-100,4,1,0,100,0,1
128798,-100,4,1,0,100,0,0

[HitObjects]
256,192,13598,5,0,0:0:0:0:
256,192,13748,12,0,15698,0:0:0:0:
256,192,15998,5,0,0:0:0:0:
256,192,16148,12,0,18098,0:0:0:0:
256,192,18398,5,0,0:0:0:0:
256,192,18548,12,0,20498,0:0:0:0:
256,192,20798,5,0,0:0:0:0:
256,192,20948,12,0,21698,0:0:0:0:
151,303,21998,5,0,0:0:0:0:
116,273,22073,1,0,0:0:0:0:
95,232,22148,1,0,0:0:0:0:
96,187,22223,1,0,0:0:0:0:
120,149,22298,1,0,0:0:0:0:
161,131,22373,1,0,0:0:0:0:
205,135,22448,1,0,0:0:0:0:
239,164,22523,1,0,0:0:0:0:
283,169,22598,5,0,0:0:0:0:
319,159,22673,1,0,0:0:0:0:
328,122,22748,1,0,0:0:0:0:
305,92,22823,1,0,0:0:0:0:
268,83,22898,1,0,0:0:0:0:
232,95,22973,1,0,0:0:0:0:
217,131,23048,1,0,0:0:0:0:
223,167,23123,1,0,0:0:0:0:
238,192,23198,5,0,0:0:0:0:
417,174,23498,1,0,0:0:0:0:
328,318,23798,1,0,0:0:0:0:
260,226,24098,5,0,0:0:0:0:
97,145,24248,2,0,P|117:261|201:336,1,200
402,300,24698,1,0,0:0:0:0:
451,184,24998,5,0,0:0:0:0:
352,112,25298,1,0,0:0:0:0:
173,160,25598,5,0,0:0:0:0:
210,32,25898,1,0,0:0:0:0:
337,80,26048,2,0,P|396:70|362:117,1,150.000005722046
163,198,26498,1,0,0:0:0:0:
52,209,26648,6,0,P|85:269|218:300,1,200
387,217,27098,1,0,0:0:0:0:
351,136,27398,2,0,P|277:167|122:272,1,262.500010013581
101,308,27998,6,0,P|44:320|76:270,1,150.000005722046
170,141,28298,1,0,0:0:0:0:
293,257,28598,1,0,0:0:0:0:
376,128,28898,1,0,0:0:0:0:
435,270,29198,6,0,P|467:320|410:308,1,150.000005722046
217,304,29498,1,0,0:0:0:0:
165,141,29798,1,0,0:0:0:0:
308,179,30098,1,0,0:0:0:0:
410,76,30398,6,0,P|469:66|435:113,1,150.000005722046
102,308,30998,2,0,P|43:318|77:271,1,150.000005722046
102,76,31448,2,0,P|43:66|77:113,1,150.000005722046
256,152,31748,1,0,0:0:0:0:
435,113,31898,2,0,P|467:63|410:76,1,150.000005722046
192,289,32198,6,0,P|255:309|345:264,1,150.000005722046
259,225,32423,1,0,0:0:0:0:
258,225,32498,1,0,0:0:0:0:
256,80,32648,1,0,0:0:0:0:
256,80,32723,1,0,0:0:0:0:
256,80,32798,6,0,P|362:72|401:80,1,125
388,276,33098,2,0,P|282:284|243:276,1,125
99,147,33398,2,0,P|86:73|120:23,2,125
176,279,33848,2,0,P|250:257|332:276,1,125
404,142,34148,6,0,P|329:107|268:117,2,125
418,296,34598,1,0,0:0:0:0:
258,200,34748,1,0,0:0:0:0:
312,353,34898,1,0,0:0:0:0:
323,144,35048,1,0,0:0:0:0:
122,206,35198,6,0,P|155:286|207:309,1,125
389,178,35498,2,0,P|374:118|326:80,1,125
241,301,35798,1,0,0:0:0:0:
146,136,35948,1,0,0:0:0:0:
161,110,36023,1,0,0:0:0:0:
189,120,36098,1,0,0:0:0:0:
196,91,36173,1,0,0:0:0:0:
221,107,36248,1,0,0:0:0:0:
366,126,36398,6,0,P|380:204|344:236,2,100
239,51,36848,1,0,0:0:0:0:
119,189,36998,1,0,0:0:0:0:
285,261,37148,1,0,0:0:0:0:
273,111,37298,1,0,0:0:0:0:
223,276,37448,1,0,0:0:0:0:
378,285,37598,5,0,0:0:0:0:
380,108,37898,2,0,P|303:121|226:223,1,200
213,336,38348,2,0,P|149:311|80:232,1,150
92,40,38648,6,0,B|148:77|148:77|202:160,1,150.000005722046
271,258,39098,1,0,0:0:0:0:
416,286,39398,2,0,P|466:241|439:142,1,150.000005722046
119,75,39998,5,0,0:0:0:0:
79,254,40148,1,0,0:0:0:0:
243,156,40298,1,0,0:0:0:0:
64,148,40448,1,0,0:0:0:0:
205,261,40598,1,0,0:0:0:0:
209,79,40748,1,0,0:0:0:0:
330,202,40898,1,0,0:0:0:0:
390,85,41048,6,0,P|451:157|408:274,1,200
237,306,41498,1,0,0:0:0:0:
167,126,41798,2,0,P|106:91|27:144,1,150
118,283,42098,6,0,P|181:318|178:272,1,150.000005722046
206,108,42398,6,0,P|224:46|204:3,1,100
317,129,42698,2,0,P|362:70|389:11,1,100
371,228,42998,2,0,P|409:196|452:170,1,100
384,347,43299,2,0,P|429:328|477:340,1,100
306,276,43598,6,0,P|288:338|308:381,1,100
195,255,43898,2,0,P|150:314|123:373,1,100
141,156,44198,2,0,P|102:187|59:213,1,100
128,37,44499,2,0,P|82:55|34:43,1,100
338,44,44798,5,0,0:0:0:0:
286,171,45098,1,0,0:0:0:0:
433,170,45398,1,0,0:0:0:0:
182,74,45698,5,0,0:0:0:0:
69,156,45848,2,0,P|23:262|152:239,1,300.000011444092
322,95,46298,5,0,0:0:0:0:
427,187,46598,2,0,P|414:272|344:270,1,150.000005722046
178,105,47198,2,0,L|111:143,3,75
128,249,47798,2,0,L|193:211,3,75
278,265,48398,6,0,L|217:302,3,62.5
119,319,48829,1,0,0:0:0:0:
162,213,48998,2,0,P|31:99|217:136,1,500
256,192,49748,12,0,51098,0:0:0:0:
416,174,51398,5,0,0:0:0:0:
395,205,51473,1,0,0:0:0:0:
357,208,51548,1,0,0:0:0:0:
324,188,51623,1,0,0:0:0:0:
294,165,51698,1,0,0:0:0:0:
256,164,51773,1,0,0:0:0:0:
222,179,51848,1,0,0:0:0:0:
197,207,51923,1,0,0:0:0:0:
171,249,51998,5,0,0:0:0:0:
46,252,52298,2,0,P|38:166|58:129,1,100
227,36,52598,5,0,0:0:0:0:
382,150,52898,1,0,0:0:0:0:
443,58,53048,2,0,P|480:96|451:248,1,200
319,310,53498,5,0,0:0:0:0:
236,183,53648,1,0,0:0:0:0:
165,300,53798,1,0,0:0:0:0:
70,129,54098,2,0,P|64:56|133:111,1,150.000005722046
319,158,54398,5,0,0:0:0:0:
221,243,54548,1,0,0:0:0:0:
198,104,54698,1,0,0:0:0:0:
377,260,54848,1,0,0:0:0:0:
465,91,54998,1,0,0:0:0:0:
302,55,55148,5,0,0:0:0:0:
302,55,55223,1,0,0:0:0:0:
302,55,55298,2,0,P|235:71|192:113,1,100
137,261,55598,5,0,0:0:0:0:
241,155,55748,1,0,0:0:0:0:
285,256,55898,1,0,0:0:0:0:
342,167,56048,1,0,0:0:0:0:
447,251,56198,2,0,P|478:186|451:89,1,150.000005722046
243,29,56798,5,0,0:0:0:0:
63,156,57098,2,0,P|119:214|146:217,1,100
325,151,57398,1,0,0:0:0:0:
208,246,57698,1,0,0:0:0:0:
141,304,57848,6,0,P|118:247|234:180,1,200
304,230,58298,1,0,0:0:0:0:
411,112,58448,1,0,0:0:0:0:
455,258,58598,1,0,0:0:0:0:
292,84,58898,2,0,P|211:65|223:119,1,150.000005722046
234,256,59198,5,0,0:0:0:0:
76,151,59348,1,0,0:0:0:0:
107,268,59498,1,0,0:0:0:0:
261,104,59648,1,0,0:0:0:0:
413,222,59798,1,0,0:0:0:0:
445,46,59948,5,0,0:0:0:0:
445,46,60023,1,0,0:0:0:0:
445,46,60098,2,0,P|369:55|331:77,1,100
173,134,60398,6,0,P|143:199|151:259,1,125
296,294,60698,1,0,0:0:0:0:
275,137,60848,1,0,0:0:0:0:
393,200,60998,1,0,0:0:0:0:
393,200,61073,1,0,0:0:0:0:
393,200,61148,1,0,0:0:0:0:
246,324,61298,1,0,0:0:0:0:
246,324,61448,1,0,0:0:0:0:
81,194,61598,5,0,0:0:0:0:
