osu file format v14

[General]
AudioFilename: audio.mp3
AudioLeadIn: 0
PreviewTime: -1
Countdown: 0
SampleSet: Normal
StackLeniency: 0.7
Mode: 0
LetterboxInBreaks: 0
WidescreenStoryboard: 0

[Editor]
DistanceSpacing: 0.8
BeatDivisor: 4
GridSize: 16
TimelineZoom: 2.4

[Metadata]
Title:Kihara Fanclub
TitleUnicode:きィはらふァンくらぶ
Artist:Nico Nico Douga
ArtistUnicode:ニコニコ動画
Creator:AcidSnow1
Version:Prototype
Source:とある魔術の禁書目録II
Tags:to aru majutsu no index accelerator last order 1,2 fan club niconico nicovideo niconicodouga
BeatmapID:2037615
BeatmapSetID:973314

[Difficulty]
HPDrainRate:4
CircleSize:4
OverallDifficulty:4
ApproachRate:4
SliderMultiplier:2
SliderTickRate:2

[Events]
//Background and Video events
0,0,"bg.png",0,0
Video,0,"sm19368323.mp4"
//Break Periods
2,6516,8720
2,13137,15341
2,24515,31893
2,105826,117134
//Storyboard Layer 0 (Background)
//Storyboard Layer 1 (Fail)
//Storyboard Layer 2 (Pass)
//Storyboard Layer 3 (Foreground)
//Storyboard Sound Samples

[TimingPoints]
3420,413.793103448276,4,1,0,90,1,0
19971,-111.111111111111,4,2,0,90,0,0
33213,-100,4,2,0,90,0,0
46454,-111.111111111111,4,2,0,90,0,0
59695,-100,4,2,0,90,0,0
72937,-83.3333333333333,4,2,0,100,0,1
89488,-80,4,2,0,100,0,1
106040,-90.9090909090909,4,2,0,90,0,0
122592,-100,4,1,0,100,0,1
126316,-142.857142857143,4,2,0,90,0,0

[HitObjects]
208,192,3420,5,0,0:0:0:0:
288,192,3833,1,0,0:0:0:0:
336,112,4247,1,0,0:0:0:0:
240,112,4661,1,0,0:0:0:0:
144,112,5075,1,0,0:0:0:0:
144,208,5488,1,0,0:0:0:0:
224,272,5902,1,0,0:0:0:0:
224,272,6109,1,2,0:0:0:0:
224,272,6316,1,2,0:0:0:0:
160,160,10040,5,0,0:0:0:0:
240,96,10454,1,0,0:0:0:0:
336,144,10868,1,0,0:0:0:0:
240,208,11282,1,0,0:0:0:0:
160,304,11695,1,0,0:0:0:0:
288,304,12109,1,0,0:0:0:0:
352,192,12523,1,0,0:0:0:0:
352,192,12730,1,8,0:0:0:0:
352,192,12937,1,8,0:0:0:0:
256,192,16661,12,0,17902,0:0:0:0:
256,192,18316,12,0,19557,0:0:0:0:
256,64,19971,6,0,L|160:80,1,89.9999972534181
256,128,20385,2,0,L|368:112,1,89.9999972534181
256,192,20799,2,0,L|192:192,7,44.999998626709
128,256,21833,6,0,B|240:304|320:272|320:240,1,179.999994506836
352,192,22454,1,0,0:0:0:0:
352,192,22661,1,0,0:0:0:0:
416,128,23282,6,6,B|288:32|192:80|160:144,1,269.999991760254
224,176,24109,2,6,L|320:176,1,89.9999972534181
256,192,33213,6,0,L|368:192,3,100
384,256,34040,2,0,P|256:288|208:256,2,150
400,192,34868,1,0,0:0:0:0:
352,128,35075,2,0,L|256:128,6,50
240,160,35902,1,8,0:0:0:0:
240,160,36109,1,8,0:0:0:0:
64,176,36523,6,0,L|144:256,3,100
208,256,37351,2,0,L|320:256,3,100
384,256,38178,2,0,B|320:128|192:96|128:128|96:192|128:288,1,400
176,304,39420,1,2,0:0:0:0:
352,256,40040,6,0,L|432:256,2,50
288,208,40661,2,0,L|176:208,3,100
160,144,41488,1,8,0:0:0:0:
224,112,41695,2,8,L|320:112,4,50
384,112,42730,5,4,0:0:0:0:
400,192,43144,6,0,L|400:272,4,50
336,192,43764,1,0,0:0:0:0:
288,144,43971,2,0,B|224:96|160:128|144:190|160:256|224:288|288:256|288:192|224:144|208:176|192:208|240:208,1,300
256,192,44799,12,4,46040,0:0:0:0:
256,192,46454,6,0,L|176:192,4,44.999998626709
192,80,47282,2,0,B|64:176|80:240|80:320,1,269.999991760254
160,336,48109,2,0,B|240:288|304:208|304:96,1,269.999991760254
384,80,48937,2,6,B|480:160|448:240|352:304,1,269.999991760254
288,256,49764,5,0,0:0:0:0:
256,176,49971,2,0,L|176:176,2,44.999998626709
128,80,50592,2,0,L|48:80,2,44.999998626709
208,80,51006,2,0,B|352:112|336:160|320:224|368:272|304:304|208:272|144:256,1,359.999989013672
160,208,52247,5,0,0:0:0:0:
160,144,52454,2,0,L|80:144,2,44.999998626709
320,96,53282,5,0,0:0:0:0:
320,96,53488,1,0,0:0:0:0:
384,144,53902,2,0,B|448:224|336:272|288:208|304:288|176:320|143:288|112:256|121:180|176:96|256:96,1,539.999983520508
176,64,55557,6,0,L|176:112,4,44.999998626709
336,80,56385,5,0,0:0:0:0:
400,128,56695,2,0,L|400:192,1,44.999998626709
272,224,57213,2,0,L|192:224,7,44.999998626709
256,192,58040,12,4,59282,0:0:0:0:
256,144,59695,5,0,0:0:0:0:
304,176,59902,1,0,0:0:0:0:
288,240,60109,1,0,0:0:0:0:
224,240,60316,1,0,0:0:0:0:
208,176,60523,1,0,0:0:0:0:
208,96,60937,5,0,0:0:0:0:
160,176,61144,1,0,0:0:0:0:
224,240,61351,1,0,0:0:0:0:
320,208,61557,1,0,0:0:0:0:
304,112,61764,1,0,0:0:0:0:
160,192,62178,5,2,0:0:0:0:
368,192,62592,1,2,0:0:0:0:
416,256,63006,6,0,L|304:256,1,100
272,256,63420,2,0,L|160:256,1,100
128,256,63833,1,0,0:0:0:0:
128,80,64247,6,0,L|240:80,1,100
272,80,64661,1,0,0:0:0:0:
320,80,64868,2,0,L|432:80,1,100
416,192,65488,6,0,B|304:240|296:212|288:176|240:208|112:208,1,300
128,128,66316,6,0,B|64:256|112:304|240:320|336:288|416:288,1,400
432,256,67351,2,0,P|400:128|320:112,1,200
320,176,67971,2,0,L|96:176,2,200
96,96,69626,5,0,0:0:0:0:
160,112,69833,1,0,0:0:0:0:
112,160,70040,1,0,0:0:0:0:
176,176,70247,1,0,0:0:0:0:
240,192,70454,1,0,0:0:0:0:
304,208,70661,1,0,0:0:0:0:
240,256,70868,1,0,0:0:0:0:
304,272,71075,1,0,0:0:0:0:
368,256,71282,5,4,0:0:0:0:
304,144,71695,1,4,0:0:0:0:
176,144,72109,1,4,0:0:0:0:
160,256,72523,2,0,L|80:256,3,50
96,208,72937,6,0,P|160:144|224:160,1,119.999996337891
256,144,73351,2,0,P|304:176|336:240,1,119.999996337891
368,288,73764,2,0,P|432:288|432:208,2,119.999996337891
256,288,74592,5,0,0:0:0:0:
160,240,74799,2,0,L|64:240,2,59.9999981689454
240,160,75213,2,0,L|336:160,2,59.9999981689454
144,96,75626,2,0,L|304:96,3,119.999996337891
384,160,76661,6,2,B|496:208|336:224|432:288|272:304,2,239.999992675781
256,192,77902,2,0,L|256:336,1,119.999996337891
176,304,78316,2,0,L|176:160,1,119.999996337891
112,176,78730,2,4,B|240:64|320:112|384:208|384:256,1,359.999989013672
304,240,79557,5,0,0:0:0:0:
256,288,79764,1,0,0:0:0:0:
208,240,79971,1,0,0:0:0:0:
160,288,80178,1,0,0:0:0:0:
128,224,80385,2,0,P|80:192|160:112,2,119.999996337891
176,96,81213,6,0,B|256:48|320:128|320:144,2,119.999996337891
208,160,81833,1,0,0:0:0:0:
272,176,82040,1,0,0:0:0:0:
320,224,82247,1,0,0:0:0:0:
336,288,82454,1,0,0:0:0:0:
432,192,82868,5,4,0:0:0:0:
304,256,83695,5,0,0:0:0:0:
192,176,83902,1,0,0:0:0:0:
320,176,84109,1,0,0:0:0:0:
208,256,84316,1,0,0:0:0:0:
256,112,84523,1,2,0:0:0:0:
256,64,85351,6,0,P|160:112|272:160,2,239.999992675781
320,64,87006,5,2,0:0:0:0:
384,96,87213,1,2,0:0:0:0:
336,128,87420,1,2,0:0:0:0:
400,160,87626,1,2,0:0:0:0:
368,224,87833,2,4,L|448:224,4,59.9999981689454
288,208,88454,2,4,L|176:208,4,59.9999981689454
208,112,89488,6,0,P|160:192|160:256,1,125
304,112,89902,2,0,P|352:192|352:256,1,125,8|0,0:0|0:0,0:0:0:0:
256,208,90316,1,0,0:0:0:0:
256,272,90523,1,0,0:0:0:0:
256,336,90730,1,0,0:0:0:0:
256,96,91144,5,0,0:0:0:0:
208,160,91351,2,0,L|112:160,2,62.5
304,160,91765,2,0,L|384:160,2,62.5
256,224,92178,2,0,B|192:272|320:272|256:336,3,125
384,112,93213,6,2,B|368:208|160:272|160:224,2,250
320,64,94454,1,0,0:0:0:0:
240,80,94661,1,0,0:0:0:0:
160,112,94868,1,0,0:0:0:0:
128,192,95075,1,0,0:0:0:0:
176,256,95282,1,0,0:0:0:0:
256,288,95488,5,4,0:0:0:0:
256,96,95695,1,4,0:0:0:0:
240,272,96109,6,0,L|352:160,1,125
272,112,96523,2,0,L|160:224,1,125
192,288,96937,1,0,0:0:0:0:
256,240,97144,1,0,0:0:0:0:
336,224,97351,1,0,0:0:0:0:
304,144,97764,6,0,B|368:96|368:96|448:144,2,125
240,80,98385,1,0,0:0:0:0:
208,160,98592,2,0,B|144:208|144:208|64:160,2,125
256,272,99420,5,14,0:0:0:0:
304,128,100247,6,0,L|304:256,1,125
224,256,100661,2,0,L|224:128,1,125
144,128,101075,1,2,0:0:0:0:
256,80,101902,6,2,P|384:144|352:256,1,250
240,224,102730,1,2,0:0:0:0:
256,192,103557,5,0,0:0:0:0:
192,144,103764,1,0,0:0:0:0:
112,112,103971,1,0,0:0:0:0:
176,64,104178,1,0,0:0:0:0:
256,80,104385,5,8,0:0:0:0:
144,192,104799,1,8,0:0:0:0:
256,304,105213,1,8,0:0:0:0:
368,192,105626,1,8,0:0:0:0:
192,112,118454,5,2,0:0:0:0:
336,192,118868,1,2,0:0:0:0:
192,256,119281,1,2,0:0:0:0:
256,192,120937,6,4,L|336:192,4,55.0000016784668
256,192,121557,2,4,L|192:192,4,55.0000016784668
256,192,122592,12,4,126316,0:0:0:0:
