osu file format v14

[General]
AudioFilename: audio.mp3
AudioLeadIn: 0
PreviewTime: -1
Countdown: 0
SampleSet: None
StackLeniency: 0.2
Mode: 0
LetterboxInBreaks: 0
WidescreenStoryboard: 0

[Editor]
Bookmarks: 46212
DistanceSpacing: 1.4
BeatDivisor: 4
GridSize: 32
TimelineZoom: 1.2

[Metadata]
Title:Haruhi of The Sprite Tribe
TitleUnicode:Haruhi of The Sprite Tribe
Artist:Nico Nico Douga
ArtistUnicode:Nico Nico Douga
Creator:Xarr
Version:.,.,.,,..,.
Source:
Tags:
BeatmapID:1474690
BeatmapSetID:696115

[Difficulty]
HPDrainRate:5
CircleSize:3
OverallDifficulty:9
ApproachRate:9.6
SliderMultiplier:2.69
SliderTickRate:1

[Events]
//Background and Video events
0,0,"black.png",0,0
//Break Periods
//Storyboard Layer 0 (Background)
//Storyboard Layer 1 (Fail)
//Storyboard Layer 2 (Pass)
//Storyboard Layer 3 (Foreground)
//Storyboard Sound Samples

[TimingPoints]
22112,251.046025104603,4,2,0,100,1,0
22112,-100,4,2,0,100,0,0
29643,-200,4,2,0,100,0,0
29894,-50,4,2,0,100,0,0
31275,-100,4,2,0,100,0,0
31902,-200,4,2,0,100,0,0
32153,-50,4,2,0,100,0,0
32655,-200,4,2,0,100,0,0
33660,-100,4,2,0,100,0,0
33911,-66.6666666666667,4,2,0,100,0,0
34162,-200,4,2,0,100,0,0
35166,-66.6666666666667,4,2,0,100,0,0
38178,-200,4,2,0,100,0,0
38681,-50,4,2,0,100,0,0
39434,-25,4,2,0,100,0,0
40187,-1000,4,2,0,100,0,0
41191,-66.6666666666667,4,2,0,100,0,0
41693,-25,4,2,0,100,0,0
42195,-100,4,2,0,100,0,0
43953,-83.3333333333333,4,2,0,100,0,0
44580,-200,4,2,0,100,0,0
45208,-50,4,2,0,100,0,0
46212,-40,4,2,0,100,0,0
46588,-100,4,2,0,100,0,0
46965,-50,4,2,0,100,0,0
47216,-100,4,2,0,100,0,0
47593,-50,4,2,0,100,0,0
47969,-33.3333333333333,4,2,0,100,0,0
49224,-100,4,2,0,100,0,0
49350,-66.6666666666667,4,2,0,100,0,0
49476,-50,4,2,0,100,0,0
49978,-33.3333333333333,4,2,0,100,0,0
50605,-200,4,2,0,100,0,0
50856,-50,4,2,0,100,0,0
50982,-33.3333333333333,4,2,0,100,0,0
51233,-200,4,2,0,100,0,0
51735,-50,4,2,0,100,0,0
53994,-200,4,2,0,100,0,0
54245,-50,4,2,0,100,0,0
54999,-100,4,2,0,100,0,0
55250,-133.333333333333,4,2,0,100,0,0
55752,-100,4,2,0,100,0,0
58262,-66.6666666666667,4,2,0,100,0,0
58639,-100,4,2,0,100,0,0
59015,-200,4,2,0,100,0,0
59266,-133.333333333333,4,2,0,100,0,0
59768,-100,4,2,0,100,0,0
59868,-66.6666666666667,4,2,0,100,0,0

[HitObjects]
69,210,22112,5,0,0:0:0:0:
134,329,22237,1,0,0:0:0:0:
190,67,22363,1,0,0:0:0:0:
190,67,22488,1,0,0:0:0:0:
362,320,22614,6,0,B|413:253|413:253|382:47,2,269
286,226,23367,1,0,0:0:0:0:
304,41,23618,6,0,P|312:81|305:120,1,67.25
409,115,23743,2,0,P|395:153|370:183,1,67.25
190,188,23869,6,0,P|182:228|189:267,1,67.25
85,262,23994,2,0,P|98:300|123:330,1,67.25
396,342,24120,6,0,P|326:311|261:317,2,134.5
396,342,24496,1,0,0:0:0:0:
375,143,24622,6,0,L|366:50,1,67.25
375,143,24873,6,0,P|343:111|310:97,1,67.25
375,143,25124,6,0,P|400:105|430:85,1,67.25
375,143,25375,6,0,L|381:209,1,67.25
76,355,25626,6,0,L|82:288,1,67.25
178,320,25752,2,0,L|184:253,1,67.25
279,174,25877,6,0,L|285:240,1,67.25
381,209,26003,2,0,L|387:275,1,67.25
474,354,26128,5,0,0:0:0:0:
474,354,26254,1,0,0:0:0:0:
474,354,26379,6,0,L|480:287,1,67.25
494,147,26505,2,0,L|501:81,1,67.25
361,14,26630,5,0,0:0:0:0:
387,275,26756,1,0,0:0:0:0:
494,147,26881,5,0,0:0:0:0:
494,147,27007,1,0,0:0:0:0:
250,86,27132,6,0,B|174:92|143:158|143:158|99:102|19:116,2,269
250,86,27760,1,0,0:0:0:0:
250,86,27886,6,0,P|267:116|277:167,1,67.25
405,361,28011,2,0,P|413:328|430:299,1,67.25
480,204,28137,6,0,B|328:149|375:309|193:235,1,269
250,86,28513,5,0,0:0:0:0:
96,345,28639,2,0,P|122:258|117:95,1,201.75
118,93,28890,1,0,0:0:0:0:
103,71,28953,1,0,0:0:0:0:
88,58,29015,1,0,0:0:0:0:
73,52,29078,1,0,0:0:0:0:
58,53,29141,6,0,L|224:31,1,134.5
58,53,29392,2,0,L|224:31,1,134.5
348,140,29643,6,0,L|438:151,1,67.25
204,332,29894,6,0,L|184:104,1,134.5
412,324,30145,5,0,0:0:0:0:
412,324,30270,1,0,0:0:0:0:
460,17,30396,5,0,0:0:0:0:
460,17,30522,1,0,0:0:0:0:
33,293,30647,5,0,0:0:0:0:
33,293,30773,1,0,0:0:0:0:
33,293,30898,1,0,0:0:0:0:
429,334,31149,5,0,0:0:0:0:
91,83,31275,2,0,P|95:140|113:224,1,134.5
126,233,31526,5,0,0:0:0:0:
447,25,31651,2,0,P|443:86|426:157,1,134.5
409,175,31902,6,0,P|429:142|431:180,1,100.875
260,314,32153,6,0,B|279:253|279:253|244:108|244:108|275:12,2,269
261,54,32530,1,0,0:0:0:0:
1,172,32655,6,0,L|134:158,1,134.5
134,157,33158,5,0,0:0:0:0:
105,345,33283,1,0,0:0:0:0:
134,157,33409,1,0,0:0:0:0:
105,345,33534,1,0,0:0:0:0:
511,195,33660,6,0,P|494:234|491:278,1,67.25
169,264,33785,2,0,P|193:289|207:323,1,67.25
413,163,33911,6,0,P|397:214|396:279,1,100.875003848076
240,192,34036,2,0,P|283:246|300:314,1,100.875003848076
311,77,34162,6,0,L|300:3,1,67.25
311,77,34413,2,0,L|300:3,1,67.25
442,322,34790,6,0,L|501:312,1,33.625
233,69,34915,6,0,L|282:75,1,33.625
61,328,35041,6,0,L|113:320,1,33.625
269,182,35166,6,0,B|263:242|263:242|245:280|245:280|259:321|259:321|253:409,1,201.750007696152
255,376,35417,6,0,B|261:316|261:316|279:278|279:278|265:237|265:237|271:149,1,201.750007696152
78,20,35668,6,0,L|93:147,1,100.875003848076
101,220,35794,1,0,0:0:0:0:
101,220,35919,6,0,L|76:9,1,201.750007696152
422,10,36170,5,0,0:0:0:0:
383,300,36296,1,0,0:0:0:0:
252,129,36421,5,0,0:0:0:0:
290,372,36547,1,0,0:0:0:0:
494,192,36672,5,0,0:0:0:0:
232,270,36798,1,0,0:0:0:0:
292,7,36923,1,0,0:0:0:0:
115,165,37174,5,0,0:0:0:0:
389,94,37300,1,0,0:0:0:0:
11,376,37425,1,0,0:0:0:0:
0,384,37676,5,0,0:0:0:0:
512,0,37801,1,0,0:0:0:0:
27,224,38178,6,0,P|7:179|6:153,1,67.25
27,224,38429,2,0,P|7:179|6:153,1,67.25
39,37,38681,6,0,L|228:61,1,134.5
462,354,38932,2,0,L|273:330,1,134.5
460,50,39183,5,0,0:0:0:0:
460,50,39308,1,0,0:0:0:0:
114,207,39434,6,0,B|206:200|230:115|279:193|373:178,1,269
498,248,39559,1,0,0:0:0:0:
498,248,39685,1,0,0:0:0:0:
114,207,39936,6,0,B|208:192|257:270|281:185|373:178,1,269
57,28,40187,6,0,L|61:56,1,26.9
195,361,40689,6,0,L|199:333,1,26.9
292,51,41191,6,0,P|401:43|508:225,1,302.625011544228,0|0,0:1|0:1,0:1:0:0:
511,183,41442,1,0,0:1:0:0:
1,242,41693,6,0,B|183:274|247:-17|336:275|522:180,1,538
483,312,41944,6,0,B|463:257|490:200|490:200|453:265|470:360,1,269
469,350,42195,6,0,P|330:312|233:407,1,269
241,384,42572,1,0,0:0:0:0:
99,149,42697,6,0,L|117:12,2,134.5
429,384,43074,5,0,0:0:0:0:
429,384,43199,6,0,L|410:234,1,134.5
93,309,43450,2,0,L|112:159,1,134.5
430,143,43701,2,0,L|411:-7,1,134.5
194,112,43953,6,0,B|114:-37|343:-50|477:80|176:183|281:383,1,564.899982760621
278,369,44455,1,0,0:0:0:0:
278,369,44580,6,0,P|215:343|126:334,1,134.5
123,349,44957,1,0,0:0:0:0:
421,191,45208,6,0,B|404:251|431:311|431:311|408:313|408:313|422:250|391:190,1,269
393,100,45396,1,0,0:0:0:0:
393,100,45459,1,0,0:0:0:0:
84,238,45584,5,0,0:0:0:0:
84,238,45710,1,0,0:0:0:0:
84,238,45835,1,0,0:0:0:0:
84,238,45961,1,0,0:0:0:0:
84,238,46086,1,0,0:0:0:0:
445,371,46212,6,0,L|411:36,1,336.25
286,328,46463,1,0,0:0:0:0:
73,129,46588,6,0,L|65:49,1,67.25
73,129,46840,2,0,L|65:49,1,67.25
485,193,46965,6,0,L|6:248,1,403.5
84,239,47216,6,0,P|97:269|119:295,1,67.25
197,116,47467,1,0,0:0:0:0:
358,348,47593,6,0,P|298:316|233:300,1,134.5
358,348,47718,2,0,P|421:327|488:323,1,134.5
350,10,47969,6,0,P|376:231|463:26,1,605.250023088456
171,159,48220,1,0,0:0:0:0:
50,349,48471,5,0,0:0:0:0:
463,303,48597,1,0,0:0:0:0:
153,337,48722,5,0,0:0:0:0:
360,314,48848,1,0,0:0:0:0:
256,326,48973,5,0,0:0:0:0:
256,326,49099,1,0,0:0:0:0:
256,326,49224,6,0,P|271:292|283:212,1,67.25
388,257,49350,6,0,P|363:192|307:141,1,100.875003848076
415,89,49476,6,0,P|355:61|246:66,1,134.5
82,277,49727,6,0,P|87:119|194:235,1,403.5
236,255,49978,6,0,P|75:80|67:317,1,605.250023088456
370,382,50229,5,0,0:0:0:0:
370,382,50354,1,0,0:0:0:0:
370,382,50480,2,0,L|407:143,1,201.750007696152
431,9,50605,6,0,B|432:68|450:42|451:106,1,100.875
257,11,50856,6,0,B|302:86|306:39|347:108,1,134.5
65,95,50982,6,0,B|180:158|149:95|254:152,1,201.750007696152
178,277,51107,1,0,0:0:0:0:
178,277,51233,6,0,L|173:228,1,33.625
393,355,51484,1,0,0:0:0:0:
393,355,51609,1,0,0:0:0:0:
456,276,51735,6,0,B|570:161|448:16|316:120|362:258,1,403.5
393,355,51986,1,0,0:0:0:0:
393,355,52112,1,0,0:0:0:0:
360,361,52237,5,0,0:0:0:0:
309,352,52363,1,0,0:0:0:0:
263,304,52488,1,0,0:0:0:0:
264,231,52614,1,0,0:0:0:0:
320,168,52739,1,0,0:0:0:0:
333,63,52865,1,0,0:0:0:0:
236,0,52990,1,0,0:0:0:0:
114,31,53116,1,0,0:0:0:0:
93,162,53241,5,0,0:0:0:0:
279,144,53367,1,0,0:0:0:0:
465,126,53492,1,0,0:0:0:0:
374,323,53618,5,0,0:0:0:0:
188,305,53744,1,0,0:0:0:0:
2,287,53869,1,0,0:0:0:0:
1,287,53994,6,0,L|35:289,1,33.625
488,80,54245,6,0,B|361:92|291:54|291:54|208:116|103:120,1,403.5
0,129,54496,1,0,0:0:0:0:
488,80,54622,6,0,B|383:84|299:148|299:148|230:108|103:120,1,403.5
0,129,54873,1,0,0:0:0:0:
309,300,54999,6,0,L|294:85,1,201.75
0,320,55250,6,0,B|66:300|93:224|93:224|122:348|272:376,1,353.062513468266
442,172,55752,6,0,B|373:102|230:98|134:146|166:289|326:315|302:129,1,470.75
104,119,56254,5,0,0:0:0:0:
79,384,56379,1,0,0:0:0:0:
187,73,56505,5,0,0:0:0:0:
236,367,56630,1,0,0:0:0:0:
109,21,56756,5,0,0:0:0:0:
145,284,56881,1,0,0:0:0:0:
354,120,57007,1,0,0:0:0:0:
22,174,57132,1,0,0:0:0:0:
346,275,57258,5,0,0:0:0:0:
327,6,57383,1,0,0:0:0:0:
432,342,57509,5,0,0:0:0:0:
472,60,57635,1,0,0:0:0:0:
237,384,57760,5,0,0:0:0:0:
277,91,57885,1,0,0:0:0:0:
510,273,58011,1,0,0:0:0:0:
141,213,58136,1,0,0:0:0:0:
447,49,58262,6,0,L|407:371,1,302.625011544228
407,361,58513,1,0,0:0:0:0:
64,84,58639,6,0,L|91:309,1,201.75
91,302,58890,1,0,0:0:0:0:
272,173,59015,6,0,L|257:292,1,100.875
257,295,59266,6,0,B|484:260|484:260|380:363,1,353.062513468266
156,364,59768,6,0,B|95:222|243:177|121:63|121:63|173:146|125:234,1,470.75
20,353,60270,5,0,0:0:0:0:
212,47,60396,1,0,0:0:0:0:
381,366,60522,1,0,0:0:0:0:
59,67,60647,5,0,0:0:0:0:
368,105,60773,1,0,0:0:0:0:
0,190,60898,5,0,0:0:0:0:
406,222,61024,1,0,0:0:0:0:
215,33,61149,1,0,0:0:0:0:
187,359,61275,5,0,0:0:0:0:
218,17,61400,1,0,0:0:0:0:
362,373,61526,5,0,0:0:0:0:
50,57,61651,1,0,0:0:0:0:
438,307,61777,6,0,B|397:207|415:106|415:106|398:205|320:279,1,403.500015392304
