osu file format v14

[General]
AudioFilename: audio.mp3
AudioLeadIn: 0
PreviewTime: 300
Countdown: 1
SampleSet: Normal
StackLeniency: 0.7
Mode: 0
LetterboxInBreaks: 0
WidescreenStoryboard: 1

[Editor]
Bookmarks: 300,2787,7761,12735,17709,25170,27657,30144,32631,35118,37605,42579,47553,52527
DistanceSpacing: 1
BeatDivisor: 4
GridSize: 4
TimelineZoom: 4.200004

[Metadata]
Title:Ayaya! Ayaya! Intensifies
TitleUnicode:Ayaya! Ayaya! Intensifies
Artist:Nico Nico Douga (or No.4)
ArtistUnicode:Nico Nico Douga (or No.4)
Creator:thebyteman
Version:AYAYA Hard
Source:Kiniro Mosaic
Tags:AYAYA, thebyteman, Sexy Parodius, Sonic Speed Bath, Kiniro Mosaic, Karen Kujou, Aya Komichi
BeatmapID:1863737
BeatmapSetID:889952

[Difficulty]
HPDrainRate:4
CircleSize:3.5
OverallDifficulty:5
ApproachRate:6
SliderMultiplier:1.4
SliderTickRate:1

[Events]
//Background and Video events
Video,0,"Ayaya! Ayaya! Intensifies.mp4"
0,0,"AYAYA.jpg",0,0
//Break Periods
//Storyboard Layer 0 (Background)
//Storyboard Layer 1 (Fail)
//Storyboard Layer 2 (Pass)
//Storyboard Layer 3 (Foreground)
//Storyboard Sound Samples

[TimingPoints]
300,310.880829015544,4,1,0,100,1,0
12735,-100,4,1,0,100,0,0
15222,-100,4,1,0,100,0,0
17709,-100,4,1,0,100,0,0
20196,-100,4,1,0,100,0,0
25170,-100,4,1,0,100,0,1
27657,-100,4,1,0,100,0,0
30144,-100,4,1,0,100,0,1
35118,-100,4,1,0,100,0,0
53771,-100,4,1,0,75,0,0
54082,-100,4,1,0,50,0,0
54393,-100,4,1,0,25,0,0

[Colours]
Combo1 : 46,49,144
Combo2 : 255,255,0
SliderBorder : 255,255,255

[HitObjects]
73,138,300,6,0,P|96:99|127:79,2,70,10|2|6,0:0|2:2|2:2,0:0:0:0:
150,254,921,2,0,P|127:293|96:313,2,70,10|2|6,0:0|2:2|2:2,0:0:0:0:
150,113,1543,6,0,L|242:106,1,70,10|2,0:0|2:2,0:0:0:0:
290,108,1854,1,10,0:0:0:0:
290,108,2009,1,2,0:0:0:0:
290,108,2165,2,0,P|376:88|424:58,1,140,2|4,0:0|2:2,0:0:0:0:
499,18,2787,6,0,P|509:107|474:164,1,140,10|14,0:0|2:2,0:0:0:0:
424,78,3408,6,0,P|397:120|400:163,1,70
432,213,3719,2,0,P|377:224|346:209,1,70
292,145,4030,5,10,0:0:0:0:
292,145,4186,1,2,2:2:0:0:
292,145,4341,1,6,2:2:0:0:
205,315,4652,1,10,0:0:0:0:
205,315,4807,1,2,2:0:0:0:
205,315,4963,1,6,2:2:0:0:
149,186,5274,6,0,P|119:155|110:113,1,70,10|2,1:1|0:0,0:0:0:0:
191,118,5584,2,0,P|223:149|226:195,1,70,6|2,2:2|0:0,0:0:0:0:
203,246,5895,2,0,L|206:334,3,70,10|10|6|2,3:3|3:3|2:2|0:0,0:0:0:0:
205,315,6517,6,0,P|179:347|141:353,2,70,10|2|6,0:0|2:2|2:2,0:0:0:0:
198,126,7139,1,10,0:0:0:0:
198,126,7294,1,10,0:0:0:0:
198,126,7450,1,6,2:2:0:0:
436,55,7761,6,0,P|362:21|288:45,1,140,10|6,0:0|2:2,0:0:0:0:
359,99,8382,2,0,L|348:189,3,70,10|10|6|2,3:3|3:3|2:2|0:0,0:0:0:0:
335,263,9004,5,10,0:0:0:0:
335,263,9160,1,2,2:2:0:0:
335,263,9315,1,6,2:2:0:0:
231,189,9626,1,10,0:0:0:0:
231,189,9781,1,2,2:2:0:0:
231,189,9937,1,6,2:2:0:0:
100,280,10248,6,0,P|72:258|58:226,1,70,6|2,3:3|0:0,0:0:0:0:
99,279,10559,2,0,P|120:251|152:237,1,70,6|2,3:3|0:0,0:0:0:0:
99,279,10869,2,0,P|126:300|140:332,1,70,6|2,3:3|0:0,0:0:0:0:
99,279,11180,2,0,P|77:306|45:320,1,70,6|2,3:3|0:0,0:0:0:0:
33,237,11491,2,0,P|14:205|15:162,1,70
88,183,11802,6,0,P|126:161|146:129,2,70,10|2|10,0:0|0:0|0:0,0:0:0:0:
324,171,12735,6,0,P|402:160|458:168,1,105,10|0,0:0|2:2,0:0:0:0:
435,127,13046,2,0,P|399:50|397:0,1,105,10|0,0:0|2:2,0:0:0:0:
362,26,13356,2,0,P|327:128|277:156,1,140,10|4,0:0|2:1,0:0:0:0:
177,205,13978,6,0,P|175:262|219:279,1,105,10|0,0:0|2:2,0:0:0:0:
215,314,14289,2,0,P|182:324|153:391,1,105,10|0,0:0|2:2,0:0:0:0:
117,384,14600,2,0,P|131:296|90:226,1,140,10|0,0:0|0:0,0:0:0:0:
37,177,15222,5,10,0:0:0:0:
40,106,15377,1,2,0:0:0:0:
95,149,15533,1,6,2:2:0:0:
159,91,15844,6,0,P|194:66|228:65,2,70,10|2|6,0:0|0:0|2:2,0:0:0:0:
216,141,16465,2,0,B|223:179|223:179|253:147,1,70
283,122,16776,1,6,2:2:0:0:
219,63,17087,6,0,P|254:34|290:27,2,70,10|2|6,0:0|0:0|2:2,0:0:0:0:
259,191,17709,6,0,P|191:233|137:228,1,105,10|0,0:0|2:2,0:0:0:0:
133,237,18020,2,0,P|190:280|242:281,1,105,10|0,0:0|2:2,0:0:0:0:
256,289,18331,2,0,P|332:268|354:187,1,140,10|4,0:0|1:1,0:0:0:0:
377,78,18952,6,0,P|386:127|427:180,1,105,10|0,0:0|2:2,0:0:0:0:
443,195,19263,2,0,P|380:157|341:150,1,105,10|0,0:0|2:2,0:0:0:0:
315,145,19574,2,0,P|187:145|135:41,1,245,10|0,0:0|2:2,0:0:0:0:
133,13,20196,5,10,0:0:0:0:
133,13,20351,1,2,0:0:0:0:
133,13,20507,1,2,0:0:0:0:
272,1,20818,6,0,P|316:22|333:44,2,70,10|2|2,0:0|0:0|0:0,0:0:0:0:
258,76,21439,2,0,P|225:110|190:111,1,70
192,34,21750,2,0,P|149:52|129:99,2,70,2|2|2,3:3|2:2|2:2,0:0:0:0:
272,4,22372,1,0,0:0:0:0:
330,131,22683,5,10,0:0:0:0:
365,191,22838,1,2,0:0:0:0:
398,129,22994,1,2,0:0:0:0:
501,32,23305,2,0,B|499:68|499:68|466:66,1,70
399,64,23616,1,2,0:0:0:0:
290,59,23926,6,0,P|255:64|228:85,2,70,10|2|2,0:0|0:0|0:0,0:0:0:0:
289,136,24548,6,0,P|246:162|217:162,2,70,10|2|2,0:0|0:0|0:0,0:0:0:0:
288,62,25170,5,2,0:0:0:0:
227,163,25481,1,2,0:0:0:0:
354,95,25792,2,0,P|367:140|356:173,3,70
302,209,26413,2,0,P|327:234|360:243,2,70,10|2|2,0:0|2:2|2:2,0:0:0:0:
411,191,27035,1,10,0:0:0:0:
411,191,27191,1,2,2:2:0:0:
411,191,27346,1,2,2:2:0:0:
428,84,27657,6,0,P|377:110|352:139,1,70,6|2,3:3|2:2,0:0:0:0:
428,84,27968,2,0,P|402:33|373:8,1,70,6|2,3:3|2:2,0:0:0:0:
428,84,28279,2,0,P|479:58|504:29,1,70,6|2,2:3|2:2,0:0:0:0:
428,84,28590,2,0,P|454:135|483:160,1,70,6|2,3:3|2:2,0:0:0:0:
512,201,28901,5,10,3:3:0:0:
512,201,29056,1,2,2:2:0:0:
512,201,29211,1,2,2:2:0:0:
401,281,29522,1,10,0:0:0:0:
401,281,29678,1,2,0:0:0:0:
401,281,29833,1,2,0:0:0:0:
350,123,30144,5,2,0:0:0:0:
262,223,30455,1,2,0:0:0:0:
158,127,30766,2,0,P|122:142|101:186,3,70
182,213,31388,5,10,0:0:0:0:
182,213,31543,1,2,2:2:0:0:
182,213,31698,1,2,2:2:0:0:
105,166,32009,2,0,P|132:136|179:126,2,70,10|2|2,0:0|2:2|2:2,0:0:0:0:
131,364,32631,6,0,P|109:337|97:305,1,70,6|2,3:3|2:2,0:0:0:0:
62,245,32942,2,0,P|84:272|97:305,1,70,6|2,3:3|2:2,0:0:0:0:
156,270,33253,2,0,P|129:292|97:305,1,70,6|2,2:3|2:2,0:0:0:0:
37,339,33564,2,0,P|64:317|97:305,1,70,6|2,3:3|2:2,0:0:0:0:
156,270,33875,2,0,P|190:242|220:233,1,70
234,308,34186,2,0,P|267:299|297:281,2,70,6|2|0,2:3|2:2|0:0,0:0:0:0:
224,161,34807,1,4,2:2:0:0:
43,93,35118,5,10,0:0:0:0:
75,30,35274,1,2,0:0:0:0:
112,89,35429,1,2,0:0:0:0:
236,189,35740,2,0,B|256:222|256:222|278:179,1,70
285,167,36051,1,2,0:0:0:0:
357,76,36362,5,10,0:0:0:0:
394,16,36517,1,2,0:0:0:0:
432,75,36673,1,2,0:0:0:0:
464,155,36983,2,0,P|495:140|512:110,2,70
323,186,37605,5,10,0:0:0:0:
220,87,37916,1,10,0:0:0:0:
121,195,38227,2,0,P|122:239|149:273,3,70
212,278,38849,6,0,P|211:243|194:214,2,70,6|2|2,0:0|2:2|2:2,0:0:0:0:
160,337,39470,2,0,P|206:359|251:342,2,70
58,222,40092,5,10,0:0:0:0:
8,172,40248,1,2,2:2:0:0:
73,145,40403,1,2,2:2:0:0:
205,168,40714,2,0,B|252:164|252:164|239:195,1,70
216,238,41025,1,2,2:2:0:0:
141,215,41336,6,0,P|138:259|157:291,2,70,10|2|2,0:0|2:2|2:2,0:0:0:0:
213,241,41958,6,0,P|217:197|196:159,2,70,10|2|2,0:0|2:2|2:2,0:0:0:0:
148,281,42579,5,10,0:0:0:0:
207,173,42890,1,2,0:0:0:0:
354,275,43201,2,0,P|376:241|378:209,3,70
303,215,43823,2,0,P|310:168|337:146,1,70
401,138,44134,6,0,P|381:97|335:78,2,70,8|0|0,0:0|0:0|0:0,0:0:0:0:
436,306,44755,1,6,0:0:0:0:
495,191,45066,6,0,P|505:132|496:103,2,70,10|2|2,0:0|0:0|0:0,0:0:0:0:
436,306,45688,2,0,P|389:343|359:349,2,70,10|2|2,0:0|0:0|0:0,0:0:0:0:
408,216,46310,2,0,L|334:168,1,70,10|2,0:0|0:0,0:0:0:0:
247,121,46621,1,10,0:0:0:0:
247,121,46776,1,2,0:0:0:0:
247,121,46932,2,0,P|159:86|87:82,1,140,2|4,0:0|2:2,0:0:0:0:
17,80,47553,5,10,0:0:0:0:
112,189,47864,1,6,0:0:0:0:
207,51,48175,2,0,P|270:74|284:99,1,70,10|10,3:3|3:3,0:0:0:0:
211,128,48486,2,0,P|247:152|288:151,1,70
337,111,48797,2,0,P|352:154|344:185,2,70,10|2|4,0:0|2:2|2:2,0:0:0:0:
337,34,49419,2,0,P|381:43|409:80,2,70,10|2|6,0:0|2:2|2:2,0:0:0:0:
378,163,50040,6,0,P|350:141|336:109,1,70,6|2,3:3|0:0,0:0:0:0:
377,162,50351,2,0,P|398:134|430:120,1,70,6|2,3:3|0:0,0:0:0:0:
449,200,50661,2,0,P|476:221|490:253,1,70,6|2,3:3|0:0,0:0:0:0:
449,200,50972,2,0,P|427:227|395:241,1,70,6|2,3:3|0:0,0:0:0:0:
251,250,51284,5,10,0:0:0:0:
251,250,51439,1,2,0:0:0:0:
251,250,51595,1,6,0:0:0:0:
115,131,51906,1,10,0:0:0:0:
115,131,52061,1,2,0:0:0:0:
115,131,52217,1,14,2:2:0:0:
256,192,52527,12,0,54704,0:0:0:0:
