osu file format v14

[General]
AudioFilename: audio.mp3
AudioLeadIn: 0
PreviewTime: 300
Countdown: 1
SampleSet: Normal
StackLeniency: 0.7
Mode: 0
LetterboxInBreaks: 0
WidescreenStoryboard: 1

[Editor]
Bookmarks: 300,2787,7761,12735,17709,25170,27657,30144,32631,35118,37605,42579,47553,52527
DistanceSpacing: 0.5
BeatDivisor: 4
GridSize: 4
TimelineZoom: 4.200004

[Metadata]
Title:Ayaya! Ayaya! Intensifies
TitleUnicode:Ayaya! Ayaya! Intensifies
Artist:Nico Nico Douga (or No.4)
ArtistUnicode:Nico Nico Douga (or No.4)
Creator:thebyteman
Version:AYAYA Easy
Source:Kiniro Mosaic
Tags:AYAYA, thebyteman, Sexy Parodius, Sonic Speed Bath, Kiniro Mosaic, Karen Kujou, Aya Komichi
BeatmapID:1865344
BeatmapSetID:889952

[Difficulty]
HPDrainRate:1
CircleSize:2
OverallDifficulty:2
ApproachRate:2
SliderMultiplier:1.4
SliderTickRate:1

[Events]
//Background and Video events
Video,0,"Ayaya! Ayaya! Intensifies.mp4"
0,0,"AYAYA.jpg",0,0
//Break Periods
//Storyboard Layer 0 (Background)
//Storyboard Layer 1 (Fail)
//Storyboard Layer 2 (Pass)
//Storyboard Layer 3 (Foreground)
//Storyboard Sound Samples

[TimingPoints]
300,310.880829015544,4,1,0,100,1,0
300,-133.333333333333,4,1,0,100,0,0
12735,-133.333333333333,4,1,0,100,0,0
15222,-133.333333333333,4,1,0,100,0,0
17709,-133.333333333333,4,1,0,100,0,0
20196,-133.333333333333,4,1,0,100,0,0
25170,-133.333333333333,4,1,0,100,0,1
27657,-133.333333333333,4,1,0,100,0,0
30144,-133.333333333333,4,1,0,100,0,1
35118,-133.333333333333,4,1,0,100,0,0
53771,-133.333333333333,4,1,0,75,0,0
54082,-133.333333333333,4,1,0,50,0,0
54393,-133.333333333333,4,1,0,25,0,0

[Colours]
Combo1 : 46,49,144
Combo2 : 255,255,0
SliderBorder : 255,255,255

[HitObjects]
42,131,300,6,0,P|111:81|149:74,1,105.000004005432,10|6,0:0|2:2,0:0:0:0:
180,69,921,2,0,P|258:101|285:126,1,105.000004005432,10|6,0:0|2:2,0:0:0:0:
311,149,1543,5,10,0:0:0:0:
258,154,1854,2,0,P|151:168|68:229,1,210.000008010865,10|4,0:0|2:2,0:0:0:0:
45,273,2787,5,10,0:0:0:0:
92,295,3097,1,14,2:2:0:0:
142,307,3408,2,0,P|211:304|263:276,1,105.000004005432,10|6,3:3|2:2,0:0:0:0:
291,269,4030,6,0,P|225:261|174:240,1,105.000004005432,10|6,0:0|2:2,0:0:0:0:
146,216,4652,2,0,P|214:203|260:175,1,105.000004005432,10|6,0:0|2:2,0:0:0:0:
287,154,5274,6,0,P|348:147|401:177,3,105.000004005432,10|6|10|6,1:1|2:2|3:3|2:2,0:0:0:0:
423,201,6517,6,0,P|408:254|348:256,1,105.000004005432,10|6,0:0|2:2,0:0:0:0:
312,255,7139,2,0,P|243:243|205:259,1,105.000004005432,10|6,0:0|2:2,0:0:0:0:
174,292,7761,5,10,0:0:0:0:
132,324,8072,1,6,2:2:0:0:
80,330,8382,2,0,P|25:297|23:247,1,105.000004005432,10|6,3:3|2:2,0:0:0:0:
25,208,9004,6,0,P|49:157|107:149,1,105.000004005432,10|6,0:0|2:2,0:0:0:0:
145,144,9626,2,0,P|200:128|207:82,1,105.000004005432,10|6,0:0|2:2,0:0:0:0:
210,33,10248,5,6,3:3:0:0:
158,21,10559,1,6,2:2:0:0:
121,58,10869,1,10,3:3:0:0:
131,109,11180,1,6,2:2:0:0:
170,143,11491,6,0,P|185:293|54:291,1,315.000012016297,10|0,3:3|0:0,0:0:0:0:
42,246,12735,6,0,L|355:144,1,315.000012016297,10|4,0:0|2:1,0:0:0:0:
391,133,13978,6,0,L|74:236,1,315.000012016297,10|0,0:0|0:0,0:0:0:0:
45,256,15222,6,0,P|71:289|137:299,1,105.000004005432,10|6,0:0|2:2,0:0:0:0:
182,294,15844,6,0,P|238:261|244:211,1,105.000004005432,10|6,0:0|2:2,0:0:0:0:
248,172,16465,6,0,P|250:111|295:87,1,105.000004005432,10|6,0:0|2:2,0:0:0:0:
334,78,17087,6,0,P|384:85|403:142,1,105.000004005432,10|6,0:0|2:2,0:0:0:0:
402,183,17709,6,0,P|356:305|172:319,1,315.000012016297,10|4,0:0|1:1,0:0:0:0:
143,302,18952,6,0,P|59:177|144:39,1,315.000012016297,10|0,0:0|0:0,0:0:0:0:
174,42,20196,6,0,P|126:70|94:120,1,105.000004005432,10|2,0:0|0:0,0:0:0:0:
90,161,20818,2,0,P|90:229|66:264,1,105.000004005432,10|2,0:0|0:0,0:0:0:0:
42,303,21439,6,0,L|358:296,1,315.000012016297,10|0,0:0|0:0,0:0:0:0:
409,291,22683,6,0,P|443:236|435:189,1,105.000004005432,10|2,0:0|0:0,0:0:0:0:
430,146,23305,6,0,P|394:91|347:73,1,105.000004005432,10|2,0:0|0:0,0:0:0:0:
307,74,23926,6,0,P|251:109|206:120,1,105.000004005432,10|2,0:0|0:0,0:0:0:0:
163,135,24548,6,0,P|93:132|43:107,1,105.000004005432,10|2,0:0|0:0,0:0:0:0:
18,87,25170,5,2,0:0:0:0:
27,35,25481,1,2,0:0:0:0:
76,16,25792,1,2,0:0:0:0:
127,25,26103,1,2,0:0:0:0:
165,60,26413,6,0,P|208:99|259:116,1,105.000004005432,10|2,0:0|2:2,0:0:0:0:
299,136,27035,2,0,P|353:161|369:209,1,105.000004005432,10|2,0:0|2:2,0:0:0:0:
369,253,27657,6,0,P|338:318|291:328,3,105.000004005432,6|2|2|14,3:3|3:3|3:3|0:0,0:0:0:0:
258,328,28901,6,0,P|201:278|197:249,1,105.000004005432,10|2,3:3|2:2,0:0:0:0:
201,200,29522,2,0,P|218:139|185:94,1,105.000004005432,10|2,0:0|0:0,0:0:0:0:
156,74,30144,5,2,0:0:0:0:
105,60,30455,1,2,0:0:0:0:
55,78,30766,1,2,0:0:0:0:
28,123,31077,1,2,0:0:0:0:
18,174,31388,6,0,P|42:236|78:250,1,105.000004005432,10|2,0:0|2:2,0:0:0:0:
126,257,32009,2,0,P|194:268|218:302,1,105.000004005432,10|2,0:0|2:2,0:0:0:0:
240,339,32631,6,0,P|277:370|344:345,3,105.000004005432,10|0|0|0,3:3|2:2|2:2|2:2,0:0:0:0:
367,324,33875,6,0,P|405:182|270:101,1,315.000012016297,10|4,0:0|2:2,0:0:0:0:
229,98,35118,6,0,P|159:113|123:140,1,105.000004005432,10|2,0:0|0:0,0:0:0:0:
93,167,35740,6,0,P|47:223|38:271,1,105.000004005432,10|2,0:0|0:0,0:0:0:0:
59,282,36362,6,0,P|106:233|153:211,1,105.000004005432,10|2,0:0|0:0,0:0:0:0:
193,187,36983,6,0,P|256:172|307:178,1,105.000004005432,10|2,0:0|0:0,0:0:0:0:
347,183,37605,5,10,0:0:0:0:
394,205,37916,1,10,0:0:0:0:
420,250,38227,1,6,2:2:0:0:
420,302,38538,1,6,2:2:0:0:
390,345,38849,6,0,P|316:368|280:349,1,105.000004005432,2|2,0:0|2:2,0:0:0:0:
248,332,39470,6,0,P|209:282|207:237,1,105.000004005432,10|2,0:0|2:2,0:0:0:0:
212,189,40092,6,0,P|232:117|217:79,1,105.000004005432,10|2,0:0|2:2,0:0:0:0:
197,44,40714,6,0,P|130:14|97:35,1,105.000004005432,10|2,0:0|2:2,0:0:0:0:
67,60,41336,6,0,P|42:118|56:155,1,105.000004005432,10|2,0:0|2:2,0:0:0:0:
84,198,41958,6,0,P|114:263|98:293,1,105.000004005432,10|2,0:0|2:2,0:0:0:0:
82,337,42579,6,0,P|124:293|170:277,3,105.000004005432,10|2|2|6,0:0|0:0|3:3|2:2,0:0:0:0:
217,274,43823,6,0,P|313:217|238:56,1,315.000012016297,10|6,0:0|0:0,0:0:0:0:
194,49,45066,6,0,P|135:45|101:80,1,105.000004005432,10|2,0:0|0:0,0:0:0:0:
87,124,45688,2,0,P|87:180|136:210,1,105.000004005432,10|2,0:0|0:0,0:0:0:0:
172,224,46310,2,0,B|266:208|262:347|378:372|439:279|419:235,1,315.000012016297,10|4,0:0|2:2,0:0:0:0:
430,201,47553,5,10,0:0:0:0:
425,148,47864,1,6,0:0:0:0:
404,99,48175,1,10,3:3:0:0:
362,67,48486,1,6,2:2:0:0:
310,57,48797,6,0,P|235:62|207:97,1,105.000004005432,10|4,0:0|2:2,0:0:0:0:
189,126,49419,2,0,P|166:198|174:243,1,105.000004005432,10|6,0:0|2:2,0:0:0:0:
177,278,50040,6,0,P|209:329|259:340,3,105.000004005432,6|6|2|6,2:2|2:2|3:3|2:2,0:0:0:0:
300,328,51284,6,0,L|377:229,1,105.000004005432,10|6,0:0|0:0,0:0:0:0:
390,199,51906,2,0,P|334:243|288:244,1,105.000004005432,10|14,0:0|2:2,0:0:0:0:
256,192,52527,12,0,54704,0:0:0:0:
