osu file format v14

[General]
AudioFilename: chikyuu_kokuhaku_malechorus_highres.mp3
AudioLeadIn: 0
PreviewTime: -1
Countdown: 0
SampleSet: Normal
StackLeniency: 0.7
Mode: 0
LetterboxInBreaks: 1
WidescreenStoryboard: 0

[Editor]
Bookmarks: 53958
DistanceSpacing: 0.8
BeatDivisor: 2
GridSize: 16
TimelineZoom: 2.7

[Metadata]
Title:The Last Confession on Earth
TitleUnicode:地球最後の告白を
Artist:Nico Nico Chorus
ArtistUnicode:Nico Nico Chorus
Creator:AcidSnow1
Version:aaaa... not finished
Source:kemu
Tags:niconico douga chikyuu saigo no kokuhaku wo niconicodouga niconico nicovideo kouhei kouhey mafumafu akatin halyosy 鋼兵 猫(♂) まふまふ 赤ティン どーぱん Vanillaととろ
BeatmapID:452009
BeatmapSetID:189737

[Difficulty]
HPDrainRate:7
CircleSize:4
OverallDifficulty:7
ApproachRate:8
SliderMultiplier:2.4
SliderTickRate:1

[Events]
//Background and Video events
0,0,"chikyuu_chorus.jpg",0,0
//Break Periods
2,107053,113840
//Storyboard Layer 0 (Background)
//Storyboard Layer 1 (Fail)
//Storyboard Layer 2 (Pass)
//Storyboard Layer 3 (Foreground)
//Storyboard Sound Samples

[TimingPoints]
23643,315.789473684211,4,1,0,95,1,0
33600,-100,4,2,0,85,0,0
53958,-100,4,1,0,90,0,0
74169,-100,4,2,0,85,0,0
83643,-100,4,1,0,95,0,0
84274,-133.333333333333,4,1,0,100,0,1
106064,-200,4,2,0,50,0,0
107011,-100,4,1,0,100,0,0
117116,-200,4,2,0,50,0,0
127221,-133.333333333333,4,2,0,80,0,0
132274,-133.333333333333,4,3,0,85,0,0
137327,-100,4,1,0,90,0,0
142379,-200,4,2,0,70,0,0
144906,-100,4,1,0,90,0,0
147432,-133.333333333333,4,1,0,100,0,1
170169,-133.333333333333,4,1,0,90,0,0
172695,-100,4,2,0,80,0,0
192906,-400,4,2,0,60,0,0
199853,-500,4,2,0,50,0,0
203011,-100,4,1,0,100,0,0
208064,-133.333333333333,4,2,0,80,0,0
210590,-100,4,1,0,80,0,0
214379,-100,4,1,0,100,0,1
239011,-200,4,2,0,80,0,0
240906,-100,4,1,0,100,0,0
261116,-500,4,2,0,50,0,0

[HitObjects]
256,192,19064,12,0,20169,0:0:0:0:
256,192,20800,12,4,23169,0:0:0:0:
256,192,23327,5,0,0:0:0:0:
256,192,23406,1,0,0:0:0:0:
256,192,23485,1,0,0:0:0:0:
256,192,23564,1,0,0:0:0:0:
256,128,23643,6,0,L|384:128,1,120
384,192,23958,2,0,L|384:336,1,120
256,256,24274,2,0,L|128:256,1,120,8|0,0:0|0:0,0:0:0:0:
128,192,24590,6,0,L|128:64,1,120
192,96,24906,2,0,P|256:48|320:96,1,120,0|0,0:0|0:0,0:0:0:0:
320,128,25221,2,0,P|256:176|192:128,1,120,0|0,0:0|0:0,0:0:0:0:
288,256,25537,2,0,P|352:208|416:256,1,120,8|0,0:0|0:0,0:0:0:0:
384,304,25853,1,0,0:0:0:0:
384,304,25932,1,0,0:0:0:0:
384,304,26011,1,0,0:0:0:0:
304,224,26169,6,0,L|304:352,1,120
240,320,26485,2,0,L|240:192,1,120
176,240,26800,2,0,L|176:112,2,120,8|0|0,0:0|0:0|0:0,0:0:0:0:
128,192,27274,2,2,P|240:128|384:192,3,240,2|2|2|2,0:0|0:0|0:0|0:0,0:0:0:0:
256,192,28537,12,0,30274,0:0:0:0:
112,192,30590,5,0,0:0:0:0:
400,192,30906,1,8,0:0:0:0:
256,192,31221,12,0,32800,0:0:0:0:
256,192,33116,5,4,0:0:0:0:
256,192,33274,1,4,0:0:0:0:
192,128,33590,5,0,0:0:0:0:
256,128,33748,2,0,L|384:128,1,120
384,64,34064,2,0,L|384:224,1,120
448,192,34379,2,0,L|304:192,1,120
336,256,34695,2,0,L|336:128,1,120
320,64,35011,2,0,P|224:160|208:272,1,240
272,256,35485,2,0,P|384:192|384:80,1,240
368,48,35958,1,0,0:0:0:0:
352,96,36116,2,0,P|224:160|128:176,1,240
128,240,36590,2,0,L|368:240,2,240,0|0|0,0:0|0:0|0:0,0:0:0:0:
144,192,37537,2,2,P|304:224|400:160,3,240,2|2|2|10,0:0|0:0|0:0|0:0,0:0:0:0:
352,144,38800,5,2,0:0:0:0:
352,32,39116,1,0,0:0:0:0:
304,80,39274,1,0,0:0:0:0:
240,112,39432,1,8,0:0:0:0:
192,160,39590,1,0,0:0:0:0:
160,224,39748,1,0,0:0:0:0:
112,272,39906,1,0,0:0:0:0:
176,288,40064,2,2,L|352:288,2,120,2|2|2,0:0|0:0|0:0,0:0:0:0:
320,224,40538,2,2,L|144:224,2,120,2|10|2,0:0|0:0|0:0,0:0:0:0:
192,160,41012,2,2,L|368:160,1,120,2|2,0:0|0:0,0:0:0:0:
368,96,41327,6,2,L|112:96,6,240,2|2|2|2|2|2|2,0:0|0:0|0:0|0:0|0:0|0:0|0:0,0:0:0:0:
432,128,43379,5,0,0:0:0:0:
368,176,43537,1,0,0:0:0:0:
432,208,43695,1,6,0:0:0:0:
80,80,44169,1,0,0:0:0:0:
144,128,44327,1,0,0:0:0:0:
80,160,44485,1,0,0:0:0:0:
144,208,44643,1,0,0:0:0:0:
80,240,44800,1,0,0:0:0:0:
144,288,44958,1,6,0:0:0:0:
368,288,45432,1,0,0:0:0:0:
432,240,45590,1,0,0:0:0:0:
368,192,45748,1,0,0:0:0:0:
432,144,45906,1,0,0:0:0:0:
368,96,46064,1,4,0:0:0:0:
256,64,46379,6,2,L|256:256,2,120,2|2|2,0:0|0:0|0:0,0:0:0:0:
176,224,46853,2,2,L|176:80,2,120,2|10|2,0:0|0:0|0:0,0:0:0:0:
96,64,47327,2,2,L|96:192,1,120
112,256,47643,2,2,B|112:320|112:320|288:320,2,240,2|2|10,0:0|0:0|0:0,0:0:0:0:
176,224,48432,5,0,0:0:0:0:
112,176,48590,1,0,0:0:0:0:
176,128,48748,1,4,0:0:0:0:
336,48,49221,1,0,0:0:0:0:
400,96,49379,1,0,0:0:0:0:
336,144,49537,1,2,0:0:0:0:
400,192,49695,1,0,0:0:0:0:
336,240,49853,1,0,0:0:0:0:
400,288,50011,1,4,0:0:0:0:
336,320,50169,2,2,B|258:319|196:321|196:321|96:272,2,240,2|2|2,0:0|0:0|0:0,0:0:0:0:
272,272,50958,5,0,0:0:0:0:
224,208,51116,1,0,0:0:0:0:
272,144,51274,1,4,0:0:0:0:
144,96,51748,2,0,L|64:192,1,120,0|0,0:0|0:0,0:0:0:0:
144,160,52064,2,0,L|80:272,1,120,2|0,0:0|0:0,0:0:0:0:
144,224,52379,2,0,L|112:352,1,120,2|0,0:0|0:0,0:0:0:0:
208,224,52695,2,0,L|208:352,1,120,2|0,0:0|0:0,0:0:0:0:
272,224,53011,2,0,L|304:352,1,120,2|0,0:0|0:0,0:0:0:0:
352,192,53327,5,8,0:0:0:0:
352,192,53406,1,8,0:0:0:0:
352,192,53485,1,8,0:0:0:0:
160,192,53643,1,8,0:0:0:0:
160,192,53721,1,8,0:0:0:0:
160,192,53800,1,8,0:0:0:0:
128,144,53958,6,0,L|256:48,2,120,0|0|8,0:0|0:0|0:0,0:0:0:0:
256,160,54432,1,0,0:0:0:0:
368,144,54590,1,0,0:0:0:0:
368,144,54669,1,0,0:0:0:0:
368,144,54748,1,0,0:0:0:0:
256,96,54906,1,8,0:0:0:0:
256,32,55064,1,0,0:0:0:0:
320,64,55221,2,2,L|448:64,2,120,2|2|2,0:0|0:0|0:0,0:0:0:0:
192,128,55695,2,2,L|48:128,2,120,2|10|2,0:0|0:0|0:0,0:0:0:0:
320,192,56169,2,2,L|448:192,1,120,2|2,0:0|0:0,0:0:0:0:
128,208,56485,5,4,0:0:0:0:
128,288,56643,1,0,0:0:0:0:
208,288,56800,1,0,0:0:0:0:
208,208,56958,1,0,0:0:0:0:
288,208,57116,1,8,0:0:0:0:
368,208,57274,1,0,0:0:0:0:
368,288,57432,1,0,0:0:0:0:
288,288,57590,1,0,0:0:0:0:
208,256,57748,2,0,P|144:144|224:80,1,240,0|0,0:0|0:0,0:0:0:0:
304,256,58379,2,0,P|368:144|288:80,1,240,8|0,0:0|0:0,0:0:0:0:
128,240,59011,5,4,0:0:0:0:
128,144,59169,1,0,0:0:0:0:
208,64,59327,1,0,0:0:0:0:
304,64,59485,1,0,0:0:0:0:
384,144,59643,1,8,0:0:0:0:
384,240,59800,1,0,0:0:0:0:
304,320,59958,1,0,0:0:0:0:
208,320,60116,1,0,0:0:0:0:
208,240,60274,2,2,L|352:240,2,120,2|2|2,0:0|0:0|0:0,0:0:0:0:
128,192,60748,2,2,L|128:64,2,120,2|10|2,0:0|0:0|0:0,0:0:0:0:
208,144,61221,2,2,L|352:144,1,120,2|2,0:0|0:0,0:0:0:0:
384,64,61537,2,2,P|448:176|384:288,2,240,2|2|2,0:0|0:0|0:0,0:0:0:0:
384,192,62485,1,12,0:0:0:0:
256,192,62800,6,0,L|192:192,4,60,0|0|0|0|12,0:0|0:0|0:0|0:0|0:0,0:0:0:0:
384,192,63432,2,0,L|384:112,4,60,0|0|0|0|12,0:0|0:0|0:0|0:0|0:0,0:0:0:0:
240,128,64064,6,0,L|96:128,2,120,0|0|0,0:0|0:0|0:0,0:0:0:0:
320,80,64537,1,0,0:0:0:0:
400,128,64695,2,0,L|528:128,2,120,8|0|0,0:0|0:0|0:0,0:0:0:0:
320,160,65169,1,0,0:0:0:0:
240,208,65327,2,0,P|112:256|16:176,1,240
272,176,65958,2,0,P|400:128|496:208,1,240,8|0,0:0|0:0,0:0:0:0:
320,112,66590,6,2,L|320:240,2,120,2|2|2,0:0|0:0|0:0,0:0:0:0:
256,176,67064,2,2,L|256:48,2,120,2|10|2,0:0|0:0|0:0,0:0:0:0:
192,112,67537,2,2,L|192:240,1,120,2|2,0:0|0:0,0:0:0:0:
128,176,67853,2,2,L|368:176,2,240,2|2|2,0:0|0:0|0:0,0:0:0:0:
160,112,68643,5,0,0:0:0:0:
256,80,68800,1,0,0:0:0:0:
352,112,68958,1,12,0:0:0:0:
64,176,69432,5,0,0:0:0:0:
96,288,69590,1,0,0:0:0:0:
144,192,69748,1,8,0:0:0:0:
176,304,69906,1,0,0:0:0:0:
224,208,70064,1,0,0:0:0:0:
256,320,70222,1,0,0:0:0:0:
336,320,70379,2,2,L|464:320,2,120,2|2|2,0:0|0:0|0:0,0:0:0:0:
272,256,70853,2,2,L|416:256,2,120,2|10|2,0:0|0:0|0:0,0:0:0:0:
208,192,71327,2,2,L|336:192,1,120,2|6,0:0|0:0,0:0:0:0:
256,192,71643,12,4,73221,0:0:0:0:
128,192,73537,5,4,0:0:0:0:
384,192,73853,1,12,0:0:0:0:
112,176,74169,2,2,B|112:48|112:48|335:47|335:47|336:176,1,480,2|2,0:0|0:0,0:0:0:0:
384,240,75116,1,0,0:0:0:0:
448,256,75274,1,0,0:0:0:0:
400,304,75432,2,2,B|80:304|80:304|80:240|80:240|272:240,1,480,2|2,0:0|0:0,0:0:0:0:
256,176,76379,5,0,0:0:0:0:
336,176,76537,1,0,0:0:0:0:
304,96,76695,2,2,L|176:96,2,120,2|2|2,0:0|0:0|0:0,0:0:0:0:
96,192,77169,2,2,L|224:192,2,120,2|10|2,0:0|0:0|0:0,0:0:0:0:
304,288,77643,2,2,L|160:288,1,120,2|2,0:0|0:0,0:0:0:0:
96,288,77958,2,2,B|96:160|96:160|224:160,2,240,2|2|10,0:0|0:0|0:0,0:0:0:0:
352,288,78906,1,0,0:0:0:0:
416,112,79221,6,0,B|352:48|320:176|288:48|256:176|224:48|192:176|160:48|128:176|96:48|64:176|64:304,1,480
144,256,80011,1,2,0:0:0:0:
224,192,80169,1,2,0:0:0:0:
224,320,80327,1,2,0:0:0:0:
304,256,80485,2,2,P|400:320|496:256,3,240,2|2|10|2,0:0|0:0|0:0|0:0,0:0:0:0:
400,192,81748,2,2,B|400:64|400:64|272:64|272:64|272:192,1,360,4|4,0:0|0:0,0:0:0:0:
256,192,82379,12,4,83327,0:0:0:0:
128,192,83643,5,0,0:0:0:0:
128,192,83722,1,0,0:0:0:0:
128,192,83800,1,0,0:0:0:0:
384,192,83958,5,0,0:0:0:0:
384,192,84037,1,0,0:0:0:0:
384,192,84116,1,0,0:0:0:0:
176,112,84274,6,0,L|64:112,2,90.0000034332277,0|0|8,0:0|0:0|0:0,0:0:0:0:
256,64,84748,1,0,0:0:0:0:
336,112,84906,2,0,L|432:112,2,90.0000034332277,0|0|8,0:0|0:0|0:0,0:0:0:0:
256,176,85379,1,0,0:0:0:0:
176,224,85537,2,0,P|128:304|160:320,1,90.0000034332277
336,224,85853,2,0,P|384:304|352:320,1,90.0000034332277
336,320,86169,1,8,0:0:0:0:
256,320,86327,1,0,0:0:0:0:
176,272,86485,1,0,0:0:0:0:
160,192,86643,1,0,0:0:0:0:
256,192,86800,6,2,L|368:192,2,90.0000034332277
288,128,87274,2,2,L|384:128,2,90.0000034332277,2|10|2,0:0|0:0|0:0,0:0:0:0:
336,64,87748,2,2,L|432:64,2,90.0000034332277
256,64,88221,2,2,L|160:64,2,90.0000034332277
208,128,88695,2,2,L|112:128,2,90.0000034332277,10|2|2,0:0|0:0|0:0,0:0:0:0:
160,192,89169,1,0,0:0:0:0:
80,192,89327,5,0,0:0:0:0:
48,256,89485,1,0,0:0:0:0:
96,304,89643,1,0,0:0:0:0:
160,272,89800,1,0,0:0:0:0:
224,240,89958,1,8,0:0:0:0:
288,208,90116,1,0,0:0:0:0:
352,240,90274,1,0,0:0:0:0:
416,272,90432,1,0,0:0:0:0:
416,208,90590,6,0,L|416:80,1,90.0000034332277
352,176,90906,2,0,L|352:80,1,90.0000034332277
288,96,91221,2,0,L|192:96,2,90.0000034332277,8|0|0,0:0|0:0|0:0,0:0:0:0:
288,160,91695,1,0,0:0:0:0:
352,192,91853,6,0,B|416:160|432:192|432:272,1,90.0000034332277
288,256,92169,2,0,P|208:208|224:144,1,90.0000034332277
352,256,92485,2,0,P|400:272|400:352,1,90.0000034332277
288,192,92800,2,0,P|240:144|256:80,1,90.0000034332277
224,192,93116,1,0,0:0:0:0:
160,176,93274,1,0,0:0:0:0:
160,240,93432,1,0,0:0:0:0:
224,256,93590,1,0,0:0:0:0:
288,256,93748,6,0,L|336:272,8,45.0000017166138
208,208,94695,6,0,B|80:192|80:112|256:96,1,270.000010299683
320,144,95327,2,0,L|432:144,1,90.0000034332277
240,176,95643,2,0,L|144:176,1,90.0000034332277
304,224,95958,2,0,L|400:224,1,90.0000034332277
224,256,96274,2,0,L|128:256,1,90.0000034332277,8|0,0:0|0:0,0:0:0:0:
288,304,96590,2,0,L|384:304,1,90.0000034332277
208,304,96906,6,0,L|208:208,2,90.0000034332277
272,256,97379,2,0,L|272:160,2,90.0000034332277,0|8|0,0:0|0:0|0:0,0:0:0:0:
336,208,97853,1,0,0:0:0:0:
304,144,98011,2,2,P|160:128|144:160,4,180.000006866455
368,176,99432,6,0,B|432:272|368:320|288:320|176:304|128:272,2,360.000013732911,0|8|0,0:0|0:0|0:0,0:0:0:0:
288,96,101011,1,0,0:0:0:0:
208,176,101327,1,8,0:0:0:0:
128,96,101643,1,0,0:0:0:0:
64,176,101958,2,0,P|80:304|224:320,1,270.000010299683
256,320,102590,2,0,B|352:304|448:256|432:160|400:64|112:240,1,540.000020599366
160,144,103853,1,0,0:0:0:0:
352,144,104169,1,8,0:0:0:0:
288,224,104485,6,0,L|400:224,2,90.0000034332277
224,224,104958,2,0,L|128:224,2,90.0000034332277
256,176,105432,2,0,L|256:80,1,90.0000034332277
288,160,106064,5,0,0:0:0:0:
224,160,106221,1,0,0:0:0:0:
192,208,106379,1,0,0:0:0:0:
224,256,106537,1,0,0:0:0:0:
288,256,106695,1,0,0:0:0:0:
320,208,106853,1,0,0:0:0:0:
256,192,114590,12,0,116169,0:0:0:0:
256,192,116485,5,0,0:0:0:0:
256,192,116643,1,0,0:0:0:0:
304,112,116958,5,0,0:0:0:0:
352,128,117116,2,0,L|416:128,2,60
384,176,117590,1,0,0:0:0:0:
352,208,117748,2,0,L|352:272,2,60
320,176,118221,1,0,0:0:0:0:
256,176,118379,2,0,P|176:144|160:176,1,120
176,192,118853,2,0,P|192:256|240:240,1,120
272,240,119327,6,0,L|336:240,2,60
272,160,119958,2,0,L|112:112,2,120
304,96,120906,2,2,P|384:128|368:176,3,120
384,208,122169,5,2,0:0:0:0:
176,96,122485,5,0,0:0:0:0:
144,128,122643,1,0,0:0:0:0:
128,160,122800,1,0,0:0:0:0:
128,192,122958,1,0,0:0:0:0:
144,224,123116,1,0,0:0:0:0:
160,256,123274,1,0,0:0:0:0:
192,272,123432,2,0,L|272:272,1,60,2|0,0:0|0:0,0:0:0:0:
288,272,123748,2,0,L|352:224,1,60
352,208,124064,2,0,L|384:144,1,60
384,144,124379,2,0,L|384:80,1,60
256,192,124695,12,0,126590,0:0:0:0:
160,128,126748,5,0,0:0:0:0:
128,160,126906,1,0,0:0:0:0:
96,192,127064,1,2,0:0:0:0:
96,288,127537,5,0,0:0:0:0:
112,304,127695,1,0,0:0:0:0:
144,288,127853,1,0,0:0:0:0:
160,304,128011,1,0,0:0:0:0:
176,288,128169,1,0,0:0:0:0:
192,304,128327,1,2,0:0:0:0:
288,304,128800,5,0,0:0:0:0:
320,288,128957,1,0,0:0:0:0:
336,256,129115,1,0,0:0:0:0:
336,224,129273,1,0,0:0:0:0:
320,192,129431,1,2,0:0:0:0:
256,112,129748,6,0,L|368:160,2,90.0000034332277
224,144,130222,2,0,L|128:96,2,90.0000034332277
240,192,130695,2,0,L|352:240,1,90.0000034332277
352,208,131011,2,2,P|352:153|224:96,2,180.000006866455
368,240,131800,1,0,0:0:0:0:
400,240,131958,1,0,0:0:0:0:
416,272,132116,1,8,0:0:0:0:
336,304,132590,5,0,0:0:0:0:
304,304,132748,1,0,0:0:0:0:
272,288,132906,1,0,0:0:0:0:
240,272,133064,1,0,0:0:0:0:
224,240,133221,1,0,0:0:0:0:
192,208,133379,1,0,0:0:0:0:
160,208,133537,1,0,0:0:0:0:
128,176,133695,1,0,0:0:0:0:
144,128,133853,1,0,0:0:0:0:
176,112,134011,1,0,0:0:0:0:
224,112,134169,1,0,0:0:0:0:
272,128,134327,1,0,0:0:0:0:
304,160,134485,1,0,0:0:0:0:
336,192,134643,1,0,0:0:0:0:
256,192,134800,12,0,136379,0:0:0:0:
352,144,136695,5,0,0:0:0:0:
160,144,137011,1,8,0:0:0:0:
160,304,137327,2,2,B|288:288|336:208|400:224|384:80|320:48|176:128,1,480
96,176,138274,1,0,0:0:0:0:
144,144,138432,1,0,0:0:0:0:
144,208,138590,2,2,B|368:288|368:256|352:144|256:96|224:192|400:320,1,480
416,208,139537,1,0,0:0:0:0:
416,160,139695,1,0,0:0:0:0:
368,96,139853,6,2,L|496:96,2,120
304,128,140327,2,2,L|176:128,2,120,2|10|2,0:0|0:0|0:0,0:0:0:0:
368,160,140800,2,2,L|368:304,1,120
304,288,141116,2,2,P|224:292|144:144,3,240
208,96,142379,6,0,B|368:80|384:128|384:192|352:240|288:288|240:320,1,360
240,304,143485,1,0,0:0:0:0:
208,304,143643,2,0,P|128:224|144:112,1,180
176,160,144274,2,0,L|240:160,1,60
336,160,144590,2,0,L|272:160,1,60
336,224,144906,6,0,B|304:272|256:304|208:272|160:224|159:142|176:96|272:96,1,360
256,192,145537,12,0,146485,0:0:0:0:
256,192,146800,5,0,0:0:0:0:
256,192,146879,1,0,0:0:0:0:
256,192,146958,1,0,0:0:0:0:
256,192,147037,1,0,0:0:0:0:
256,192,147116,1,0,0:0:0:0:
256,192,147195,1,0,0:0:0:0:
256,192,147274,1,0,0:0:0:0:
256,192,147353,1,0,0:0:0:0:
