osu file format v14

[General]
AudioFilename: lastbreath.mp3
AudioLeadIn: 0
PreviewTime: 84008
Countdown: 0
SampleSet: Soft
StackLeniency: 0.5
Mode: 0
LetterboxInBreaks: 0
WidescreenStoryboard: 0

[Editor]
Bookmarks: 6572,20715,22429,28270,33008,81166,92219,107060,114640,115903,116535,117166
DistanceSpacing: 0.9
BeatDivisor: 4
GridSize: 4
TimelineZoom: 1.200001

[Metadata]
Title:Chikyuu Saigo no Kokuhaku wo (Short ver.)
TitleUnicode:地球最後の告白を
Artist:Nico Nico Chorus
ArtistUnicode:Nico Nico Chorus
Creator:CloudBlaze
Version:Easy
Source:
Tags:vocaloid GUMI halyosy あやぽんず lino まふまふ みどりいぬ 実谷なな 赤ティン 鋼兵 nico douga earth's last confession zallies zeroallies
BeatmapID:1444709
BeatmapSetID:683124

[Difficulty]
HPDrainRate:2
CircleSize:2.8
OverallDifficulty:2
ApproachRate:3
SliderMultiplier:0.899999999999999
SliderTickRate:1

[Events]
//Background and Video events
0,0,"the last confession.jpg",0,0
//Break Periods
2,33523,37409
2,79470,82883
//Storyboard Layer 0 (Background)
//Storyboard Layer 1 (Fail)
//Storyboard Layer 2 (Pass)
//Storyboard Layer 3 (Foreground)
//Storyboard Sound Samples

[TimingPoints]
3144,428.571428571429,4,2,2,50,1,0
3572,428.571428571429,4,2,2,50,1,0
20715,416.666666666667,4,2,2,50,1,0
23534,315.789473684211,4,2,2,65,1,0
23692,315.789473684211,4,2,2,65,1,0
43902,-100,4,2,2,65,0,0
84323,-100,4,2,2,75,0,1
107060,-100,4,2,2,75,0,0

[Colours]
Combo1 : 0,221,0
Combo2 : 198,0,198

[HitObjects]
83,90,23692,6,0,L|175:90,1,89.9999999999999,8|0,0:0|0:0,0:0:0:0:
244,128,24323,2,0,P|295:124|350:131,1,89.9999999999999,8|8,0:0|0:0,0:0:0:0:
396,180,24955,2,0,P|396:287|335:291,1,180,8|0,0:0|0:0,0:0:0:0:
278,247,25902,5,0,0:0:0:0:
205,209,26218,2,0,P|154:202|110:209,1,89.9999999999999,4|0,0:0|0:0,0:0:0:0:
48,252,26849,1,0,0:0:0:0:
116,308,27323,6,2,B|161:312|161:312|212:307,2,89.9999999999999
120,228,28270,1,8,0:0:0:0:
152,152,28586,6,0,P|212:128|277:153,1,135,4|0,0:0|0:0,0:0:0:0:
333,210,29376,2,0,P|382:212|433:205,1,89.9999999999999,0|8,0:0|0:0,0:0:0:0:
492,256,30007,2,0,P|456:294|444:334,1,89.9999999999999,0|8,0:0|0:0,0:0:0:0:
364,344,30639,2,0,P|317:336|265:343,1,89.9999999999999,0|8,0:0|0:0,0:0:0:0:
204,300,31270,6,0,L|100:300,2,89.9999999999999
272,252,32218,1,0,0:0:0:0:
340,208,32534,2,0,P|376:180|272:108,1,225
32,256,38849,6,0,P|80:248|128:256,1,89.9999999999999,4|8,0:0|0:0,0:0:0:0:
184,304,39481,2,0,P|228:309|272:301,1,89.9999999999999,0|8,0:0|0:0,0:0:0:0:
340,252,40113,2,2,P|368:176|220:164,1,270
180,216,41376,6,0,P|184:276|192:308,1,89.9999999999999,0|8,0:0|0:0,0:0:0:0:
264,344,42007,2,0,P|312:336|368:344,1,89.9999999999999,0|8,0:0|0:0,0:0:0:0:
428,308,42639,2,2,P|500:240|468:180,1,180
411,122,43902,6,0,P|364:133|314:122,1,89.9999999999999,4|8,0:0|0:0,0:0:0:0:
267,67,44534,2,0,P|220:56|170:67,1,89.9999999999999,0|8,0:0|0:0,0:0:0:0:
120,120,45165,2,0,P|167:190|103:267,1,180
40,264,46113,1,8,0:0:0:0:
76,340,46428,2,0,P|126:346|176:337,1,89.9999999999999,0|8,0:0|0:0,0:0:0:0:
236,294,47060,2,0,P|286:289|340:297,1,89.9999999999999,0|8,0:0|0:0,0:0:0:0:
396,332,47692,2,0,P|488:252|383:172,1,270
349,99,48955,6,0,P|295:93|249:96,1,89.9999999999999,4|8,0:0|0:0,0:0:0:0:
182,69,49586,2,0,P|161:118|126:153,1,89.9999999999999,0|8,0:0|0:0,0:0:0:0:
61,177,50218,2,0,P|63:259|154:259,1,180
215,225,51165,1,0,0:0:0:0:
280,176,51481,6,0,P|326:182|387:173,2,89.9999999999999,0|8|0,0:0|0:0|0:0,0:0:0:0:
214,128,52428,1,8,0:0:0:0:
145,85,52744,2,0,P|99:79|38:88,2,89.9999999999999,0|8|0,0:0|0:0|0:0,0:0:0:0:
216,44,53692,1,8,0:0:0:0:
295,43,54007,6,4,P|374:72|388:160,1,180
312,128,54955,1,8,0:0:0:0:
232,124,55270,2,0,P|184:120|124:124,1,89.9999999999999,0|8,0:0|0:0,0:0:0:0:
64,144,55902,2,0,P|72:192|60:244,1,89.9999999999999,0|8,0:0|0:0,0:0:0:0:
40,308,56534,2,2,P|88:344|160:268,1,180
164,192,57481,1,8,0:0:0:0:
240,168,57797,6,0,P|288:164|336:172,1,89.9999999999999,0|8,0:0|0:0,0:0:0:0:
408,184,58428,2,0,P|416:228|408:276,1,89.9999999999999,0|8,0:0|0:0,0:0:0:0:
348,328,59060,2,0,B|300:324|300:324|240:328,2,89.9999999999999,0|8|0,0:0|0:0|0:0,0:0:0:0:
409,272,60007,5,8,0:0:0:0:
408,192,60323,2,0,P|404:144|408:96,1,89.9999999999999,0|8,0:0|0:0,0:0:0:0:
356,40,60955,2,0,P|308:36|264:40,1,89.9999999999999,0|8,0:0|0:0,0:0:0:0:
220,104,61586,2,2,P|144:144|184:228,1,180
232,268,62534,1,8,0:0:0:0:
300,224,62849,6,0,P|352:216|404:224,1,89.9999999999999,0|8,0:0|0:0,0:0:0:0:
460,180,63481,2,0,P|436:136|432:92,1,89.9999999999999,0|8,0:0|0:0,0:0:0:0:
380,32,64113,2,2,P|296:52|308:136,1,180
364,184,65060,1,8,0:0:0:0:
296,232,65376,6,0,P|244:228|204:232,1,89.9999999999999,0|8,0:0|0:0,0:0:0:0:
156,296,66007,2,0,P|104:300|64:296,1,89.9999999999999,0|8,0:0|0:0,0:0:0:0:
24,228,66639,2,2,P|28:152|120:160,1,180
168,212,67586,1,8,0:0:0:0:
244,184,67902,6,0,P|292:172|340:176,1,89.9999999999999,0|8,0:0|0:0,0:0:0:0:
412,152,68534,2,0,P|424:200|420:248,1,89.9999999999999,0|8,0:0|0:0,0:0:0:0:
372,304,69165,2,2,P|296:344|268:264,1,180
264,196,70113,1,8,0:0:0:0:
192,156,70428,6,0,P|140:152|96:156,1,89.9999999999999,0|8,0:0|0:0,0:0:0:0:
28,188,71060,2,0,P|56:228|60:272,1,89.9999999999999,0|8,0:0|0:0,0:0:0:0:
96,344,71692,2,2,P|176:344|180:252,1,180
152,188,72639,1,8,0:0:0:0:
208,128,72955,6,0,P|256:136|308:128,1,89.9999999999999,0|8,0:0|0:0,0:0:0:0:
376,152,73586,2,0,P|364:200|372:256,1,89.9999999999999,0|8,0:0|0:0,0:0:0:0:
320,308,74218,2,2,P|240:312|232:216,1,180,6|2,0:0|0:0,0:0:0:0:
268,164,75165,1,0,0:0:0:0:
200,120,75481,6,0,P|156:108|104:120,1,89.9999999999999
32,132,76113,2,2,P|44:180|32:232,1,89.9999999999999
64,296,76744,2,2,P|148:296|144:212,1,180
172,140,77692,1,0,0:0:0:0:
248,112,78007,6,0,P|304:104|344:112,1,89.9999999999999
408,152,78639,2,0,P|400:204|408:248,2,89.9999999999999,0|0|4,0:0|0:0|0:0,0:0:0:0:
444,124,84323,6,0,B|396:116|396:116|340:124,1,89.9999999999999,0|8,0:0|0:0,0:0:0:0:
284,160,84955,2,0,P|292:204|284:248,1,89.9999999999999,0|8,0:0|0:0,0:0:0:0:
208,204,85586,2,2,P|120:188|104:260,1,180
156,320,86534,1,8,0:0:0:0:
228,284,86849,6,0,P|276:276|320:284,1,89.9999999999999,0|8,0:0|0:0,0:0:0:0:
392,308,87481,2,0,P|400:256|392:212,1,89.9999999999999,0|8,0:0|0:0,0:0:0:0:
328,176,88113,2,2,P|256:172|276:88,1,180
352,68,89060,1,8,0:0:0:0:
428,96,89376,6,0,P|436:140|428:192,1,89.9999999999999,0|8,0:0|0:0,0:0:0:0:
424,264,90007,2,0,P|380:256|328:264,1,89.9999999999999,0|8,0:0|0:0,0:0:0:0:
264,300,90639,2,2,P|176:280|192:200,1,180
240,148,91586,1,8,0:0:0:0:
188,84,91902,6,0,P|140:76|100:80,1,89.9999999999999,0|8,0:0|0:0,0:0:0:0:
36,132,92534,2,0,P|28:180|36:232,1,89.9999999999999,0|8,0:0|0:0,0:0:0:0:
96,272,93165,2,2,P|188:308|208:236,1,180
200,172,94113,1,8,0:0:0:0:
60,88,94744,6,0,P|112:84|168:88,1,89.9999999999999
232,96,95376,1,0,0:0:0:0:
216,176,95692,2,2,P|180:260|120:212,1,180,6|2,0:0|0:0,0:0:0:0:
76,160,96639,1,0,0:0:0:0:
92,76,96955,6,0,P|136:68|188:76,1,89.9999999999999,0|8,0:0|0:0,0:0:0:0:
244,124,97586,2,0,P|312:132|384:124,1,135,0|8,0:0|0:0,0:0:0:0:
340,260,98692,6,0,B|292:252|292:252|240:260,2,89.9999999999999,0|0|4,0:0|0:0|0:0,0:0:0:0:
232,80,100744,6,0,P|184:76|128:80,1,89.9999999999999,0|8,0:0|0:0,0:0:0:0:
68,112,101376,2,0,P|80:164|68:208,1,89.9999999999999,0|8,0:0|0:0,0:0:0:0:
92,280,102007,2,2,P|168:316|196:236,1,180,6|2,0:0|0:0,0:0:0:0:
192,164,102955,1,0,0:0:0:0:
244,100,103270,6,0,P|292:96|324:64,1,89.9999999999999
400,92,103902,2,0,P|392:140|404:192,1,89.9999999999999
384,260,104534,2,0,B|304:308|248:252|244:252|232:192|160:168|92:188,1,315
