osu file format v14

[General]
AudioFilename: Nicky Tirta feat. Vanessa Angel - Indah Cintaku.mp3
AudioLeadIn: 2000
PreviewTime: 50623
Countdown: 0
SampleSet: Soft
StackLeniency: 0.7
Mode: 0
LetterboxInBreaks: 0
EpilepsyWarning: 1
WidescreenStoryboard: 0

[Editor]
Bookmarks: 17113,97858,117964,173815,182113
DistanceSpacing: 1
BeatDivisor: 4
GridSize: 4
TimelineZoom: 1.5

[Metadata]
Title:Indah Cintaku
TitleUnicode:Indah Cintaku
Artist:Nicky Tirta - Vanessa Angel
ArtistUnicode:Nicky Tirta - Vanessa Angel
Creator:HeatKai
Version:Susah
Source:
Tags:bahasa indonesia Jerry indo Nagaswara Alam Urbach Neppu
BeatmapID:337620
BeatmapSetID:132615

[Difficulty]
HPDrainRate:6
CircleSize:5
OverallDifficulty:6
ApproachRate:7
SliderMultiplier:1.8
SliderTickRate:1

[Events]
//Background and Video events
0,0,"bggggg.jpg",0,0
//Break Periods
2,87844,96957
2,164440,172914
//Storyboard Layer 0 (Background)
Sprite,Background,Centre,"bggggg.jpg",320,240 S,0,-2000,244971,0.4
Sprite,Background,Centre,"sb\2.png",320,240 F,0,39,51900,0,1 S,0,39,87645,0.4 F,0,87326,87645,1,0
Sprite,Background,Centre,"sb\2.png",320,240 F,0,87645,128496,0,1 S,0,87645,164241,0.4 F,0,163922,164241,1,0
Sprite,Background,Centre,"sb\2.png",320,240 F,0,202539,203177,0,1 S,0,202539,203177,0.4 F,0,217539,217858,1,0
//Storyboard Layer 1 (Fail)
//Storyboard Layer 2 (Pass)
//Storyboard Layer 3 (Foreground)
Sprite,Foreground,Centre,"sb\1.png",320,240 F,0,72326,72964,0,1 M,0,72326,87645,85,402,315,402 S,0,72326,87645,0.8 F,0,87326,87645,1,0
Sprite,Foreground,Centre,"sb\white.png",320,240 F,0,51900,52539,1,0 S,0,51900,52539,0.8
Sprite,Foreground,Centre,"sb\white.png",320,240 F,0,72326,72964,1,0 S,0,72326,72964,0.8
Sprite,Foreground,Centre,"sb\star.png",320,240 M,0,51900,87645,170,33 S,0,51900,87645,0.8 F,0,72326,73602,1,0 F,0,73602,74879,0,1 F,0,74879,76156,1,0 F,0,76156,77432,0,1 F,0,77432,78709,1,0 F,0,78709,79985,0,1 F,0,79985,81262,1,0 F,0,81262,82539,0,1 F,0,82539,83815,1,0 F,0,83815,85092,0,1 F,0,85092,86368,1,0 F,0,86368,87326,0,1 F,0,87326,87645,1,0 M,0,87645,123390,170,33,320,82
Sprite,Foreground,Centre,"sb\star.png",320,240 M,0,51900,87645,530,65 S,0,51900,87645,0.6 F,0,72326,73602,1,0 F,0,73602,74879,0,1 F,0,74879,76156,1,0 F,0,76156,77432,0,1 F,0,77432,78709,1,0 F,0,78709,79985,0,1 F,0,79985,81262,1,0 F,0,81262,82539,0,1 F,0,82539,83815,1,0 F,0,83815,85092,0,1 F,0,85092,86368,1,0 F,0,86368,87326,0,1 F,0,87326,87645,1,0 M,0,87645,123390,530,65,320,82
Sprite,Foreground,Centre,"sb\white.png",320,240 F,0,128496,129134,1,0 S,0,128496,129134,0.8
Sprite,Foreground,Centre,"sb\white.png",320,240 F,0,148922,149560,1,0 S,0,148922,149560,0.8
Sprite,Foreground,Centre,"sb\star.png",320,240 M,0,128496,164241,170,33 S,0,128496,164241,0.8 F,0,148922,150198,1,0 F,0,150198,151475,0,1 F,0,151475,152751,1,0 F,0,152751,154028,0,1 F,0,154028,155305,1,0 F,0,155305,156581,0,1 F,0,156581,157858,1,0 F,0,157858,159134,0,1 F,0,159134,160411,1,0 F,0,160411,161688,0,1 F,0,161688,162964,1,0 F,0,162964,163922,0,1 F,0,163922,164241,1,0 M,0,164241,199986,170,33,320,82
Sprite,Foreground,Centre,"sb\star.png",320,240 M,0,128496,164241,530,65 S,0,128496,164241,0.6 F,0,148922,150198,1,0 F,0,150198,151475,0,1 F,0,151475,152751,1,0 F,0,152751,154028,0,1 F,0,154028,155305,1,0 F,0,155305,156581,0,1 F,0,156581,157858,1,0 F,0,157858,159134,0,1 F,0,159134,160411,1,0 F,0,160411,161688,0,1 F,0,161688,162964,1,0 F,0,162964,163922,0,1 F,0,163922,164241,1,0 M,0,164241,199986,530,65,320,82
Sprite,Foreground,Centre,"sb\1.png",320,240 F,0,148922,149560,0,1 M,0,148922,164241,85,402,315,402 S,0,148922,164241,0.8 F,0,163922,164241,1,0
Sprite,Foreground,Centre,"sb\white.png",320,240 F,0,202539,203177,1,0 S,0,202539,203177,0.8
Sprite,Foreground,Centre,"sb\star.png",320,240 F,0,202539,203815,1,0 M,0,202539,217858,170,33 S,0,202539,217858,0.8 F,0,203815,205092,0,1 F,0,205092,206368,1,0 F,0,206368,207645,0,1 F,0,207645,208922,1,0 F,0,208922,210198,0,1 F,0,210198,211475,1,0 F,0,211475,212751,0,1 F,0,212751,214028,1,0 F,0,214028,215305,0,1 F,0,215305,216581,1,0 F,0,216581,217539,0,1 F,0,217539,217858,1,0 M,0,217858,233177,170,33,320,82
Sprite,Foreground,Centre,"sb\star.png",320,240 F,0,202539,203815,1,0 M,0,202539,217858,530,65 S,0,202539,217858,0.6 F,0,203815,205092,0,1 F,0,205092,206368,1,0 F,0,206368,207645,0,1 F,0,207645,208922,1,0 F,0,208922,210198,0,1 F,0,210198,211475,1,0 F,0,211475,212751,0,1 F,0,212751,214028,1,0 F,0,214028,215305,0,1 F,0,215305,216581,1,0 F,0,216581,217539,0,1 F,0,217539,217858,1,0 M,0,217858,233177,530,65,320,82
Sprite,Foreground,Centre,"sb\1.png",320,240 F,0,202539,203177,0,1 M,0,202539,217858,85,402,315,402 S,0,202539,217858,0.8 F,0,217539,217858,1,0
//Storyboard Sound Samples

[TimingPoints]
836,638.297872340426,4,2,1,75,1,0
51899,-100,4,2,1,75,0,1
67218,-100,4,2,1,75,0,0
72325,-100,4,2,1,75,0,1
87644,-100,4,2,1,75,0,0
128495,-100,4,2,1,75,0,1
143814,-100,4,2,1,75,0,0
148921,-100,4,2,1,75,0,1
164240,-100,4,2,1,75,0,0
202538,-100,4,2,1,75,0,1
212750,-100,4,2,1,50,0,1
212910,-100,4,2,1,75,0,1
217857,-100,4,2,1,75,0,0
222325,-100,4,2,1,50,0,0
222484,-100,4,2,1,75,0,0
222963,-100,4,2,1,50,0,0
223123,-100,4,2,1,75,0,0
229985,-100,4,2,1,50,0,0
231262,-100,4,2,1,25,0,0

[Colours]
Combo1 : 148,158,207
Combo2 : 192,208,211
Combo3 : 242,160,140

[HitObjects]
64,64,516,5,0,0:0:0:0:
104,80,676,1,0,0:0:0:0:
136,112,836,2,0,P|152:184|112:296,1,180,0|8,0:0|0:0,0:0:0:0:
56,344,1793,1,0,0:0:0:0:
144,360,2112,2,0,P|184:376|240:368,2,90,0|0|8,0:0|0:0|0:0,0:0:0:0:
56,344,3070,6,0,L|72:256,1,90
88,168,3708,2,0,L|96:120,2,45,0|0|8,0:0|0:0|0:0,0:0:0:0:
131,180,4187,1,0,0:0:0:0:
176,192,4346,2,0,P|256:240|256:336,1,180
192,368,5304,6,0,P|176:320|184:272,1,90,8|0,0:0|0:0,0:0:0:0:
216,256,5782,1,0,0:0:0:0:
256,232,5942,2,0,L|272:136,1,90
360,64,6580,2,0,L|344:160,1,90,8|0,0:0|0:0,0:0:0:0:
400,256,7218,2,0,L|416:160,1,90
504,88,7857,2,0,L|488:184,2,90,8|0|0,0:0|0:0|0:0,0:0:0:0:
432,40,8814,2,0,B|400:40|400:40|376:48|376:48|336:48,1,90,0|8,0:0|0:0,0:0:0:0:
252,56,9453,1,0,0:0:0:0:
208,64,9612,6,0,L|184:48,2,22.5
216,108,9931,1,0,0:0:0:0:
208,152,10091,2,0,P|184:200|136:216,2,90,0|8|0,0:0|0:0|0:0,0:0:0:0:
208,64,11048,6,0,P|168:88|120:88,1,90
40,64,11687,1,8,0:0:0:0:
72,152,12006,2,0,B|152:196|152:196|160:256|220:280,1,180
240,192,12963,5,8,0:0:0:0:
320,144,13282,1,0,0:0:0:0:
392,192,13601,1,0,0:0:0:0:
384,280,13921,1,0,0:0:0:0:
304,320,14240,1,8,0:0:0:0:
232,264,14559,6,0,P|136:224|80:280,1,180
32,344,15516,1,8,0:0:0:0:
112,376,15836,6,0,P|144:352|160:296,1,90
308,227,16474,2,0,P|320:185|310:141,1,90,0|8,0:0|0:0,0:0:0:0:
201,141,17112,2,0,P|191:185|204:228,1,90
350,304,17750,2,0,P|364:347|399:375,1,90,0|8,0:0|0:0,0:0:0:0:
303,231,18389,2,0,B|267:199|255:155|255:155|243:199|207:227,1,180
161,304,19346,2,0,P|147:347|113:375,1,90,8|0,0:0|0:0,0:0:0:0:
40,320,19984,6,0,L|-4:220,1,90
24,92,20623,2,0,L|60:180,1,90,8|0,0:0|0:0,0:0:0:0:
148,192,21261,1,0,0:0:0:0:
236,212,21580,2,0,P|264:252|264:308,2,90,0|8|0,0:0|0:0|0:0,0:0:0:0:
256,32,22857,6,0,L|224:48,2,22.5
300,24,23176,1,8,0:0:0:0:
388,32,23495,1,0,0:0:0:0:
444,104,23814,1,0,0:0:0:0:
440,192,24133,1,0,0:0:0:0:
384,264,24453,2,0,P|344:292|300:296,1,90,8|0,0:0|0:0,0:0:0:0:
128,268,25410,6,0,P|163:294|207:300,1,90,0|8,0:0|0:0,0:0:0:0:
256,224,26048,1,0,0:0:0:0:
256,136,26367,2,0,B|240:92|240:92|216:52,1,90
144,104,27006,2,0,P|108:136|48:124,1,90,8|0,0:0|0:0,0:0:0:0:
36,52,27644,2,0,P|72:20|132:32,1,90
144,104,28282,1,8,0:0:0:0:
187,182,28601,6,0,P|256:232|324:176,1,180
368,104,29559,1,8,0:0:0:0:
412,184,29878,2,0,B|412:232|412:232|428:280,2,90
357,347,30836,6,0,B|357:299|357:299|344:260,1,90,8|0,0:0|0:0,0:0:0:0:
300,180,31474,2,0,P|208:156|160:232,1,180,0|8,0:0|0:0,0:0:0:0:
152,304,32431,1,0,0:0:0:0:
112,328,32591,1,0,0:0:0:0:
72,344,32750,1,0,0:0:0:0:
4,284,33070,2,0,L|8:184,1,90,0|8,0:0|0:0,0:0:0:0:
10,149,33548,1,0,0:0:0:0:
12,104,33708,5,0,0:0:0:0:
80,236,34027,2,0,L|84:136,1,90
104,60,34665,1,8,0:0:0:0:
180,104,34984,2,0,P|216:132|272:132,1,90
340,96,35623,5,0,0:0:0:0:
428,116,35942,1,8,0:0:0:0:
456,152,36101,1,0,0:0:0:0:
468,196,36261,2,0,P|476:244|452:300,1,90
384,324,36899,2,0,L|296:280,1,90,0|8,0:0|0:0,0:0:0:0:
256,208,37538,5,0,0:0:0:0:
256,176,38176,1,0,0:0:0:0:
208,100,38495,6,0,L|128:60,1,90,8|0,0:0|0:0,0:0:0:0:
80,136,39133,2,0,L|-12:84,2,90,0|0|8,0:0|0:0|0:0,0:0:0:0:
152,192,40091,1,0,0:0:0:0:
256,340,40729,5,0,0:0:0:0:
312,268,41048,1,8,0:0:0:0:
360,192,41367,1,0,0:0:0:0:
412,116,41687,2,0,L|464:40,2,90,0|0|8,0:0|0:0|0:0,0:0:0:0:
440,148,42484,1,0,0:0:0:0:
452,192,42644,2,0,B|444:268|376:288|376:288|356:340,1,180
280,376,43601,1,8,0:0:0:0:
256,288,43921,5,0,0:0:0:0:
176,248,44240,2,0,P|120:244|68:280,1,90
100,348,44878,2,0,P|156:352|208:316,1,90,8|0,0:0|0:0,0:0:0:0:
176,248,45516,2,0,L|156:152,2,90,0|0|8,0:0|0:0|0:0,0:0:0:0:
256,292,46474,1,0,0:0:0:0:
328,240,46793,2,0,P|392:212|483:288,1,180,0|8,0:0|0:0,0:0:0:0:
394,303,47750,1,0,0:0:0:0:
256,184,48389,6,0,L|256:88,1,90,0|8,0:0|0:0,0:0:0:0:
216,12,49027,2,0,P|200:36|180:44,2,45
296,12,49665,2,0,P|312:36|332:44,2,45,8|0|8,0:0|0:0|0:0,0:0:0:0:
256,188,50623,5,2,0:0:0:0:
256,205,51261,1,8,0:0:0:0:
256,222,51899,6,0,P|224:296|132:300,1,180,4|8,0:0|0:0,0:0:0:0:
72,236,52857,2,0,L|32:140,1,90,2|0,0:0|0:0,0:0:0:0:
80,40,53495,2,0,L|120:124,1,90,2|8,0:0|0:0,0:0:0:0:
204,144,54133,5,0,0:0:0:0:
292,124,54453,1,0,0:0:0:0:
344,52,54772,1,0,0:0:0:0:
432,32,55091,2,0,P|464:64|484:132,1,90,8|2,0:0|0:0,0:0:0:0:
484,196,55729,1,0,0:0:0:0:
452,280,56048,1,2,0:0:0:0:
372,320,56367,2,0,P|324:332|272:332,2,90,8|8|0,0:0|0:0|0:0,0:0:0:0:
352,140,57644,6,0,L|284:64,1,90,8|2,0:0|0:0,0:0:0:0:
208,40,58282,1,0,0:0:0:0:
120,40,58601,1,2,0:0:0:0:
68,112,58921,1,8,0:0:0:0:
80,200,59240,6,0,L|88:304,1,90
148,356,59878,1,0,0:0:0:0:
220,300,60197,2,0,P|256:284|324:296,1,90,8|2,0:0|0:0,0:0:0:0:
384,328,60836,1,0,0:0:0:0:
472,304,61155,1,2,0:0:0:0:
500,220,61474,1,8,0:0:0:0:
476,132,61793,1,8,0:0:0:0:
416,64,62112,6,0,B|356:32|320:100|228:48,1,180,0|8,0:0|0:0,0:0:0:0:
156,24,63070,1,2,0:0:0:0:
80,72,63389,1,0,0:0:0:0:
72,160,63708,2,0,P|65:209|85:255,1,90,2|8,0:0|0:0,0:0:0:0:
180,192,64346,1,0,0:0:0:0:
180,192,64665,5,0,0:0:0:0:
256,240,64984,2,0,P|264:288|256:340,1,90,0|8,0:0|0:0,0:0:0:0:
256,144,65623,2,0,P|264:96|256:44,1,90,2|0,0:0|0:0,0:0:0:0:
316,192,66261,2,0,L|424:192,2,90,2|8|8,0:0|0:0|0:0,0:0:0:0:
196,192,67218,5,0,0:0:0:0:
108,204,67538,1,0,0:0:0:0:
72,288,67857,1,8,0:0:0:0:
120,364,68176,2,0,P|204:376|256:304,1,180
280,220,69133,5,8,0:0:0:0:
364,192,69453,1,0,0:0:0:0:
444,232,69772,2,0,L|468:320,1,90,2|0,0:0|0:0,0:0:0:0:
328,188,70410,2,0,P|332:144|348:92,1,90,8|0,0:0|0:0,0:0:0:0:
184,188,71048,6,0,P|180:144|164:92,1,90,2|0,0:0|0:0,0:0:0:0:
68,232,71686,2,0,L|44:318,1,90,8|0,0:0|0:0,0:0:0:0:
128,288,72325,6,0,L|100:384,2,90,4|0|8,0:0|0:0|0:0,0:0:0:0:
168,208,73282,2,0,P|256:176|300:272,1,180,2|2,0:0|0:0,0:0:0:0:
332,320,74240,2,0,L|408:380,1,90,8|0,0:0|0:0,0:0:0:0:
488,348,74878,5,0,0:0:0:0:
496,260,75197,1,0,0:0:0:0:
480,172,75516,1,8,0:0:0:0:
424,100,75836,1,2,0:0:0:0:
340,72,76155,1,0,0:0:0:0:
252,88,76474,1,2,0:0:0:0:
180,140,76793,1,8,0:0:0:0:
132,216,77112,1,8,0:0:0:0:
144,304,77431,6,0,P|208:352|280:296,1,180,0|8,0:0|0:0,0:0:0:0:
320,220,78389,1,2,0:0:0:0:
372,148,78708,2,0,B|372:116|372:116|388:88|388:88|388:52,2,90,0|2|8,0:0|0:0|0:0,0:0:0:0:
424,220,79665,1,0,0:0:0:0:
372,292,79984,6,0,B|372:324|372:324|388:352|388:352|388:388,2,90,0|0|8,0:0|0:0|0:0,0:0:0:0:
296,244,80942,1,2,0:0:0:0:
208,236,81261,1,0,0:0:0:0:
148,304,81580,1,2,0:0:0:0:
108,328,81740,1,0,0:0:0:0:
64,328,81899,2,0,P|24:296|8:248,1,90,8|8,0:0|0:0,0:0:0:0:
4,172,82538,6,0,P|40:88|140:72,1,180,0|8,0:0|0:0,0:0:0:0:
192,120,83495,1,2,0:0:0:0:
252,188,83814,2,0,L|280:280,2,90,0|2|8,0:0|0:0|0:0,0:0:0:0:
264,100,84772,1,0,0:0:0:0:
328,36,85091,5,0,0:0:0:0:
416,32,85410,2,0,P|436:32|460:44,2,45,0|0|8,0:0|0:0|0:0,0:0:0:0:
500,112,86048,1,2,0:0:0:0:
480,200,86367,1,0,0:0:0:0:
408,256,86687,2,0,P|380:260|352:256,2,45,2|0|8,0:0|0:0|0:0,0:0:0:0:
284,224,87325,1,8,0:0:0:0:
256,140,87644,1,2,0:0:0:0:
352,84,97857,6,0,L|408:0,2,90,0|0|8,0:0|0:0|0:0,0:0:0:0:
340,172,98814,1,0,0:0:0:0:
324,260,99133,2,0,P|288:300|236:312,2,90,0|0|8,0:0|0:0|0:0,0:0:0:0:
340,172,100091,1,0,0:0:0:0:
392,100,100410,1,0,0:0:0:0:
480,100,100729,1,0,0:0:0:0:
508,184,101048,2,0,L|536:272,2,90,8|0|0,0:0|0:0|0:0,0:0:0:0:
444,248,102006,2,0,L|460:292,2,45,0|0|8,0:0|0:0|0:0,0:0:0:0:
392,176,102644,5,0,0:0:0:0:
308,144,102963,1,0,0:0:0:0:
224,176,103282,1,0,0:0:0:0:
184,256,103601,2,0,L|136:344,1,90,8|0,0:0|0:0,0:0:0:0:
24,360,104240,2,0,L|68:276,1,90
84,192,104878,1,8,0:0:0:0:
28,124,105197,1,0,0:0:0:0:
28,124,105836,2,0,P|16:76|-12:32,2,90,0|8|0,0:0|0:0|0:0,0:0:0:0:
40,212,106793,1,0,0:0:0:0:
108,272,107112,1,0,0:0:0:0:
196,284,107431,5,8,0:0:0:0:
280,256,107750,2,0,P|344:200|320:112,1,180
256,56,108708,1,8,0:0:0:0:
168,40,109027,2,0,L|120:28,2,45
196,124,109665,1,0,0:0:0:0:
180,212,109984,1,8,0:0:0:0:
152,296,110304,6,0,P|176:336|224:344,2,90
359,296,111261,2,0,P|338:334|296:345,1,90,8|0,0:0|0:0,0:0:0:0:
256,172,112218,1,0,0:0:0:0:
292,88,112538,1,8,0:0:0:0:
376,56,112857,2,0,L|468:24,1,90
472,116,113495,2,0,L|372:152,1,90,0|8,0:0|0:0,0:0:0:0:
380,192,113974,1,0,0:0:0:0:
372,236,114133,2,0,P|328:268|276:280,1,90
256,196,114772,6,0,L|256:96,2,90,0|8|0,0:0|0:0|0:0,0:0:0:0:
217,278,115729,2,0,P|175:263|140:236,1,90
108,152,116367,2,0,L|84:56,1,90,8|0,0:0|0:0,0:0:0:0:
256,44,117006,2,0,L|256:152,2,90,0|0|8,0:0|0:0|0:0,0:0:0:0:
404,152,117963,2,0,L|425:64,1,90
496,8,118601,1,0,0:0:0:0:
492,100,118921,2,0,B|472:172|472:172|464:200|436:232|384:220,1,180,8|0,0:0|0:0,0:0:0:0:
304,196,119878,1,0,0:0:0:0:
256,272,120197,1,8,0:0:0:0:
208,196,120516,5,0,0:0:0:0:
160,120,120836,2,0,L|104:32,1,90
32,88,121474,2,0,L|88:176,1,90,8|0,0:0|0:0,0:0:0:0:
112,248,122112,1,0,0:0:0:0:
84,332,122431,1,0,0:0:0:0:
172,336,122750,5,8,0:0:0:0:
256,368,123070,1,0,0:0:0:0:
328,316,123389,2,0,P|352:284|396:248,2,90,0|0|8,0:0|0:0|0:0,0:0:0:0:
264,256,124346,1,0,0:0:0:0:
200,192,124665,1,0,0:0:0:0:
264,128,124984,1,0,0:0:0:0:
328,68,125304,6,0,P|352:100|396:136,2,90,8|0|0,0:0|0:0|0:0,0:0:0:0:
448,192,126261,1,0,0:0:0:0:
448,192,126580,1,8,0:0:0:0:
268,192,127218,5,2,0:0:0:0:
256,208,127857,1,8,0:0:0:0:
244,192,128495,6,0,P|200:108|120:80,1,180,4|8,0:0|0:0,0:0:0:0:
60,144,129453,1,2,0:0:0:0:
60,144,130091,1,2,0:0:0:0:
44,232,130410,2,0,L|28:336,2,90,8|0|0,0:0|0:0|0:0,0:0:0:0:
60,144,131367,1,0,0:0:0:0:
136,92,131687,5,8,0:0:0:0:
224,116,132006,1,2,0:0:0:0:
252,200,132325,1,0,0:0:0:0:
308,272,132644,1,2,0:0:0:0:
396,276,132963,1,8,0:0:0:0:
464,216,133282,1,0,0:0:0:0:
484,128,133601,6,0,L|464:28,2,90,0|0|8,0:0|0:0|0:0,0:0:0:0:
400,164,134559,2,0,L|380:68,1,90,2|0,0:0|0:0,0:0:0:0:
316,200,135197,2,0,L|296:104,1,90,2|8,0:0|0:0,0:0:0:0:
256,32,135836,1,0,0:0:0:0:
212,112,136155,6,0,B|185:128|168:144|168:144|124:144,1,90
24,248,136793,2,0,B|48:235|68:216|68:216|103:216,1,90,8|2,0:0|0:0,0:0:0:0:
176,272,137431,1,0,0:0:0:0:
256,308,137750,1,2,0:0:0:0:
332,260,138070,1,8,0:0:0:0:
352,172,138389,1,0,0:0:0:0:
308,92,138708,6,0,P|244:68|152:132,1,180,0|8,0:0|0:0,0:0:0:0:
120,208,139665,1,2,0:0:0:0:
136,296,139984,2,0,L|220:352,1,90,0|2,0:0|0:0,0:0:0:0:
224,256,140623,2,0,L|176:224,2,45,8|0|0,0:0|0:0|0:0,0:0:0:0:
312,276,141261,5,0,0:0:0:0:
384,224,141580,1,0,0:0:0:0:
400,136,141899,2,0,L|424:40,1,90,8|2,0:0|0:0,0:0:0:0:
256,20,142538,2,0,L|256:124,1,90,0|2,0:0|0:0,0:0:0:0:
112,136,143176,2,0,L|88:40,1,90,8|0,0:0|0:0,0:0:0:0:
256,192,143814,1,0,0:0:0:0:
256,192,143974,12,8,145729,0:0:0:0:
72,136,146367,5,0,0:0:0:0:
144,80,146687,2,0,L|136:28,2,45,0|0|8,0:0|0:0|0:0,0:0:0:0:
228,112,147325,1,0,0:0:0:0:
256,196,147644,5,0,0:0:0:0:
312,268,147963,2,0,L|320:316,2,45,0|0|8,0:0|0:0|0:0,0:0:0:0:
400,260,148601,1,0,0:0:0:0:
460,192,148921,6,0,L|472:96,1,90,4|0,0:0|0:0,0:0:0:0:
484,12,149559,1,8,0:0:0:0:
384,196,149878,2,0,L|408:4,1,180,2|2,0:0|0:0,0:0:0:0:
324,52,150836,1,8,0:0:0:0:
312,140,151155,1,0,0:0:0:0:
384,196,151474,6,0,L|432:292,1,90
332,364,152112,2,0,L|320:272,1,90,8|2,0:0|0:0,0:0:0:0:
191,274,152750,2,0,L|180:364,1,90,0|2,0:0|0:0,0:0:0:0:
87,276,153388,2,0,L|128:196,1,90,8|8,0:0|0:0,0:0:0:0:
36,192,154027,6,0,L|92:96,2,90,0|0|8,0:0|0:0|0:0,0:0:0:0:
8,276,154984,2,0,P|40:336|148:328,1,180,2|2,0:0|0:0,0:0:0:0:
208,272,155942,1,8,0:0:0:0:
212,184,156261,2,0,L|172:80,1,90
268,104,156899,6,0,L|248:56,2,45,0|0|8,0:0|0:0|0:0,0:0:0:0:
340,156,157538,1,2,0:0:0:0:
428,168,157857,1,0,0:0:0:0:
504,212,158176,2,0,L|524:252,2,45,2|0|8,0:0|0:0|0:0,0:0:0:0:
428,168,158814,1,8,0:0:0:0:
340,180,159133,6,0,P|256:194|232:280,1,180,2|8,0:0|0:0,0:0:0:0:
290,346,160090,2,0,P|374:333|400:252,1,180,2|2,0:0|0:0,0:0:0:0:
308,252,161048,1,8,0:0:0:0:
248,184,161367,5,0,0:0:0:0:
236,140,161527,1,0,0:0:0:0:
248,96,161687,2,0,L|248:0,2,90,0|0|8,0:0|0:0|0:0,0:0:0:0:
248,184,162644,1,2,0:0:0:0:
160,284,163123,6,0,L|156:312,2,22.5,0|0|2,0:0|0:0|0:0,0:0:0:0:
124,256,163442,1,0,3:0:0:0:
132,212,163601,1,8,0:0:0:0:
108,172,163761,1,0,0:0:0:0:
104,128,163921,2,0,L|92:24,1,90,8|4,0:0|0:0,0:0:0:0:
68,112,173814,5,0,0:0:0:0:
100,80,173974,1,0,0:0:0:0:
140,64,174133,1,0,3:0:0:0:
184,80,174293,1,0,3:0:0:0:
216,112,174453,1,2,0:0:0:0:
256,192,174772,1,0,0:0:0:0:
296,272,175091,5,8,0:0:0:0:
328,304,175249,1,0,0:0:0:0:
372,320,175409,1,0,0:0:0:0:
412,304,175570,1,0,0:0:0:0:
444,272,175728,1,2,0:0:0:0:
368,224,176048,1,0,0:0:0:0:
320,148,176367,6,0,L|328:100,4,45,8|0|0|0|2,0:0|0:0|0:0|0:0|0:0,0:0:0:0:
144,224,177325,1,0,0:0:0:0:
192,148,177644,6,0,L|184:100,4,45,8|0|0|0|2,0:0|0:0|0:0|0:0|0:0,0:0:0:0:
256,212,178601,1,0,0:0:0:0:
220,296,178921,6,0,P|224:320|240:340,1,45,8|0,0:0|0:0,0:0:0:0:
276,336,179239,2,0,P|288:318|292:296,1,45
256,212,179559,5,2,0:0:0:0:
184,160,179878,1,0,0:0:0:0:
212,76,180197,1,0,0:0:0:0:
301,76,180516,1,0,0:0:0:0:
328,160,180836,5,2,0:0:0:0:
284,164,180995,1,0,0:0:0:0:
256,200,181155,1,0,0:0:0:0:
260,244,181314,1,0,0:0:0:0:
292,276,181474,1,2,0:0:0:0:
300,320,181633,1,0,0:0:0:0:
272,352,181793,1,0,0:0:0:0:
228,360,181953,1,0,0:0:0:0:
200,324,182112,5,6,0:0:0:0:
160,244,182431,2,0,L|108:144,1,90,0|8,0:0|0:0,0:0:0:0:
76,84,183070,1,0,0:0:0:0:
76,84,183708,5,0,0:0:0:0:
164,92,184027,2,0,P|216:100|264:76,1,90,8|0,0:0|0:0,0:0:0:0:
320,28,184665,5,0,0:0:0:0:
408,44,184984,1,0,0:0:0:0:
428,132,185304,2,0,L|412:240,1,90,8|0,0:0|0:0,0:0:0:0:
256,264,185942,2,0,L|256:160,1,90
84,132,186580,2,0,L|100:240,2,90,8|0|0,0:0|0:0|0:0,0:0:0:0:
12,188,187538,5,0,0:0:0:0:
20,276,187857,1,8,0:0:0:0:
104,308,188176,1,0,0:0:0:0:
408,308,188814,1,0,0:0:0:0:
492,276,189133,1,8,0:0:0:0:
500,188,189453,1,0,0:0:0:0:
440,124,189772,6,0,L|408:40,1,90
312,144,190410,2,0,L|320:236,1,90,8|0,0:0|0:0,0:0:0:0:
192,233,191048,2,0,L|200:144,1,90
104,40,191686,2,0,L|72:124,1,90,8|0,0:0|0:0,0:0:0:0:
48,212,192325,6,0,P|52:292|148:320,1,180,0|8,0:0|0:0,0:0:0:0:
224,312,193282,2,0,P|256:284|280:208,2,90
184,232,194240,1,8,0:0:0:0:
104,188,194559,1,0,0:0:0:0:
16,192,194878,6,0,L|0:100,1,90
156,108,195516,2,0,L|152:8,1,90,8|0,0:0|0:0,0:0:0:0:
356,108,196155,2,0,L|359:18,1,90
496,192,196793,2,0,L|511:103,1,90,8|0,0:0|0:0,0:0:0:0:
256,192,197431,1,0,0:0:0:0:
256,192,197591,12,8,199346,0:0:0:0:
184,120,199984,5,2,0:0:0:0:
256,64,200304,1,0,0:0:0:0:
328,120,200623,1,8,0:0:0:0:
300,208,200942,1,0,0:0:0:0:
212,208,201261,6,0,L|176:296,1,90,2|0,0:0|0:0,0:0:0:0:
140,372,201899,1,8,0:0:0:0:
140,372,202218,1,0,0:0:0:0:
104,288,202538,6,0,P|72:224|-24:248,1,180,4|8,0:0|0:0,0:0:0:0:
16,328,203495,1,2,0:0:0:0:
16,328,204133,1,2,0:0:0:0:
52,244,204453,2,0,L|84:144,1,90,8|0,0:0|0:0,0:0:0:0:
112,76,205091,5,0,0:0:0:0:
200,60,205410,1,0,0:0:0:0:
256,128,205729,1,8,0:0:0:0:
284,212,206048,1,2,0:0:0:0:
364,252,206367,1,0,0:0:0:0:
452,232,206687,2,0,L|516:140,2,90,2|8|8,0:0|0:0|0:0,0:0:0:0:
436,320,207644,6,0,P|364:360|284:312,1,180,0|8,0:0|0:0,0:0:0:0:
256,232,208601,2,0,P|184:180|88:228,1,180,2|2,0:0|0:0,0:0:0:0:
44,276,209559,1,8,0:0:0:0:
16,192,209878,2,0,L|0:104,1,90
76,24,210516,6,0,L|92:116,1,90,0|8,0:0|0:0,0:0:0:0:
140,188,211155,1,2,0:0:0:0:
224,220,211474,1,0,0:0:0:0:
284,288,211793,2,0,P|296:340|280:376,2,90,2|8|8,0:0|0:0|0:0,0:0:0:0:
224,220,212750,6,0,P|144:176|68:224,1,180,4|8,0:0|0:0,0:0:0:0:
73,305,213708,2,0,P|147:349|223:309,1,180,2|2,0:0|0:0,0:0:0:0:
308,276,214665,2,0,L|368:176,1,90,8|0,0:0|0:0,0:0:0:0:
400,120,215304,5,0,0:0:0:0:
264,200,215623,2,0,L|316:116,2,90,0|12|2,0:0|0:0|0:0,0:0:0:0:
240,236,216421,1,0,0:0:0:0:
196,240,216580,2,0,P|144:236|108:200,1,90,4|2,0:0|0:0,0:0:0:0:
104,172,217059,1,0,0:0:0:0:
100,128,217218,2,0,P|80:72|44:60,1,90,8|8,0:0|0:0,0:0:0:0:
12,72,217697,6,0,L|8:120,1,45,0|4,0:0|0:0,0:0:0:0:
8,208,218176,1,0,0:0:0:0:
12,252,218336,1,0,0:0:0:0:
36,288,218495,2,0,P|72:324|128:320,1,90,8|0,0:0|0:0,0:0:0:0:
200,320,219133,2,0,L|284:376,2,90,0|0|8,0:0|0:0|0:0,0:0:0:0:
180,232,220091,5,0,0:0:0:0:
184,188,220250,1,0,0:0:0:0:
204,148,220410,2,0,P|232:120|284:104,1,90
360,144,221048,1,8,0:0:0:0:
428,204,221367,2,0,L|476:312,2,90
360,260,222325,2,0,L|400:348,1,90,12|8,0:0|0:0,0:0:0:0:
308,360,222963,6,0,P|252:372|172:336,1,135,4|0,0:0|0:0,0:0:0:0:
156,308,223601,2,0,P|128:256|100:244,1,90,8|0,0:0|0:0,0:0:0:0:
68,328,224240,2,0,L|216:200,2,180,0|8|4,0:0|0:0|0:0,0:0:0:0:
496,192,227112,5,2,0:0:0:0:
256,192,229027,12,0,233176,0:0:0:0:
