osu file format v14

[General]
AudioFilename: Nicky Tirta feat. Vanessa Angel - Indah Cintaku.mp3
AudioLeadIn: 2000
PreviewTime: 50623
Countdown: 0
SampleSet: Normal
StackLeniency: 0.7
Mode: 1
LetterboxInBreaks: 0
WidescreenStoryboard: 0

[Editor]
Bookmarks: 182055
DistanceSpacing: 1
BeatDivisor: 4
GridSize: 8
TimelineZoom: 1

[Metadata]
Title:Indah Cintaku
TitleUnicode:Indah Cintaku
Artist:Nicky Tirta - Vanessa Angel
ArtistUnicode:Nicky Tirta - Vanessa Angel
Creator:HeatKai
Version:Oni
Source:
Tags:bahasa indonesia Jerry indo Nagaswara Alam Urbach Neppu
BeatmapID:333404
BeatmapSetID:132615

[Difficulty]
HPDrainRate:5
CircleSize:2
OverallDifficulty:6
ApproachRate:5
SliderMultiplier:1.4
SliderTickRate:1

[Events]
//Background and Video events
0,0,"bggggg.jpg",0,50
//Break Periods
//Storyboard Layer 0 (Background)
//Storyboard Layer 1 (Fail)
//Storyboard Layer 2 (Pass)
//Storyboard Layer 3 (Foreground)
//Storyboard Sound Samples

[TimingPoints]
836,638.297872340426,4,1,0,60,1,0
51899,-100,4,1,0,60,0,1
67218,-100,4,1,0,60,0,0
72325,-100,4,1,0,60,0,1
87644,-100,4,1,0,60,0,0
128495,-100,4,1,0,60,0,1
143814,-100,4,1,0,60,0,0
148921,-100,4,1,0,60,0,1
164240,-100,4,1,0,60,0,0
202538,-100,4,1,0,60,0,1
217857,-100,4,1,0,60,0,0

[HitObjects]
256,192,37,5,8,0:0:0:0:
256,192,117,1,8,0:0:0:0:
256,192,197,1,8,0:0:0:0:
256,192,357,1,0,0:0:0:0:
256,192,516,1,0,0:0:0:0:
256,192,676,1,0,0:0:0:0:
256,192,836,1,8,0:0:0:0:
256,192,1155,1,0,0:0:0:0:
256,192,1474,1,8,0:0:0:0:
256,192,1793,1,8,0:0:0:0:
256,192,2112,1,0,0:0:0:0:
256,192,2431,1,0,0:0:0:0:
256,192,2750,1,8,0:0:0:0:
256,192,3070,1,0,0:0:0:0:
256,192,3389,1,0,0:0:0:0:
256,192,3708,1,0,0:0:0:0:
256,192,3867,1,0,0:0:0:0:
256,192,4027,1,8,0:0:0:0:
256,192,4187,1,8,0:0:0:0:
256,192,4346,1,0,0:0:0:0:
256,192,4665,1,0,0:0:0:0:
256,192,4984,1,0,0:0:0:0:
256,192,5304,1,8,0:0:0:0:
256,192,5623,1,0,0:0:0:0:
256,192,5782,1,0,0:0:0:0:
256,192,5942,1,0,0:0:0:0:
256,192,6261,1,0,0:0:0:0:
256,192,6580,1,8,0:0:0:0:
256,192,6899,1,8,0:0:0:0:
256,192,7218,1,0,0:0:0:0:
256,192,7538,1,8,0:0:0:0:
256,192,7857,1,8,0:0:0:0:
256,192,8176,1,8,0:0:0:0:
256,192,8495,1,0,0:0:0:0:
184,184,8814,1,8,0:0:0:0:
256,192,9133,1,8,0:0:0:0:
152,176,9612,1,8,0:0:0:0:
152,248,9692,1,8,0:0:0:0:
176,240,9772,1,8,0:0:0:0:
184,208,9931,1,0,0:0:0:0:
192,176,10091,1,0,0:0:0:0:
192,176,10410,1,8,0:0:0:0:
192,176,10729,1,8,0:0:0:0:
192,176,11048,1,0,0:0:0:0:
192,176,11367,1,0,0:0:0:0:
192,176,11687,1,8,0:0:0:0:
192,176,12006,1,0,0:0:0:0:
192,176,12644,1,0,0:0:0:0:
192,176,12963,1,8,0:0:0:0:
192,176,13282,1,8,0:0:0:0:
192,176,13601,1,0,0:0:0:0:
192,176,13921,1,0,0:0:0:0:
192,176,14240,1,8,0:0:0:0:
192,176,14559,1,0,0:0:0:0:
192,176,15197,1,0,0:0:0:0:
192,176,15516,1,8,0:0:0:0:
192,176,15836,1,8,0:0:0:0:
192,176,16155,1,0,0:0:0:0:
192,176,16474,1,0,0:0:0:0:
192,176,16793,1,8,0:0:0:0:
192,176,17112,1,8,0:0:0:0:
192,176,17431,1,0,0:0:0:0:
192,176,17750,1,0,0:0:0:0:
192,176,18070,1,8,0:0:0:0:
192,176,18389,1,0,0:0:0:0:
192,176,19027,1,0,0:0:0:0:
192,176,19346,1,8,0:0:0:0:
192,176,19665,1,8,0:0:0:0:
192,176,19825,1,0,0:0:0:0:
192,176,19984,1,0,0:0:0:0:
192,176,20304,1,0,0:0:0:0:
192,176,20623,1,8,0:0:0:0:
192,176,20942,1,8,0:0:0:0:
192,176,21261,1,0,0:0:0:0:
192,176,21580,1,0,0:0:0:0:
192,176,21899,1,8,0:0:0:0:
192,176,22218,1,0,0:0:0:0:
192,176,22857,1,0,0:0:0:0:
192,176,22937,1,0,0:0:0:0:
192,176,23016,1,0,0:0:0:0:
192,176,23176,1,8,0:0:0:0:
192,176,23495,1,0,0:0:0:0:
192,176,23814,1,0,0:0:0:0:
192,176,24133,1,0,0:0:0:0:
192,176,24453,1,8,0:0:0:0:
192,176,24772,1,0,0:0:0:0:
192,176,25410,1,0,0:0:0:0:
192,176,25570,1,0,0:0:0:0:
192,176,25729,1,8,0:0:0:0:
192,176,26048,1,0,0:0:0:0:
192,176,26367,1,0,0:0:0:0:
192,176,26687,1,0,0:0:0:0:
192,176,27006,1,8,0:0:0:0:
192,176,27325,1,0,0:0:0:0:
256,152,27644,1,8,0:0:0:0:
200,160,27963,1,0,0:0:0:0:
192,176,28043,1,0,0:0:0:0:
224,168,28123,1,0,0:0:0:0:
128,200,28282,1,8,0:0:0:0:
192,176,28601,1,0,0:0:0:0:
192,176,29240,1,0,0:0:0:0:
192,176,29559,1,8,0:0:0:0:
192,176,29878,1,0,0:0:0:0:
192,176,30197,1,0,0:0:0:0:
192,176,30516,1,0,0:0:0:0:
192,176,30836,1,8,0:0:0:0:
192,176,31155,1,8,0:0:0:0:
192,176,31793,1,0,0:0:0:0:
192,176,32112,1,8,0:0:0:0:
192,176,32431,1,8,0:0:0:0:
160,176,32591,1,0,0:0:0:0:
192,176,32750,1,0,0:0:0:0:
192,176,33070,1,0,0:0:0:0:
192,176,33389,1,8,0:0:0:0:
192,176,33708,1,0,0:0:0:0:
192,176,33867,1,8,0:0:0:0:
192,176,34027,1,0,0:0:0:0:
192,176,34346,1,0,0:0:0:0:
192,176,34665,1,8,0:0:0:0:
176,104,34984,1,8,0:0:0:0:
192,176,35304,1,0,0:0:0:0:
192,176,35623,1,0,0:0:0:0:
192,176,35942,1,8,0:0:0:0:
160,184,36101,1,0,0:0:0:0:
192,192,36261,1,0,0:0:0:0:
192,192,36580,1,0,0:0:0:0:
192,192,36899,1,0,0:0:0:0:
192,192,37218,1,8,0:0:0:0:
160,176,37378,1,0,0:0:0:0:
184,120,37538,1,8,0:0:0:0:
184,120,38176,1,0,0:0:0:0:
176,56,38495,1,8,0:0:0:0:
184,128,38814,1,0,0:0:0:0:
192,200,39133,1,0,0:0:0:0:
184,128,39453,1,0,0:0:0:0:
192,200,39772,1,8,0:0:0:0:
160,184,39931,1,0,0:0:0:0:
184,112,40091,1,8,0:0:0:0:
280,160,40410,1,0,0:0:0:0:
216,144,40729,1,0,0:0:0:0:
152,128,41048,1,8,0:0:0:0:
152,128,41367,1,8,0:0:0:0:
80,120,41687,1,0,0:0:0:0:
152,128,42006,1,0,0:0:0:0:
80,120,42325,1,8,0:0:0:0:
104,144,42484,1,0,0:0:0:0:
112,120,42644,1,8,0:0:0:0:
136,256,43282,1,0,0:0:0:0:
144,328,43601,1,8,0:0:0:0:
120,192,43921,1,0,0:0:0:0:
120,192,44240,1,0,0:0:0:0:
120,192,44559,1,0,0:0:0:0:
88,176,44718,1,0,0:0:0:0:
120,192,44878,1,8,0:0:0:0:
120,192,45197,1,8,0:0:0:0:
160,136,45516,1,0,0:0:0:0:
136,120,45836,1,0,0:0:0:0:
160,136,45995,1,0,0:0:0:0:
160,136,46155,1,8,0:0:0:0:
160,136,46474,1,0,0:0:0:0:
160,136,46793,1,0,0:0:0:0:
160,136,47112,1,0,0:0:0:0:
160,136,47431,1,8,0:0:0:0:
160,136,47591,1,0,0:0:0:0:
160,136,47750,1,8,0:0:0:0:
160,136,48389,1,0,0:0:0:0:
160,136,48708,1,8,0:0:0:0:
160,136,49027,1,8,0:0:0:0:
160,136,49187,1,0,0:0:0:0:
160,136,49346,1,0,0:0:0:0:
160,136,49665,1,8,0:0:0:0:
160,136,49984,1,8,0:0:0:0:
208,64,50304,1,0,0:0:0:0:
216,80,50463,1,0,0:0:0:0:
184,80,50623,1,8,0:0:0:0:
112,80,50942,1,0,0:0:0:0:
80,80,51101,1,0,0:0:0:0:
80,80,51261,1,8,0:0:0:0:
80,80,51580,1,8,0:0:0:0:
80,80,51899,1,4,0:0:0:0:
136,120,52218,1,0,0:0:0:0:
200,152,52538,1,8,0:0:0:0:
136,120,52857,1,0,0:0:0:0:
264,168,53495,1,0,0:0:0:0:
200,144,53814,1,8,0:0:0:0:
136,120,54133,1,0,0:0:0:0:
200,144,54453,1,0,0:0:0:0:
264,168,54772,1,8,0:0:0:0:
336,192,55091,1,8,0:0:0:0:
272,168,55410,1,0,0:0:0:0:
248,144,55570,1,8,0:0:0:0:
144,128,55729,1,0,0:0:0:0:
144,128,56048,1,8,0:0:0:0:
72,136,56367,1,8,0:0:0:0:
144,128,56687,1,8,0:0:0:0:
72,136,57005,1,0,0:0:0:0:
208,120,57644,1,8,0:0:0:0:
176,128,57804,1,0,0:0:0:0:
144,128,57963,1,0,0:0:0:0:
112,136,58123,1,0,0:0:0:0:
176,112,58442,1,0,0:0:0:0:
144,128,58601,1,0,0:0:0:0:
72,136,58921,1,8,0:0:0:0:
144,128,59240,1,0,0:0:0:0:
128,128,59559,1,0,0:0:0:0:
128,128,59878,1,8,0:0:0:0:
128,128,60038,1,0,0:0:0:0:
128,128,60197,1,8,0:0:0:0:
144,128,60516,1,0,0:0:0:0:
144,128,60836,1,0,0:0:0:0:
144,128,61155,1,8,0:0:0:0:
144,128,61474,1,8,0:0:0:0:
144,128,61793,1,8,0:0:0:0:
144,128,62112,1,0,0:0:0:0:
144,128,62431,1,0,0:0:0:0:
144,128,62590,1,0,0:0:0:0:
144,128,62750,1,8,0:0:0:0:
144,128,63070,1,0,0:0:0:0:
144,128,63708,1,0,0:0:0:0:
144,128,63867,1,0,0:0:0:0:
144,128,64027,1,8,0:0:0:0:
144,128,64346,1,0,0:0:0:0:
144,128,64665,1,0,0:0:0:0:
144,128,64984,1,0,0:0:0:0:
144,128,65304,1,8,0:0:0:0:
144,128,65623,1,8,0:0:0:0:
144,128,65942,1,0,0:0:0:0:
144,128,66261,1,0,0:0:0:0:
112,136,66421,1,0,0:0:0:0:
144,128,66580,1,8,0:0:0:0:
144,128,66899,1,8,0:0:0:0:
144,128,67218,1,0,0:0:0:0:
144,128,67538,1,0,0:0:0:0:
144,128,67857,1,8,0:0:0:0:
144,128,68176,1,0,0:0:0:0:
144,128,68814,1,0,0:0:0:0:
104,136,68974,1,0,0:0:0:0:
144,128,69133,1,8,0:0:0:0:
144,128,69453,1,0,0:0:0:0:
144,128,69772,1,8,0:0:0:0:
144,128,70091,1,0,0:0:0:0:
144,128,70250,1,0,0:0:0:0:
144,128,70410,1,8,0:0:0:0:
144,128,70729,1,0,0:0:0:0:
144,128,71048,1,8,0:0:0:0:
144,128,71367,1,0,0:0:0:0:
144,128,71526,1,0,0:0:0:0:
144,128,71687,1,8,0:0:0:0:
144,128,72006,1,8,0:0:0:0:
144,128,72325,1,4,0:0:0:0:
40,152,72644,1,0,0:0:0:0:
40,152,72963,1,8,0:0:0:0:
112,128,73282,1,0,0:0:0:0:
0,240,73921,1,0,0:0:0:0:
56,184,74240,1,8,0:0:0:0:
112,128,74559,1,8,0:0:0:0:
56,184,74878,1,0,0:0:0:0:
112,128,75197,1,0,0:0:0:0:
168,72,75516,1,8,0:0:0:0:
184,152,75836,1,8,0:0:0:0:
176,112,75995,1,0,0:0:0:0:
176,112,76155,1,8,0:0:0:0:
176,112,76474,1,0,0:0:0:0:
176,112,76793,1,8,0:0:0:0:
176,112,77112,1,8,0:0:0:0:
176,112,77431,1,0,0:0:0:0:
176,112,78070,1,8,0:0:0:0:
176,112,78389,1,8,0:0:0:0:
176,112,78708,1,0,0:0:0:0:
176,112,78867,1,0,0:0:0:0:
176,112,79027,1,0,0:0:0:0:
176,112,79346,1,8,0:0:0:0:
176,112,79665,1,0,0:0:0:0:
176,112,79825,1,8,0:0:0:0:
176,112,79984,1,0,0:0:0:0:
176,112,80304,1,0,0:0:0:0:
176,112,80623,1,8,0:0:0:0:
176,112,80942,1,8,0:0:0:0:
176,112,81261,1,0,0:0:0:0:
176,112,81580,1,0,0:0:0:0:
176,112,81740,1,0,0:0:0:0:
176,112,81899,1,8,0:0:0:0:
176,112,82218,1,8,0:0:0:0:
176,112,82538,1,0,0:0:0:0:
176,112,83176,1,8,0:0:0:0:
176,112,83336,1,0,0:0:0:0:
176,112,83495,1,0,0:0:0:0:
176,112,83655,1,0,0:0:0:0:
176,112,83974,1,0,0:0:0:0:
176,112,84133,1,0,0:0:0:0:
176,112,84453,1,8,0:0:0:0:
176,112,84772,1,0,0:0:0:0:
176,112,85091,1,4,0:0:0:0:
176,112,85410,1,0,0:0:0:0:
176,112,85729,1,8,0:0:0:0:
176,112,86048,1,4,0:0:0:0:
176,112,86846,1,0,0:0:0:0:
176,112,87006,1,8,0:0:0:0:
176,112,87325,1,0,0:0:0:0:
176,112,87484,1,0,0:0:0:0:
176,112,87644,1,8,0:0:0:0:
176,112,87963,1,0,0:0:0:0:
176,112,88282,1,8,0:0:0:0:
176,112,88601,1,8,0:0:0:0:
176,112,88921,1,8,0:0:0:0:
176,112,89240,1,0,0:0:0:0:
176,112,89559,1,8,0:0:0:0:
176,112,89878,1,0,0:0:0:0:
176,272,90516,1,0,0:0:0:0:
176,192,90836,1,8,0:0:0:0:
176,152,90995,1,0,0:0:0:0:
176,152,91155,1,0,0:0:0:0:
176,152,91474,1,0,0:0:0:0:
256,144,91793,1,0,0:0:0:0:
176,152,92112,1,8,0:0:0:0:
216,144,92272,1,0,0:0:0:0:
176,152,92431,1,2,0:0:0:0:
216,144,92591,1,0,0:0:0:0:
176,152,92750,1,0,0:0:0:0:
256,144,93070,1,8,0:0:0:0:
336,128,93389,1,8,0:0:0:0:
256,144,93708,1,0,0:0:0:0:
176,152,94027,1,8,0:0:0:0:
256,144,94346,1,0,0:0:0:0:
216,144,94506,1,0,0:0:0:0:
336,128,94665,1,8,0:0:0:0:
256,144,94984,1,8,0:0:0:0:
136,152,95304,1,0,0:0:0:0:
176,152,95623,1,8,0:0:0:0:
216,144,95782,1,0,0:0:0:0:
16,168,95942,1,8,0:0:0:0:
88,136,96261,1,8,0:0:0:0:
288,160,97059,1,0,0:0:0:0:
248,152,97218,1,8,0:0:0:0:
176,144,97538,1,8,0:0:0:0:
88,136,97857,1,0,0:0:0:0:
168,144,98176,1,0,0:0:0:0:
248,152,98495,1,8,0:0:0:0:
168,168,98814,1,0,0:0:0:0:
88,136,98974,1,0,0:0:0:0:
88,136,99133,1,0,0:0:0:0:
88,136,99453,1,0,0:0:0:0:
88,136,99612,1,0,0:0:0:0:
88,136,99772,1,8,0:0:0:0:
88,136,100091,1,8,0:0:0:0:
88,136,100410,1,0,0:0:0:0:
88,136,100729,1,0,0:0:0:0:
88,136,101048,1,8,0:0:0:0:
88,136,101367,1,0,0:0:0:0:
88,136,101527,1,0,0:0:0:0:
88,136,101687,1,0,0:0:0:0:
88,136,102006,1,0,0:0:0:0:
88,136,102165,1,0,0:0:0:0:
88,136,102325,1,8,0:0:0:0:
88,136,102644,1,8,0:0:0:0:
88,136,102963,1,0,0:0:0:0:
152,88,103282,1,0,0:0:0:0:
216,40,103601,1,8,0:0:0:0:
144,80,103921,1,0,0:0:0:0:
184,56,104240,1,0,0:0:0:0:
184,56,104559,1,0,0:0:0:0:
184,56,104878,1,8,0:0:0:0:
184,56,105197,1,8,0:0:0:0:
184,56,105836,1,0,0:0:0:0:
184,56,106155,1,8,0:0:0:0:
184,56,106474,1,0,0:0:0:0:
184,56,106633,1,0,0:0:0:0:
184,56,106793,1,0,0:0:0:0:
184,56,107112,1,0,0:0:0:0:
184,56,107431,1,8,0:0:0:0:
184,56,107750,1,0,0:0:0:0:
184,56,108070,1,0,0:0:0:0:
152,80,108229,1,0,0:0:0:0:
72,120,108548,1,0,0:0:0:0:
184,56,108708,1,8,0:0:0:0:
120,96,109027,1,0,0:0:0:0:
120,96,109187,1,0,0:0:0:0:
120,96,109346,1,0,0:0:0:0:
120,96,109984,1,8,0:0:0:0:
120,96,110304,1,0,0:0:0:0:
120,96,110623,1,0,0:0:0:0:
120,96,110781,1,0,0:0:0:0:
120,96,111101,1,0,0:0:0:0:
120,96,111261,1,8,0:0:0:0:
120,96,111580,1,0,0:0:0:0:
120,96,112218,1,0,0:0:0:0:
120,96,112378,1,0,0:0:0:0:
120,96,112538,1,8,0:0:0:0:
120,96,112857,1,0,0:0:0:0:
120,96,113176,1,0,0:0:0:0:
120,96,113495,1,0,0:0:0:0:
120,96,113814,1,8,0:0:0:0:
120,96,113974,1,0,0:0:0:0:
120,96,114133,1,0,0:0:0:0:
120,96,114453,1,0,0:0:0:0:
120,96,114772,1,0,0:0:0:0:
120,96,115091,1,8,0:0:0:0:
120,96,115410,1,8,0:0:0:0:
120,96,115729,1,0,0:0:0:0:
120,96,115889,1,0,0:0:0:0:
120,96,116048,1,0,0:0:0:0:
120,96,116367,1,8,0:0:0:0:
120,96,116527,1,0,0:0:0:0:
120,96,116687,1,0,0:0:0:0:
120,96,117006,1,0,0:0:0:0:
120,96,117325,1,0,0:0:0:0:
120,96,117644,1,8,0:0:0:0:
120,96,117963,1,0,0:0:0:0:
120,96,118282,1,0,0:0:0:0:
120,96,118601,1,0,0:0:0:0:
120,96,118921,1,8,0:0:0:0:
120,96,119080,1,0,0:0:0:0:
120,96,119240,1,0,0:0:0:0:
120,96,119399,1,0,0:0:0:0:
120,96,119718,1,0,0:0:0:0:
120,96,119878,1,0,0:0:0:0:
120,96,120197,1,8,0:0:0:0:
120,96,120516,1,8,0:0:0:0:
120,96,120836,1,0,0:0:0:0:
120,96,121155,1,0,0:0:0:0:
120,96,121314,1,0,0:0:0:0:
120,96,121474,1,8,0:0:0:0:
120,96,121793,1,0,0:0:0:0:
120,96,122112,1,0,0:0:0:0:
120,96,122272,1,0,0:0:0:0:
120,96,122431,1,8,0:0:0:0:
120,96,122750,1,8,0:0:0:0:
120,96,123070,1,0,0:0:0:0:
120,96,123389,1,0,0:0:0:0:
120,96,123708,1,0,0:0:0:0:
120,96,124027,1,8,0:0:0:0:
112,16,124346,1,0,0:0:0:0:
128,176,124984,1,0,0:0:0:0:
120,96,125304,1,8,0:0:0:0:
112,16,125623,1,8,0:0:0:0:
120,96,125942,1,4,0:0:0:0:
144,176,126261,1,0,0:0:0:0:
136,136,126580,1,12,0:0:0:0:
136,56,126899,1,0,0:0:0:0:
136,56,127059,1,0,0:0:0:0:
136,56,127218,1,8,0:0:0:0:
136,56,127538,1,0,0:0:0:0:
136,56,127697,1,0,0:0:0:0:
136,56,127857,1,8,0:0:0:0:
136,56,128176,1,8,0:0:0:0:
136,56,128495,1,4,0:0:0:0:
120,216,129133,1,8,0:0:0:0:
136,136,129453,1,0,0:0:0:0:
128,176,129612,1,0,0:0:0:0:
128,176,129931,1,0,0:0:0:0:
128,176,130091,1,8,0:0:0:0:
128,176,130410,1,8,0:0:0:0:
128,176,130729,1,0,0:0:0:0:
64,224,131048,1,0,0:0:0:0:
128,176,131367,1,0,0:0:0:0:
192,128,131687,1,8,0:0:0:0:
128,176,132006,1,0,0:0:0:0:
96,200,132165,1,0,0:0:0:0:
96,200,132484,1,0,0:0:0:0:
96,200,132644,1,8,0:0:0:0:
96,200,132963,1,8,0:0:0:0:
96,200,133282,1,8,0:0:0:0:
96,200,133601,1,0,0:0:0:0:
96,200,134240,1,8,0:0:0:0:
96,200,134559,1,0,0:0:0:0:
96,200,134718,1,0,0:0:0:0:
96,200,135038,1,0,0:0:0:0:
96,200,135197,1,8,0:0:0:0:
96,200,135516,1,8,0:0:0:0:
96,200,135836,1,0,0:0:0:0:
96,200,136155,1,0,0:0:0:0:
96,200,136474,1,0,0:0:0:0:
96,200,136793,1,8,0:0:0:0:
96,200,136953,1,0,0:0:0:0:
96,200,137112,1,0,0:0:0:0:
96,200,137431,1,0,0:0:0:0:
152,136,137750,1,8,0:0:0:0:
200,80,138070,1,8,0:0:0:0:
144,144,138389,1,0,0:0:0:0:
88,208,138708,1,0,0:0:0:0:
144,152,139187,1,0,0:0:0:0:
192,88,139346,1,8,0:0:0:0:
144,152,139665,1,0,0:0:0:0:
184,80,139984,1,0,0:0:0:0:
144,152,140304,1,8,0:0:0:0:
168,120,140463,1,0,0:0:0:0:
168,120,140623,1,8,0:0:0:0:
112,176,140942,1,0,0:0:0:0:
168,120,141261,1,0,0:0:0:0:
224,64,141580,1,8,0:0:0:0:
280,8,141899,1,8,0:0:0:0:
224,64,142218,1,0,0:0:0:0:
168,120,142538,1,0,0:0:0:0:
112,176,142857,1,8,0:0:0:0:
168,120,143176,1,8,0:0:0:0:
112,176,143495,1,0,0:0:0:0:
168,120,143814,1,0,0:0:0:0:
88,208,144293,1,0,0:0:0:0:
112,176,144453,1,8,0:0:0:0:
168,120,144772,1,0,0:0:0:0:
144,152,144931,1,0,0:0:0:0:
184,88,145250,1,0,0:0:0:0:
160,120,145410,1,0,0:0:0:0:
160,120,145729,1,8,0:0:0:0:
160,120,146048,1,0,0:0:0:0:
240,104,146367,1,0,0:0:0:0:
240,104,146846,1,0,0:0:0:0:
240,104,147006,1,8,0:0:0:0:
240,104,147325,1,0,0:0:0:0:
240,104,147484,1,0,0:0:0:0:
240,104,147644,1,0,0:0:0:0:
240,104,147963,1,0,0:0:0:0:
240,104,148123,1,8,0:0:0:0:
240,104,148282,1,8,0:0:0:0:
240,104,148601,1,8,0:0:0:0:
240,104,148921,1,4,0:0:0:0:
240,104,149240,1,0,0:0:0:0:
240,104,149399,1,0,0:0:0:0:
240,104,149559,1,8,0:0:0:0:
240,104,149718,1,0,0:0:0:0:
240,104,149878,1,0,0:0:0:0:
240,104,150197,1,0,0:0:0:0:
240,104,150357,1,0,0:0:0:0:
240,104,150516,1,8,0:0:0:0:
240,104,150836,1,8,0:0:0:0:
184,208,151155,1,0,0:0:0:0:
208,80,151474,1,0,0:0:0:0:
208,80,151793,1,0,0:0:0:0:
208,80,151953,1,0,0:0:0:0:
208,80,152112,1,8,0:0:0:0:
208,80,152431,1,0,0:0:0:0:
208,80,152750,1,8,0:0:0:0:
208,80,153070,1,8,0:0:0:0:
208,80,153229,1,0,0:0:0:0:
208,80,153389,1,8,0:0:0:0:
208,80,153708,1,0,0:0:0:0:
208,80,154027,1,0,0:0:0:0:
208,80,154506,1,0,0:0:0:0:
208,80,154665,1,8,0:0:0:0:
208,80,154984,1,0,0:0:0:0:
208,80,155144,1,0,0:0:0:0:
208,80,155463,1,0,0:0:0:0:
208,80,155623,1,8,0:0:0:0:
272,120,155942,1,8,0:0:0:0:
208,80,156261,1,0,0:0:0:0:
280,120,156580,1,0,0:0:0:0:
208,80,156899,1,0,0:0:0:0:
240,104,157059,1,0,0:0:0:0:
208,80,157218,1,8,0:0:0:0:
144,176,157538,1,0,0:0:0:0:
120,216,157857,1,0,0:0:0:0:
72,280,158176,1,8,0:0:0:0:
120,216,158495,1,8,0:0:0:0:
136,136,158814,1,0,0:0:0:0:
144,56,159133,1,0,0:0:0:0:
144,56,159453,1,0,0:0:0:0:
144,56,159612,1,0,0:0:0:0:
144,56,159772,1,8,0:0:0:0:
144,56,160091,1,0,0:0:0:0:
144,56,160250,1,0,0:0:0:0:
144,56,160570,1,0,0:0:0:0:
144,56,160729,1,8,0:0:0:0:
144,56,161048,1,8,0:0:0:0:
144,56,161367,1,0,0:0:0:0:
144,56,161687,1,4,0:0:0:0:
144,56,162006,1,0,0:0:0:0:
144,56,162165,1,0,0:0:0:0:
144,56,162325,1,8,0:0:0:0:
144,56,162644,1,4,0:0:0:0:
144,56,162963,1,0,0:0:0:0:
144,56,163282,1,0,0:0:0:0:
176,80,163442,1,2,0:0:0:0:
144,56,163601,1,8,0:0:0:0:
144,56,163921,1,8,0:0:0:0:
208,104,164240,1,4,0:0:0:0:
208,104,164559,1,0,0:0:0:0:
208,104,164878,1,8,0:0:0:0:
208,104,165197,1,0,0:0:0:0:
168,104,165357,1,8,0:0:0:0:
128,96,165516,1,0,0:0:0:0:
128,96,165836,1,0,0:0:0:0:
128,96,165995,1,8,0:0:0:0:
128,96,166155,1,8,0:0:0:0:
128,96,166474,1,0,0:0:0:0:
128,96,166793,1,0,0:0:0:0:
128,96,167272,1,0,0:0:0:0:
128,96,167431,1,8,0:0:0:0:
128,96,167750,1,0,0:0:0:0:
128,96,167910,1,8,0:0:0:0:
128,96,168070,1,0,0:0:0:0:
128,96,168389,1,0,0:0:0:0:
128,96,168548,1,8,0:0:0:0:
128,96,168708,1,8,0:0:0:0:
128,96,169027,1,0,0:0:0:0:
128,96,169346,1,0,0:0:0:0:
128,96,169665,1,0,0:0:0:0:
128,96,169984,1,8,0:0:0:0:
128,96,170304,1,0,0:0:0:0:
128,96,170463,1,8,0:0:0:0:
128,96,170623,1,8,0:0:0:0:
128,96,170942,1,0,0:0:0:0:
128,96,171101,1,8,0:0:0:0:
128,96,171261,1,8,0:0:0:0:
128,96,171580,1,8,0:0:0:0:
128,136,171740,1,0,0:0:0:0:
128,96,171899,1,0,0:0:0:0:
136,176,172218,1,0,0:0:0:0:
128,96,172538,1,8,0:0:0:0:
136,176,172857,1,0,0:0:0:0:
136,136,173016,1,0,0:0:0:0:
128,96,173176,1,8,0:0:0:0:
224,160,173336,1,8,0:0:0:0:
224,160,173415,1,8,0:0:0:0:
224,160,173495,1,8,0:0:0:0:
184,184,173655,1,8,0:0:0:0:
224,200,173814,1,0,0:0:0:0:
184,184,173974,1,0,0:0:0:0:
176,168,174054,1,0,0:0:0:0:
176,168,174133,1,0,0:0:0:0:
216,152,174293,1,0,0:0:0:0:
248,136,174453,1,8,0:0:0:0:
320,96,174772,1,0,0:0:0:0:
256,136,175091,1,8,0:0:0:0:
280,96,175250,1,0,0:0:0:0:
320,80,175410,1,8,0:0:0:0:
280,96,175570,1,8,0:0:0:0:
256,136,175729,1,0,0:0:0:0:
320,80,176048,1,0,0:0:0:0:
256,136,176367,1,8,0:0:0:0:
280,96,176527,1,0,0:0:0:0:
280,96,176687,1,2,0:0:0:0:
280,96,176846,1,0,0:0:0:0:
280,96,177006,1,8,0:0:0:0:
280,96,177325,1,0,0:0:0:0:
280,96,177644,1,8,0:0:0:0:
280,96,177804,1,0,0:0:0:0:
280,96,177963,1,8,0:0:0:0:
280,96,178123,1,8,0:0:0:0:
280,96,178282,1,0,0:0:0:0:
280,96,178601,1,0,0:0:0:0:
280,96,178921,1,8,0:0:0:0:
280,96,179080,1,0,0:0:0:0:
280,96,179240,1,0,0:0:0:0:
280,96,179399,1,2,0:0:0:0:
280,96,179559,1,0,0:0:0:0:
280,96,179878,1,0,0:0:0:0:
280,96,180197,1,0,0:0:0:0:
200,168,180516,1,0,0:0:0:0:
280,96,180836,1,8,0:0:0:0:
280,96,180995,1,8,0:0:0:0:
280,96,181155,1,0,0:0:0:0:
280,96,181314,1,0,0:0:0:0:
280,96,181474,1,8,0:0:0:0:
280,96,181633,1,8,0:0:0:0:
280,96,181793,1,0,0:0:0:0:
280,96,181953,1,0,0:0:0:0:
280,96,182112,1,8,0:0:0:0:
280,96,182591,1,0,0:0:0:0:
280,96,182750,1,8,0:0:0:0:
280,96,183070,1,0,0:0:0:0:
280,96,183708,1,0,0:0:0:0:
280,96,184027,1,8,0:0:0:0:
280,96,184346,1,0,0:0:0:0:
280,96,184665,1,0,0:0:0:0:
280,96,185144,1,0,0:0:0:0:
280,96,185304,1,8,0:0:0:0:
280,96,185623,1,0,0:0:0:0:
280,96,186261,1,0,0:0:0:0:
280,96,186580,1,8,0:0:0:0:
280,96,186899,1,0,0:0:0:0:
280,96,187218,1,0,0:0:0:0:
280,96,187697,1,0,0:0:0:0:
280,96,187857,1,8,0:0:0:0:
280,96,188176,1,0,0:0:0:0:
280,96,188814,1,0,0:0:0:0:
280,96,189133,1,8,0:0:0:0:
280,96,189453,1,0,0:0:0:0:
280,96,189772,1,0,0:0:0:0:
280,96,190250,1,0,0:0:0:0:
280,96,190410,1,8,0:0:0:0:
280,96,190729,1,0,0:0:0:0:
280,96,191367,1,0,0:0:0:0:
280,96,191687,1,8,0:0:0:0:
280,96,192006,1,0,0:0:0:0:
280,96,192325,1,0,0:0:0:0:
280,96,192804,1,0,0:0:0:0:
280,96,192963,1,8,0:0:0:0:
280,96,193282,1,0,0:0:0:0:
280,96,193921,1,0,0:0:0:0:
280,96,194240,1,8,0:0:0:0:
280,96,194559,1,0,0:0:0:0:
280,96,194878,1,0,0:0:0:0:
280,96,195357,1,0,0:0:0:0:
280,96,195516,1,8,0:0:0:0:
280,96,195836,1,0,0:0:0:0:
280,96,196474,1,0,0:0:0:0:
280,96,196793,1,8,0:0:0:0:
280,96,197112,1,0,0:0:0:0:
280,96,197431,1,0,0:0:0:0:
280,96,197591,1,0,0:0:0:0:
280,96,197750,1,0,0:0:0:0:
280,96,198070,1,8,0:0:0:0:
280,96,198389,1,0,0:0:0:0:
280,96,198548,1,0,0:0:0:0:
280,96,198867,1,0,0:0:0:0:
280,96,199027,1,0,0:0:0:0:
280,96,199346,1,8,0:0:0:0:
280,96,199665,1,0,0:0:0:0:
280,96,199984,1,2,0:0:0:0:
280,96,200304,1,0,0:0:0:0:
280,96,200623,1,6,0:0:0:0:
280,96,201261,1,6,0:0:0:0:
280,96,201740,1,0,0:0:0:0:
280,96,201899,1,8,0:0:0:0:
280,96,202218,1,8,0:0:0:0:
280,96,202538,1,4,0:0:0:0:
280,96,202857,1,0,0:0:0:0:
280,96,203016,1,0,0:0:0:0:
280,96,203176,1,8,0:0:0:0:
280,96,203495,1,0,0:0:0:0:
280,96,203655,1,8,0:0:0:0:
280,96,203974,1,8,0:0:0:0:
280,96,204133,1,0,0:0:0:0:
280,96,204453,1,8,0:0:0:0:
280,96,204772,1,0,0:0:0:0:
280,96,205091,1,8,0:0:0:0:
280,96,205410,1,0,0:0:0:0:
280,96,205729,1,8,0:0:0:0:
280,96,206048,1,0,0:0:0:0:
280,96,206208,1,8,0:0:0:0:
280,96,206527,1,8,0:0:0:0:
280,96,206687,1,0,0:0:0:0:
280,96,207006,1,8,0:0:0:0:
280,96,207325,1,8,0:0:0:0:
280,96,207644,1,0,0:0:0:0:
280,96,207963,1,0,0:0:0:0:
280,96,208123,1,0,0:0:0:0:
280,96,208282,1,8,0:0:0:0:
280,96,208601,1,0,0:0:0:0:
280,96,208761,1,8,0:0:0:0:
280,96,209080,1,8,0:0:0:0:
280,96,209240,1,0,0:0:0:0:
280,96,209559,1,8,0:0:0:0:
280,96,209878,1,0,0:0:0:0:
280,96,210197,1,0,0:0:0:0:
280,96,210516,1,0,0:0:0:0:
280,96,210836,1,8,0:0:0:0:
280,96,211155,1,0,0:0:0:0:
280,96,211314,1,8,0:0:0:0:
280,96,211633,1,8,0:0:0:0:
280,96,211793,1,0,0:0:0:0:
280,96,212112,1,8,0:0:0:0:
280,96,212431,1,0,0:0:0:0:
280,96,212750,1,4,0:0:0:0:
280,96,213229,1,0,0:0:0:0:
280,96,213389,1,8,0:0:0:0:
280,96,213708,1,0,0:0:0:0:
280,96,213867,1,8,0:0:0:0:
280,96,214187,1,8,0:0:0:0:
280,96,214346,1,0,0:0:0:0:
280,96,214665,1,8,0:0:0:0:
280,96,214984,1,0,0:0:0:0:
312,168,215304,1,12,0:0:0:0:
280,96,215623,1,0,0:0:0:0:
280,96,215782,1,0,0:0:0:0:
280,96,215942,1,8,0:0:0:0:
280,96,216261,1,0,0:0:0:0:
312,168,216580,1,12,0:0:0:0:
280,96,216899,1,0,0:0:0:0:
296,136,217059,1,0,0:0:0:0:
280,96,217218,1,8,0:0:0:0:
312,168,217538,1,0,0:0:0:0:
280,96,217857,1,4,0:0:0:0:
208,128,218176,1,0,0:0:0:0:
176,152,218336,1,0,0:0:0:0:
208,128,218495,1,8,0:0:0:0:
136,168,218814,1,0,0:0:0:0:
136,168,219453,1,0,0:0:0:0:
200,128,219772,1,8,0:0:0:0:
200,128,220091,1,0,0:0:0:0:
200,128,220250,1,8,0:0:0:0:
200,128,220410,1,0,0:0:0:0:
200,128,220729,1,0,0:0:0:0:
200,128,220889,1,0,0:0:0:0:
200,128,221048,1,8,0:0:0:0:
200,128,221367,1,0,0:0:0:0:
200,128,221687,1,0,0:0:0:0:
200,128,222006,1,0,0:0:0:0:
200,128,222165,1,0,0:0:0:0:
200,128,222325,1,8,0:0:0:0:
200,128,222644,1,8,0:0:0:0:
200,128,222963,1,4,0:0:0:0:
200,128,223282,1,0,0:0:0:0:
200,128,223442,1,8,0:0:0:0:
200,128,223601,1,8,0:0:0:0:
200,128,223761,1,0,0:0:0:0:
200,128,224080,1,0,0:0:0:0:
200,128,224240,1,8,0:0:0:0:
200,128,224559,1,0,0:0:0:0:
200,128,224718,1,0,0:0:0:0:
200,128,224878,1,8,0:0:0:0:
200,128,225197,1,0,0:0:0:0:
200,128,225516,1,4,0:0:0:0:
160,144,227112,1,12,0:0:0:0:
160,144,229027,1,4,0:0:0:0:
256,192,229346,12,0,233814,0:0:0:0:
