osu file format v14

[General]
AudioFilename: Nicky Tirta feat. Vanessa Angel - Indah Cintaku.mp3
AudioLeadIn: 2000
PreviewTime: 50623
Countdown: 0
SampleSet: Normal
StackLeniency: 0.7
Mode: 1
LetterboxInBreaks: 0
WidescreenStoryboard: 0

[Editor]
Bookmarks: 182055
DistanceSpacing: 1.3
BeatDivisor: 4
GridSize: 8
TimelineZoom: 1

[Metadata]
Title:Indah Cintaku
TitleUnicode:Indah Cintaku
Artist:Nicky Tirta - Vanessa Angel
ArtistUnicode:Nicky Tirta - Vanessa Angel
Creator:HeatKai
Version:Jerry's Muzukashii
Source:
Tags:bahasa indonesia Jerry indo Nagaswara Alam Urbach Neppu
BeatmapID:342656
BeatmapSetID:132615

[Difficulty]
HPDrainRate:5
CircleSize:5
OverallDifficulty:5
ApproachRate:5
SliderMultiplier:1.4
SliderTickRate:1

[Events]
//Background and Video events
0,0,"bggggg.jpg",0,50
//Break Periods
//Storyboard Layer 0 (Background)
//Storyboard Layer 1 (Fail)
//Storyboard Layer 2 (Pass)
//Storyboard Layer 3 (Foreground)
//Storyboard Sound Samples

[TimingPoints]
836,638.297872340426,4,1,0,60,1,0
51899,-100,4,1,0,60,0,1
67218,-100,4,1,0,60,0,0
72325,-100,4,1,0,60,0,1
87644,-100,4,1,0,60,0,0
128495,-100,4,1,0,60,0,1
143814,-100,4,1,0,60,0,0
148921,-100,4,1,0,60,0,1
164240,-100,4,1,0,60,0,0
202538,-100,4,1,0,60,0,1
217857,-100,4,1,0,60,0,0

[HitObjects]
256,192,836,5,0,0:0:0:0:
256,192,1474,1,8,0:0:0:0:
256,192,1793,1,0,0:0:0:0:
256,192,2431,1,0,0:0:0:0:
256,192,2750,1,8,0:0:0:0:
256,192,3070,1,0,0:0:0:0:
256,192,3389,1,0,0:0:0:0:
256,192,4027,1,8,0:0:0:0:
256,192,4345,1,0,0:0:0:0:
256,192,5304,1,8,0:0:0:0:
256,192,5623,1,0,0:0:0:0:
256,192,5942,1,0,0:0:0:0:
256,192,6580,1,8,0:0:0:0:
256,192,6899,1,0,0:0:0:0:
256,192,7538,1,0,0:0:0:0:
256,192,7857,1,8,0:0:0:0:
256,192,8495,1,0,0:0:0:0:
256,192,8814,1,8,0:0:0:0:
256,192,9133,1,8,0:0:0:0:
256,192,9772,1,0,0:0:0:0:
256,192,10090,1,0,0:0:0:0:
256,192,11048,1,0,0:0:0:0:
256,192,11367,1,0,0:0:0:0:
256,192,11687,1,8,0:0:0:0:
256,192,12006,1,0,0:0:0:0:
256,192,12644,1,0,0:0:0:0:
256,192,12963,1,8,0:0:0:0:
256,192,13601,1,0,0:0:0:0:
256,192,13921,1,0,0:0:0:0:
256,192,14240,1,8,0:0:0:0:
256,192,14559,1,0,0:0:0:0:
256,192,15516,1,8,0:0:0:0:
256,192,15835,1,0,0:0:0:0:
256,192,16155,1,0,0:0:0:0:
256,192,16793,1,8,0:0:0:0:
256,192,17431,1,0,0:0:0:0:
256,192,17750,1,0,0:0:0:0:
256,192,18070,1,8,0:0:0:0:
256,192,18389,1,0,0:0:0:0:
256,192,19346,1,8,0:0:0:0:
256,192,19664,1,0,0:0:0:0:
256,192,20303,1,0,0:0:0:0:
256,192,20623,1,8,0:0:0:0:
256,192,20942,1,8,0:0:0:0:
256,192,21261,1,0,0:0:0:0:
256,192,21899,1,8,0:0:0:0:
256,192,22218,1,0,0:0:0:0:
256,192,22857,1,8,0:0:0:0:
256,192,23176,1,8,0:0:0:0:
256,192,23814,1,0,0:0:0:0:
256,192,24453,1,8,0:0:0:0:
256,192,24771,1,0,0:0:0:0:
256,192,25410,1,0,0:0:0:0:
256,192,25729,1,8,0:0:0:0:
256,192,26367,1,0,0:0:0:0:
256,192,26686,1,0,0:0:0:0:
256,192,27006,1,8,0:0:0:0:
256,192,27324,1,8,0:0:0:0:
256,192,27644,1,0,0:0:0:0:
256,192,28282,1,8,0:0:0:0:
256,192,28601,1,0,0:0:0:0:
256,192,29559,1,8,0:0:0:0:
256,192,30197,1,0,0:0:0:0:
256,192,30836,1,8,0:0:0:0:
256,192,31155,1,8,0:0:0:0:
256,192,31474,1,0,0:0:0:0:
256,192,32112,1,8,0:0:0:0:
256,192,32431,1,0,0:0:0:0:
256,192,33070,1,0,0:0:0:0:
256,192,33389,1,8,0:0:0:0:
256,192,34027,1,0,0:0:0:0:
256,192,34665,1,8,0:0:0:0:
256,192,34984,1,0,0:0:0:0:
256,192,35623,1,8,0:0:0:0:
256,192,35942,1,8,0:0:0:0:
256,192,36260,1,0,0:0:0:0:
256,192,36580,1,0,0:0:0:0:
256,192,37218,1,8,0:0:0:0:
256,192,38176,1,0,0:0:0:0:
256,192,38495,1,8,0:0:0:0:
256,192,39133,1,0,0:0:0:0:
256,192,39772,1,8,0:0:0:0:
256,192,40091,1,0,0:0:0:0:
256,192,40729,1,0,0:0:0:0:
256,192,41048,1,8,0:0:0:0:
256,192,41367,1,0,0:0:0:0:
256,192,41687,1,0,0:0:0:0:
256,192,42325,1,8,0:0:0:0:
256,192,42643,1,0,0:0:0:0:
256,192,43601,1,8,0:0:0:0:
256,192,43920,1,0,0:0:0:0:
256,192,44240,1,0,0:0:0:0:
256,192,44878,1,8,0:0:0:0:
256,192,45197,1,0,0:0:0:0:
256,192,46155,1,8,0:0:0:0:
256,192,46473,1,0,0:0:0:0:
256,192,47111,1,0,0:0:0:0:
256,192,47431,1,8,0:0:0:0:
256,192,47749,1,0,0:0:0:0:
256,192,48388,1,0,0:0:0:0:
256,192,48708,1,8,0:0:0:0:
256,192,49027,1,0,0:0:0:0:
256,192,49346,1,8,0:0:0:0:
256,192,49984,1,8,0:0:0:0:
256,192,50623,1,0,0:0:0:0:
256,192,50942,1,0,0:0:0:0:
256,192,51261,1,8,0:0:0:0:
256,192,51899,5,4,0:0:0:0:
256,192,52538,1,8,0:0:0:0:
256,192,52857,1,0,0:0:0:0:
256,192,53016,1,0,0:0:0:0:
256,192,53176,1,0,0:0:0:0:
256,192,53814,1,8,0:0:0:0:
256,192,54133,1,0,0:0:0:0:
256,192,54453,1,0,0:0:0:0:
256,192,55091,1,8,0:0:0:0:
256,192,55729,1,0,0:0:0:0:
256,192,56367,1,8,0:0:0:0:
256,192,56687,1,8,0:0:0:0:
256,192,57005,1,0,0:0:0:0:
256,192,57644,1,8,0:0:0:0:
256,192,57962,1,0,0:0:0:0:
256,192,58122,1,0,0:0:0:0:
256,192,58282,1,0,0:0:0:0:
256,192,58921,1,8,0:0:0:0:
256,192,59239,1,0,0:0:0:0:
256,192,59559,1,0,0:0:0:0:
256,192,60197,1,8,0:0:0:0:
256,192,60835,1,0,0:0:0:0:
256,192,61155,1,0,0:0:0:0:
256,192,61474,1,8,0:0:0:0:
256,192,61792,1,0,0:0:0:0:
256,192,62112,1,0,0:0:0:0:
256,192,62750,1,8,0:0:0:0:
256,192,63070,1,0,0:0:0:0:
256,192,63228,1,0,0:0:0:0:
256,192,63388,1,0,0:0:0:0:
256,192,63708,1,0,0:0:0:0:
256,192,64027,1,8,0:0:0:0:
256,192,64346,1,0,0:0:0:0:
256,192,64665,1,0,0:0:0:0:
256,192,65304,1,8,0:0:0:0:
256,192,65942,1,0,0:0:0:0:
256,192,66580,1,8,0:0:0:0:
256,192,66899,1,0,0:0:0:0:
256,192,67218,1,0,0:0:0:0:
256,192,67857,5,8,0:0:0:0:
256,192,68495,1,0,0:0:0:0:
256,192,68814,1,0,0:0:0:0:
256,192,69133,1,8,0:0:0:0:
256,192,69453,1,0,0:0:0:0:
256,192,70091,1,0,0:0:0:0:
256,192,70410,1,8,0:0:0:0:
256,192,70729,1,0,0:0:0:0:
256,192,70889,1,0,0:0:0:0:
256,192,71048,1,0,0:0:0:0:
256,192,71687,1,8,0:0:0:0:
256,192,72325,5,4,0:0:0:0:
256,192,72644,1,0,0:0:0:0:
256,192,72963,1,8,0:0:0:0:
256,192,73282,1,0,0:0:0:0:
256,192,73921,1,0,0:0:0:0:
256,192,74240,1,8,0:0:0:0:
256,192,74878,1,0,0:0:0:0:
256,192,75516,1,8,0:0:0:0:
256,192,76155,1,0,0:0:0:0:
256,192,76474,1,0,0:0:0:0:
256,192,76793,1,8,0:0:0:0:
256,192,77111,1,8,0:0:0:0:
256,192,77431,1,0,0:0:0:0:
256,192,78070,1,8,0:0:0:0:
256,192,78389,1,0,0:0:0:0:
256,192,78548,1,0,0:0:0:0:
256,192,78708,1,0,0:0:0:0:
256,192,79027,1,0,0:0:0:0:
256,192,79346,1,8,0:0:0:0:
256,192,79984,1,0,0:0:0:0:
256,192,80623,1,8,0:0:0:0:
256,192,80942,1,0,0:0:0:0:
256,192,81261,1,8,0:0:0:0:
256,192,81580,1,8,0:0:0:0:
256,192,81899,1,0,0:0:0:0:
256,192,82538,1,8,0:0:0:0:
256,192,83176,1,0,0:0:0:0:
256,192,83495,1,8,0:0:0:0:
256,192,83813,1,0,0:0:0:0:
256,192,84133,1,0,0:0:0:0:
256,192,84453,1,8,0:0:0:0:
256,192,84772,1,0,0:0:0:0:
256,192,84931,1,0,0:0:0:0:
256,192,85091,1,0,0:0:0:0:
256,192,85410,1,0,0:0:0:0:
256,192,85729,1,8,0:0:0:0:
256,192,86048,1,0,0:0:0:0:
256,192,87006,1,8,0:0:0:0:
256,192,87325,1,0,0:0:0:0:
256,192,87644,5,4,0:0:0:0:
256,192,88282,1,8,0:0:0:0:
256,192,88921,1,0,0:0:0:0:
256,192,89240,1,0,0:0:0:0:
256,192,89559,1,8,0:0:0:0:
256,192,89877,1,0,0:0:0:0:
256,192,90516,1,0,0:0:0:0:
256,192,90836,1,8,0:0:0:0:
256,192,91155,1,0,0:0:0:0:
256,192,91793,1,8,0:0:0:0:
256,192,92112,1,8,0:0:0:0:
256,192,92750,1,0,0:0:0:0:
256,192,93389,1,8,0:0:0:0:
256,192,94027,1,0,0:0:0:0:
256,192,94346,1,0,0:0:0:0:
256,192,94665,1,8,0:0:0:0:
256,192,94984,1,0,0:0:0:0:
256,192,95623,1,8,0:0:0:0:
256,192,95942,1,8,0:0:0:0:
256,192,96261,1,0,0:0:0:0:
256,192,96899,1,0,0:0:0:0:
256,192,97218,1,8,0:0:0:0:
256,192,97857,1,0,0:0:0:0:
256,192,98495,1,8,0:0:0:0:
256,192,98814,1,0,0:0:0:0:
256,192,99772,1,8,0:0:0:0:
256,192,100410,1,0,0:0:0:0:
256,192,101048,1,8,0:0:0:0:
256,192,101367,1,0,0:0:0:0:
256,192,102325,1,8,0:0:0:0:
256,192,102644,1,0,0:0:0:0:
256,192,102963,1,0,0:0:0:0:
256,192,103601,1,8,0:0:0:0:
256,192,104240,1,0,0:0:0:0:
256,192,104878,1,8,0:0:0:0:
256,192,105196,1,0,0:0:0:0:
256,192,105835,1,0,0:0:0:0:
256,192,106155,1,8,0:0:0:0:
256,192,106474,1,0,0:0:0:0:
256,192,106633,1,0,0:0:0:0:
256,192,106793,1,0,0:0:0:0:
256,192,107112,1,0,0:0:0:0:
256,192,107431,1,8,0:0:0:0:
256,192,108070,1,0,0:0:0:0:
256,192,108708,1,8,0:0:0:0:
256,192,109665,1,0,0:0:0:0:
256,192,109984,1,8,0:0:0:0:
256,192,110623,1,0,0:0:0:0:
256,192,111261,1,8,0:0:0:0:
256,192,111580,1,0,0:0:0:0:
256,192,112218,1,0,0:0:0:0:
256,192,112538,1,8,0:0:0:0:
256,192,112857,1,0,0:0:0:0:
256,192,113176,1,0,0:0:0:0:
256,192,113814,1,8,0:0:0:0:
256,192,114771,1,0,0:0:0:0:
256,192,115091,1,8,0:0:0:0:
256,192,115409,1,0,0:0:0:0:
256,192,115729,1,0,0:0:0:0:
256,192,116367,1,8,0:0:0:0:
256,192,116687,1,0,0:0:0:0:
256,192,117325,1,0,0:0:0:0:
256,192,117644,1,8,0:0:0:0:
256,192,117963,1,8,0:0:0:0:
256,192,118282,1,0,0:0:0:0:
256,192,118921,1,8,0:0:0:0:
256,192,119878,1,0,0:0:0:0:
256,192,120197,1,8,0:0:0:0:
256,192,120836,1,0,0:0:0:0:
256,192,121474,1,8,0:0:0:0:
256,192,121793,1,0,0:0:0:0:
256,192,122750,1,8,0:0:0:0:
256,192,123069,1,0,0:0:0:0:
256,192,123707,1,8,0:0:0:0:
256,192,124027,1,8,0:0:0:0:
256,192,124346,1,0,0:0:0:0:
256,192,124506,1,0,0:0:0:0:
256,192,124665,1,0,0:0:0:0:
256,192,124984,1,0,0:0:0:0:
256,192,125304,1,8,0:0:0:0:
256,192,125942,1,0,0:0:0:0:
256,192,126580,1,8,0:0:0:0:
256,192,126898,1,0,0:0:0:0:
256,192,127218,1,0,0:0:0:0:
256,192,127538,1,0,0:0:0:0:
256,192,127857,1,8,0:0:0:0:
256,192,128495,5,4,0:0:0:0:
256,192,129133,1,8,0:0:0:0:
256,192,129453,1,0,0:0:0:0:
256,192,129612,1,0,0:0:0:0:
256,192,129772,1,0,0:0:0:0:
256,192,130091,1,0,0:0:0:0:
256,192,130410,1,8,0:0:0:0:
256,192,130729,1,0,0:0:0:0:
256,192,131048,1,0,0:0:0:0:
256,192,131687,1,8,0:0:0:0:
256,192,132325,1,0,0:0:0:0:
256,192,132644,1,0,0:0:0:0:
256,192,132963,1,8,0:0:0:0:
256,192,133282,1,0,0:0:0:0:
256,192,133601,1,0,0:0:0:0:
256,192,134240,1,8,0:0:0:0:
248,192,134558,1,0,0:0:0:0:
248,192,134717,1,0,0:0:0:0:
256,192,134878,1,0,0:0:0:0:
256,192,135197,1,8,0:0:0:0:
256,192,135516,1,8,0:0:0:0:
256,192,136155,1,0,0:0:0:0:
256,192,136793,1,8,0:0:0:0:
256,192,137431,1,0,0:0:0:0:
256,192,137749,1,0,0:0:0:0:
256,192,138070,1,8,0:0:0:0:
256,192,138389,1,0,0:0:0:0:
256,192,138708,1,0,0:0:0:0:
256,192,139346,1,8,0:0:0:0:
256,192,139665,1,0,0:0:0:0:
256,192,139824,1,0,0:0:0:0:
256,192,139983,1,0,0:0:0:0:
256,192,140304,1,0,0:0:0:0:
256,192,140623,1,8,0:0:0:0:
256,192,140942,1,0,0:0:0:0:
256,192,141261,1,0,0:0:0:0:
256,192,141899,1,8,0:0:0:0:
256,192,142218,1,0,0:0:0:0:
256,192,142857,1,0,0:0:0:0:
256,192,143176,1,8,0:0:0:0:
256,192,143495,1,8,0:0:0:0:
256,192,143814,5,0,0:0:0:0:
256,192,144453,1,8,0:0:0:0:
256,192,145091,1,0,0:0:0:0:
256,192,145729,1,8,0:0:0:0:
256,192,146047,1,0,0:0:0:0:
256,192,146366,1,0,0:0:0:0:
256,192,147006,1,8,0:0:0:0:
256,192,147325,1,0,0:0:0:0:
256,192,147483,1,0,0:0:0:0:
256,192,147644,1,0,0:0:0:0:
256,192,147963,1,0,0:0:0:0:
256,192,148281,1,8,0:0:0:0:
256,192,148921,5,4,0:0:0:0:
256,192,149559,1,8,0:0:0:0:
256,192,149878,1,0,0:0:0:0:
256,192,150038,1,0,0:0:0:0:
256,192,150197,1,0,0:0:0:0:
256,192,150515,1,0,0:0:0:0:
256,192,150836,1,8,0:0:0:0:
256,192,151474,1,0,0:0:0:0:
256,192,152112,1,8,0:0:0:0:
256,192,152431,1,0,0:0:0:0:
256,192,153070,1,0,0:0:0:0:
256,192,153389,1,8,0:0:0:0:
256,192,153708,1,0,0:0:0:0:
256,192,154027,1,0,0:0:0:0:
256,192,154664,1,8,0:0:0:0:
256,192,154983,1,0,0:0:0:0:
256,192,155144,1,0,0:0:0:0:
256,192,155303,1,0,0:0:0:0:
256,192,155622,1,0,0:0:0:0:
256,192,155941,1,8,0:0:0:0:
256,192,156580,1,0,0:0:0:0:
256,192,157217,1,8,0:0:0:0:
256,192,157538,1,0,0:0:0:0:
256,192,158176,1,0,0:0:0:0:
256,192,158495,1,8,0:0:0:0:
256,192,158814,1,0,0:0:0:0:
256,192,159132,1,0,0:0:0:0:
256,192,159772,1,8,0:0:0:0:
256,192,160409,1,0,0:0:0:0:
256,192,160729,1,0,0:0:0:0:
256,192,161047,1,8,0:0:0:0:
256,192,161687,1,0,0:0:0:0:
256,192,162325,1,8,0:0:0:0:
256,192,162644,1,0,0:0:0:0:
256,192,163281,1,0,0:0:0:0:
256,192,163600,1,8,0:0:0:0:
256,192,163921,1,0,0:0:0:0:
256,192,164240,5,4,0:0:0:0:
256,192,164878,1,8,0:0:0:0:
256,192,165197,1,0,0:0:0:0:
256,192,165836,1,0,0:0:0:0:
256,192,166155,1,8,0:0:0:0:
256,192,166474,1,0,0:0:0:0:
256,192,167112,1,0,0:0:0:0:
256,192,167431,1,8,0:0:0:0:
256,192,167750,1,0,0:0:0:0:
256,192,168389,1,0,0:0:0:0:
256,192,168708,1,8,0:0:0:0:
256,192,169346,1,0,0:0:0:0:
256,192,169984,1,8,0:0:0:0:
256,192,170304,1,0,0:0:0:0:
256,192,170942,1,0,0:0:0:0:
256,192,171261,1,8,0:0:0:0:
256,192,171580,1,8,0:0:0:0:
256,192,172218,1,0,0:0:0:0:
256,192,172538,1,8,0:0:0:0:
256,192,172857,1,0,0:0:0:0:
256,192,173495,1,8,0:0:0:0:
256,192,173655,1,8,0:0:0:0:
256,192,173814,1,8,0:0:0:0:
256,192,174133,1,8,0:0:0:0:
256,192,174453,1,0,0:0:0:0:
256,192,175091,1,8,0:0:0:0:
256,192,175728,1,0,0:0:0:0:
256,192,176048,1,0,0:0:0:0:
256,192,176367,1,8,0:0:0:0:
256,192,176687,1,0,0:0:0:0:
256,192,177006,1,0,0:0:0:0:
256,192,177644,1,8,0:0:0:0:
256,192,177963,1,0,0:0:0:0:
256,192,178123,1,0,0:0:0:0:
256,192,178282,1,0,0:0:0:0:
256,192,178601,1,0,0:0:0:0:
256,192,178921,1,8,0:0:0:0:
256,192,179240,1,0,0:0:0:0:
256,192,179559,12,0,180516,0:0:0:0:
256,192,180836,5,0,0:0:0:0:
256,192,181155,1,8,0:0:0:0:
256,192,181314,1,8,0:0:0:0:
256,192,181474,1,8,0:0:0:0:
256,192,181793,1,8,0:0:0:0:
256,192,182112,1,0,0:0:0:0:
256,192,182750,1,8,0:0:0:0:
256,192,183069,1,0,0:0:0:0:
256,192,184027,1,8,0:0:0:0:
256,192,184665,1,0,0:0:0:0:
256,192,185304,1,8,0:0:0:0:
256,192,185622,1,0,0:0:0:0:
256,192,186580,1,8,0:0:0:0:
256,192,187218,1,0,0:0:0:0:
256,192,187857,1,8,0:0:0:0:
256,192,188494,1,0,0:0:0:0:
256,192,188813,1,0,0:0:0:0:
256,192,189133,1,8,0:0:0:0:
256,192,189772,1,0,0:0:0:0:
256,192,190410,1,8,0:0:0:0:
256,192,190729,1,0,0:0:0:0:
256,192,190889,1,0,0:0:0:0:
256,192,191048,1,0,0:0:0:0:
256,192,191367,1,0,0:0:0:0:
256,192,191687,1,8,0:0:0:0:
256,192,192325,1,0,0:0:0:0:
256,192,192963,1,8,0:0:0:0:
256,192,193281,1,0,0:0:0:0:
256,192,194240,1,8,0:0:0:0:
256,192,194878,1,0,0:0:0:0:
256,192,195516,1,8,0:0:0:0:
256,192,195835,1,0,0:0:0:0:
256,192,196793,1,8,0:0:0:0:
256,192,197431,1,0,0:0:0:0:
256,192,198070,1,8,0:0:0:0:
256,192,198389,1,0,0:0:0:0:
256,192,198548,1,0,0:0:0:0:
256,192,198708,1,0,0:0:0:0:
256,192,199027,1,0,0:0:0:0:
256,192,199346,1,8,0:0:0:0:
256,192,199665,1,0,0:0:0:0:
256,192,200304,1,8,0:0:0:0:
256,192,200623,1,8,0:0:0:0:
256,192,200942,1,8,0:0:0:0:
256,192,201261,1,0,0:0:0:0:
256,192,201421,1,0,0:0:0:0:
256,192,201580,1,0,0:0:0:0:
256,192,201899,1,8,0:0:0:0:
256,192,202538,5,4,0:0:0:0:
256,192,203176,1,8,0:0:0:0:
256,192,203495,1,0,0:0:0:0:
256,192,203655,1,0,0:0:0:0:
256,192,203814,1,0,0:0:0:0:
256,192,204133,1,0,0:0:0:0:
256,192,204453,1,8,0:0:0:0:
256,192,204772,1,8,0:0:0:0:
256,192,205091,1,0,0:0:0:0:
256,192,205729,1,8,0:0:0:0:
256,192,206048,1,0,0:0:0:0:
256,192,206367,1,0,0:0:0:0:
256,192,206687,1,0,0:0:0:0:
256,192,207006,1,8,0:0:0:0:
256,192,207325,1,8,0:0:0:0:
256,192,207644,1,0,0:0:0:0:
256,192,208282,1,8,0:0:0:0:
256,192,208601,1,0,0:0:0:0:
256,192,209240,1,0,0:0:0:0:
256,192,209559,1,8,0:0:0:0:
256,192,209878,1,0,0:0:0:0:
256,192,210197,1,0,0:0:0:0:
256,192,210836,1,8,0:0:0:0:
256,192,211155,1,0,0:0:0:0:
256,192,211793,1,0,0:0:0:0:
256,192,212112,1,8,0:0:0:0:
256,192,212431,1,8,0:0:0:0:
256,192,212750,1,0,0:0:0:0:
256,192,213389,1,8,0:0:0:0:
256,192,213708,1,0,0:0:0:0:
256,192,214026,1,0,0:0:0:0:
256,192,214186,1,0,0:0:0:0:
256,192,214346,1,0,0:0:0:0:
256,192,214665,1,8,0:0:0:0:
256,192,214983,1,0,0:0:0:0:
256,192,215304,1,0,0:0:0:0:
256,192,215942,1,8,0:0:0:0:
256,192,216261,1,0,0:0:0:0:
256,192,216899,1,0,0:0:0:0:
256,192,217218,1,8,0:0:0:0:
256,192,217538,1,0,0:0:0:0:
256,192,217857,5,4,0:0:0:0:
256,192,218495,1,8,0:0:0:0:
256,192,218813,1,0,0:0:0:0:
256,192,219453,1,0,0:0:0:0:
256,192,219772,1,8,0:0:0:0:
256,192,220410,1,0,0:0:0:0:
256,192,221048,1,8,0:0:0:0:
256,192,221686,1,0,0:0:0:0:
256,192,222006,1,0,0:0:0:0:
256,192,222325,1,8,0:0:0:0:
256,192,222963,1,0,0:0:0:0:
256,192,223601,1,8,0:0:0:0:
256,192,223921,1,0,0:0:0:0:
256,192,224559,1,0,0:0:0:0:
256,192,224878,1,8,0:0:0:0:
256,192,225516,1,4,0:0:0:0:
160,144,227112,1,12,0:0:0:0:
256,192,229027,12,0,233814,0:0:0:0:
