osu file format v14

[General]
AudioFilename: audio.mp3
AudioLeadIn: 0
PreviewTime: 60902
Countdown: 0
SampleSet: Normal
StackLeniency: 0.4
Mode: 0
LetterboxInBreaks: 0
WidescreenStoryboard: 0

[Editor]
Bookmarks: 41602,44802,48002,60802,73602,86402,99202,112002,124802,137602,153602
DistanceSpacing: 1.3
BeatDivisor: 4
GridSize: 8
TimelineZoom: 2

[Metadata]
Title:Here Comes Vi
TitleUnicode:Here Comes Vi
Artist:Nicki Taylor
ArtistUnicode:Nicki Taylor
Creator:TheMefisto
Version:riffy's Light Insane
Source:League of Legends
Tags:riffy bakari riot games lol intro login screen
BeatmapID:1927246
BeatmapSetID:922887

[Difficulty]
HPDrainRate:5
CircleSize:3
OverallDifficulty:7
ApproachRate:8.2
SliderMultiplier:1.6
SliderTickRate:1

[Events]
//Background and Video events
0,0,"bgwp.jpg",0,0
//Break Periods
2,48202,59464
2,112202,123464
//Storyboard Layer 0 (Background)
//Storyboard Layer 1 (Fail)
//Storyboard Layer 2 (Pass)
//Storyboard Layer 3 (Foreground)
//Storyboard Sound Samples

[TimingPoints]
3202,400,4,1,1,30,1,0
3202,-133.333333333333,4,1,1,30,0,0
16002,-117.647058823529,4,1,1,50,0,0
28802,-111.111111111111,4,1,1,50,0,0
41602,-111.111111111111,4,1,1,35,0,0
43202,-111.111111111111,4,1,1,40,0,0
44802,-111.111111111111,4,1,1,40,0,0
45602,-111.111111111111,4,1,1,45,0,0
46402,-111.111111111111,4,1,1,50,0,0
47202,-111.111111111111,4,1,1,60,0,0
48002,-111.111111111111,4,1,1,50,0,0
48202,-125,4,1,1,40,0,0
60202,-125,4,1,1,65,0,0
60802,-83.3333333333333,4,1,1,75,0,1
73175,400,4,1,1,55,1,0
73605,400,4,2,1,30,1,0
73605,-142.857142857143,4,2,1,30,0,0
75178,400,4,2,1,30,1,0
75178,-142.857142857143,4,2,1,30,0,0
86402,400,4,1,1,60,1,0
86402,-111.111111111111,4,1,1,60,0,0
112002,-125,4,1,1,40,0,0
124202,-125,4,1,1,65,0,0
124802,-83.3333333333333,4,1,1,75,0,1
137202,-83.3333333333333,4,1,1,55,0,1
137602,-111.111111111111,4,1,1,60,0,0
156802,-111.111111111111,4,1,1,20,0,0

[Colours]
Combo1 : 247,236,100
Combo2 : 232,126,250
Combo3 : 111,175,255
Combo4 : 181,11,36

[HitObjects]
65,345,3202,5,2,0:2:0:0:
64,312,3602,1,2,0:0:0:0:
64,280,4002,1,2,0:0:0:0:
64,240,4402,1,2,0:0:0:0:
174,150,4802,5,2,0:2:0:0:
174,190,5202,1,2,0:0:0:0:
174,222,5602,1,2,0:0:0:0:
175,255,6002,1,2,0:0:0:0:
282,346,6402,5,2,0:2:0:0:
281,313,6802,1,2,0:0:0:0:
281,281,7202,1,2,0:0:0:0:
281,241,7602,1,2,0:0:0:0:
391,151,8002,5,2,0:2:0:0:
391,191,8402,1,2,0:0:0:0:
391,223,8802,1,2,0:0:0:0:
392,256,9202,1,2,0:0:0:0:
481,346,9602,6,0,P|420:353|277:324,1,180.000006866455,2|0,0:2|0:0,0:0:0:0:
293,349,10402,2,0,P|237:343|111:348,1,180.000006866455,2|0,0:2|0:0,0:0:0:0:
28,260,11202,6,0,P|99:271|113:275,1,60.0000022888184,2|0,0:2|0:0,0:0:0:0:
119,177,11602,2,0,P|150:206|174:239,1,60.0000022888184,2|0,0:2|0:0,0:0:0:0:
242,157,12002,2,0,P|249:220|229:344,1,180.000006866455,2|0,0:2|0:0,0:0:0:0:
383,356,12802,6,0,P|426:349|467:348,1,60.0000022888184,2|0,0:2|0:0,0:0:0:0:
497,251,13202,2,0,P|457:247|414:251,1,60.0000022888184,2|0,0:0|0:0,0:0:0:0:
325,182,13602,2,0,P|353:146|473:59,1,180.000006866455,2|0,0:2|0:0,0:0:0:0:
282,11,14402,6,0,P|285:55|291:95,1,60.0000022888184,2|0,0:2|0:0,0:0:0:0:
188,75,14802,2,0,P|201:124|208:153,1,60.0000022888184,2|0,0:2|0:0,0:0:0:0:
88,28,15202,1,2,0:2:0:0:
88,28,15402,1,10,0:2:0:0:
32,122,15602,1,10,0:2:0:0:
71,127,15802,1,10,0:2:0:0:
64,256,16002,6,0,P|114:238|147:216,1,68.0000012969971,4|0,0:0|0:0,0:0:0:0:
234,308,16402,2,0,P|250:266|263:220,1,68.0000012969971,2|0,0:0|0:0,0:0:0:0:
408,256,16802,2,0,P|403:198|387:108,1,136.000002593994,2|2,0:2|0:0,0:0:0:0:
168,32,17602,6,0,P|173:111|182:192,2,136.000002593994,2|2|0,0:2|0:0|0:0,0:0:0:0:
272,96,18602,1,0,0:0:0:0:
96,184,18802,2,0,P|96:237|99:272,1,68.0000012969971,2|0,0:0|0:0,0:0:0:0:
155,352,19202,5,2,0:2:0:0:
469,324,19602,1,2,0:0:0:0:
469,324,20002,2,0,P|474:284|485:231,2,68.0000012969971,2|0|2,0:2|0:0|0:0,0:0:0:0:
384,272,20602,1,0,0:0:0:0:
304,360,20802,5,2,0:2:0:0:
272,87,21202,1,2,0:0:0:0:
358,107,21402,2,0,P|319:162|247:174,1,136.000002593994,2|0,0:2|0:0,0:0:0:0:
181,125,22002,2,0,P|179:88|191:44,1,68.0000012969971,2|0,0:0|0:0,0:0:0:0:
336,16,22402,5,2,0:2:0:0:
240,346,22802,1,2,0:0:0:0:
240,346,23202,1,2,0:2:0:0:
189,273,23402,1,0,0:0:0:0:
276,260,23602,2,0,P|310:290|330:331,1,68.0000012969971,2|0,0:0|0:0,0:0:0:0:
432,240,24002,6,0,P|426:310|389:374,1,136.000002593994,2|2,0:2|0:0,0:0:0:0:
380,223,24602,2,0,P|443:193|517:193,1,136.000002593994,2|0,0:2|0:0,0:0:0:0:
377,281,25202,2,0,P|340:264|310:240,1,68.0000012969971,2|0,0:0|0:0,0:0:0:0:
293,123,25602,5,2,0:2:0:0:
29,322,26002,2,0,P|57:348|102:364,1,68.0000012969971,2|0,0:0|0:0,0:0:0:0:
230,208,26402,2,0,P|185:213|148:226,1,68.0000012969971,2|0,0:2|0:0,0:0:0:0:
250,352,26802,1,2,0:0:0:0:
400,152,27202,2,0,P|424:213|400:275,1,136.000002593994,2|2,0:2|0:0,0:0:0:0:
464,335,27802,2,0,P|415:364|340:333,1,136.000002593994,2|2,0:2|0:0,0:0:0:0:
285,194,28402,5,10,0:2:0:0:
231,324,28602,1,10,0:2:0:0:
120,186,28802,6,0,P|102:174|53:157,1,71.9999978027344,4|0,0:0|0:0,0:0:0:0:
206,26,29202,2,0,P|205:73|191:117,1,71.9999978027344,8|0,0:0|0:0,0:0:0:0:
264,192,29602,2,0,L|344:176,1,71.9999978027344,2|0,0:2|0:0,0:0:0:0:
430,69,30002,1,8,0:0:0:0:
430,69,30202,1,0,0:0:0:0:
496,256,30402,6,0,P|464:208|440:168,1,71.9999978027344,2|0,0:2|0:0,0:0:0:0:
376,344,30802,2,0,P|376:304|384:264,1,71.9999978027344,8|2,0:0|0:2,0:0:0:0:
240,136,31202,2,0,P|248:173|263:231,1,71.9999978027344,0|0,0:0|0:0,0:0:0:0:
195,338,31602,1,8,0:0:0:0:
195,338,31802,1,0,0:0:0:0:
44,251,32002,5,2,0:2:0:0:
137,255,32202,1,0,0:0:0:0:
79,124,32402,2,0,P|105:131|157:153,1,71.9999978027344,8|0,0:0|0:0,0:0:0:0:
251,61,32802,1,2,0:2:0:0:
251,61,33002,1,0,0:0:0:0:
276,179,33202,2,0,L|263:253,1,71.9999978027344,8|0,0:0|0:0,0:0:0:0:
363,353,33602,6,0,B|436:367|436:367|523:330,1,143.999995605469,2|8,0:2|0:0,0:0:0:0:
369,264,34202,1,2,0:2:0:0:
236,358,34402,1,0,0:0:0:0:
236,358,34602,1,0,0:0:0:0:
119,242,34802,2,0,P|169:246|213:258,1,71.9999978027344,8|0,0:0|0:0,0:0:0:0:
46,135,35202,6,0,P|39:96|38:57,1,71.9999978027344,2|0,0:2|0:0,0:0:0:0:
230,17,35602,2,0,P|224:71|200:179,1,143.999995605469,8|2,0:0|0:2,0:0:0:0:
201,165,36402,1,8,0:0:0:0:
196,171,36802,5,2,0:2:0:0:
289,168,37002,1,0,0:0:0:0:
386,141,37202,1,8,0:0:0:0:
452,60,37402,2,0,P|407:36|296:41,1,143.999995605469,2|0,0:2|0:0,0:0:0:0:
216,8,38002,2,0,P|198:57|184:111,1,71.9999978027344,8|0,0:0|0:0,0:0:0:0:
80,88,38402,6,0,P|89:162|135:263,1,143.999995605469,2|8,0:2|0:0,0:0:0:0:
27,268,39002,1,0,0:0:0:0:
45,358,39202,2,0,P|103:350|142:339,1,71.9999978027344,2|0,0:2|0:0,0:0:0:0:
223,377,39602,2,0,P|252:343|274:303,1,71.9999978027344,8|0,0:0|0:0,0:0:0:0:
384,340,40002,6,0,P|378:269|350:168,2,143.999995605469,2|8|0,0:2|0:0|0:0,0:0:0:0:
508,335,41002,2,0,P|500:359|492:376,2,35.9999989013672,8|8|8,3:0|3:0|3:0,0:0:0:0:
467,219,41402,1,8,3:0:0:0:
256,192,41602,12,0,43202,0:0:0:0:
256,192,44802,12,12,48002,0:0:0:0:
37,40,60202,5,8,0:2:0:0:
166,17,60402,1,8,0:2:0:0:
37,40,60602,1,8,0:2:0:0:
35,226,60802,6,0,P|103:240|121:366,1,191.999994140625,4|8,0:0|0:0,0:0:0:0:
225,250,61402,1,0,0:0:0:0:
330,344,61602,2,0,L|222:351,1,95.9999970703126,2|0,0:2|0:0,0:0:0:0:
435,231,62002,2,0,L|327:238,1,95.9999970703126,8|0,0:0|0:0,0:0:0:0:
237,97,62402,6,0,P|299:42|430:34,1,191.999994140625,2|8,2:0|0:0,0:0:0:0:
265,182,63002,2,0,P|223:146|57:131,1,191.999994140625,2|0,2:0|0:0,0:0:0:0:
12,241,63602,1,8,0:0:0:0:
12,241,63802,1,0,0:0:0:0:
201,282,64002,6,0,P|183:330|170:380,1,95.9999970703126,2|0,0:2|0:0,0:0:0:0:
334,168,64402,2,0,P|352:216|365:266,1,95.9999970703126,8|0,0:0|0:0,0:0:0:0:
148,88,64802,1,2,0:2:0:0:
279,29,65002,1,0,0:0:0:0:
422,45,65202,1,8,0:0:0:0:
422,45,65402,1,0,0:0:0:0:
459,237,65602,6,0,P|459:175|481:118,1,95.9999970703126,2|0,0:2|0:0,0:0:0:0:
406,352,66002,1,8,0:0:0:0:
294,260,66202,1,2,0:2:0:0:
152,233,66402,1,0,0:0:0:0:
27,304,66602,1,0,0:0:0:0:
23,94,66802,2,0,L|35:201,1,95.9999970703126,8|0,0:0|0:0,0:0:0:0:
153,351,67202,6,0,P|189:298|332:281,1,191.999994140625,4|8,0:0|0:0,0:0:0:0:
419,363,67802,1,0,0:0:0:0:
472,141,68002,2,0,L|412:244,1,95.9999970703126,2|0,0:2|0:0,0:0:0:0:
327,30,68402,2,0,L|310:137,1,95.9999970703126,8|0,0:0|0:0,0:0:0:0:
104,15,68802,6,0,L|125:108,1,95.9999970703126,2|0,0:2|0:0,0:0:0:0:
139,251,69202,1,8,0:0:0:0:
8,190,69402,1,2,0:2:0:0:
125,108,69602,2,0,L|220:119,1,95.9999970703126,0|0,0:0|0:0,0:0:0:0:
363,137,70002,1,8,0:0:0:0:
301,6,70202,1,0,0:0:0:0:
220,119,70402,5,2,0:2:0:0:
306,253,70602,1,0,0:0:0:0:
399,378,70802,1,8,0:0:0:0:
469,98,71202,1,2,0:2:0:0:
434,237,71402,1,0,0:0:0:0:
399,378,71602,1,8,0:0:0:0:
399,378,72002,6,0,P|384:321|449:373,1,191.999994140625,2|8,0:0|0:0,0:0:0:0:
179,288,72802,2,0,P|213:280|286:284,1,95.9999970703126,2|2,0:0|0:0,0:0:0:0:
216,168,73175,1,2,0:0:0:0:
424,327,73605,6,0,L|489:314,3,55.9999982910157,4|0|0|0,0:1|0:0|0:0|0:0,0:0:0:0:
457,229,74405,2,0,L|523:233,3,55.9999982910157,2|0|0|0,0:0|0:0|0:0|0:0,0:0:0:0:
408,342,75178,6,0,L|473:329,3,55.9999982910157,2|0|0|0,0:0|0:0|0:0|0:0,0:0:0:0:
441,244,75978,2,0,L|507:248,3,55.9999982910157,2|0|0|0,0:0|0:0|0:0|0:0,0:0:0:0:
399,354,76778,6,0,L|464:341,3,55.9999982910157,2|0|0|0,0:0|0:0|0:0|0:0,0:0:0:0:
432,256,77578,2,0,L|498:260,3,55.9999982910157,2|0|0|0,0:0|0:0|0:0|0:0,0:0:0:0:
310,379,78378,6,0,L|375:366,3,55.9999982910157,2|0|0|0,0:0|0:0|0:0|0:0,0:0:0:0:
376,252,79178,2,0,L|442:256,3,55.9999982910157,2|0|0|0,0:0|0:0|0:0|0:0,0:0:0:0:
224,319,79978,6,0,L|289:306,3,55.9999982910157,2|0|0|0,0:0|0:0|0:0|0:0,0:0:0:0:
258,180,80778,2,0,L|325:186,3,55.9999982910157,2|0|0|0,0:0|0:0|0:0|0:0,0:0:0:0:
103,245,81578,6,0,L|168:232,3,55.9999982910157,2|0|0|0,0:0|0:0|0:0|0:0,0:0:0:0:
127,94,82378,1,2,0:0:0:0:
162,102,82578,1,0,0:0:0:0:
197,110,82778,1,0,0:0:0:0:
231,121,82978,1,0,0:0:0:0:
331,202,83178,5,2,0:0:0:0:
362,184,83378,1,0,0:0:0:0:
393,166,83578,1,0,0:0:0:0:
424,148,83778,1,0,0:0:0:0:
367,290,83978,1,2,0:0:0:0:
332,278,84178,1,0,0:0:0:0:
296,268,84378,1,0,0:0:0:0:
261,257,84578,1,0,0:0:0:0:
123,290,84778,5,2,0:0:0:0:
199,135,84978,1,2,1:2:0:0:
67,82,86402,6,0,P|38:164|36:251,1,143.999995605469,4|0,0:0|0:0,0:0:0:0:
110,358,87002,1,2,0:0:0:0:
240,203,87202,2,0,P|251:278|253:362,1,143.999995605469,8|0,0:0|0:0,0:0:0:0:
347,293,87802,1,0,0:0:0:0:
467,307,88002,6,0,P|450:353|431:386,1,71.9999978027344,2|2,0:0|0:2,0:0:0:0:
439,240,88402,2,0,P|456:286|475:319,1,71.9999978027344,0|2,0:0|0:0,0:0:0:0:
466,173,88802,2,0,P|449:219|430:252,1,71.9999978027344,8|2,0:0|0:0,0:0:0:0:
438,106,89202,2,0,P|455:152|474:185,1,71.9999978027344,12|0,0:0|0:0,0:0:0:0:
483,32,89602,6,0,P|410:48|346:14,1,143.999995605469,4|0,0:0|0:0,0:0:0:0:
265,84,90202,1,2,0:0:0:0:
128,42,90402,2,0,P|95:82|40:264,1,215.999993408203,8|0,0:0|0:0,0:0:0:0:
180,249,91202,6,0,P|136:264|95:292,1,71.9999978027344,2|2,0:0|0:2,0:0:0:0:
250,257,91602,2,0,P|204:247|154:251,1,71.9999978027344,0|2,0:0|0:0,0:0:0:0:
307,300,92002,2,0,P|272:269|227:247,1,71.9999978027344,12|4,0:0|0:3,0:0:0:0:
334,365,92402,2,0,P|319:321|291:280,1,71.9999978027344,4|8,0:3|0:0,0:0:0:0:
353,178,92802,6,0,P|357:216|464:157,1,215.999993408203,4|2,0:0|0:0,0:0:0:0:
436,36,93602,2,0,P|419:85|414:136,1,71.9999978027344,8|0,0:0|0:0,0:0:0:0:
301,13,94002,2,0,P|304:49|316:101,1,71.9999978027344,0|0,0:0|0:0,0:0:0:0:
197,206,94402,6,0,P|165:166|1:148,1,215.999993408203,2|2,0:0|0:0,0:0:0:0:
6,291,95202,2,0,P|48:271|91:238,1,71.9999978027344,8|2,0:0|0:0,0:0:0:0:
149,367,95602,2,0,P|165:329|179:278,1,71.9999978027344,12|0,0:0|0:0,0:0:0:0:
323,330,96002,6,0,P|305:242|225:115,1,215.999993408203,4|2,0:0|0:0,0:0:0:0:
363,35,96802,2,0,P|356:98|347:134,1,71.9999978027344,8|0,0:0|0:0,0:0:0:0:
455,167,97202,2,0,P|412:211|382:233,1,71.9999978027344,0|0,0:0|0:0,0:0:0:0:
297,346,97602,6,0,P|366:308|483:371,1,215.999993408203,2|2,0:0|0:0,0:0:0:0:
364,345,98402,1,10,0:0:0:0:
348,304,98602,1,2,0:0:0:0:
346,260,98802,1,10,0:0:0:0:
352,217,99002,1,2,0:0:0:0:
376,181,99202,6,0,P|377:134|246:33,1,215.999993408203,4|2,0:0|0:0,0:0:0:0:
119,151,100002,2,0,P|189:159|285:145,1,143.999995605469,8|0,0:0|0:0,0:0:0:0:
133,62,100602,1,0,0:0:0:0:
13,206,100802,6,0,P|39:271|35:377,1,143.999995605469,2|0,0:0|0:0,0:0:0:0:
129,270,101402,1,0,0:0:0:0:
237,273,101602,2,0,P|222:325|199:365,1,71.9999978027344,8|2,0:0|0:0,0:0:0:0:
334,233,102002,2,0,P|335:273|332:324,1,71.9999978027344,8|0,0:0|0:0,0:0:0:0:
443,162,102402,6,0,P|463:232|473:333,2,143.999995605469,4|0|8,0:0|0:0|0:0,0:0:0:0:
294,28,103602,1,0,0:0:0:0:
251,111,103802,1,0,0:0:0:0:
234,203,104002,2,0,P|238:243|248:285,2,71.9999978027344,2|2|0,0:0|0:2|0:0,0:0:0:0:
147,306,104602,2,0,P|100:329|-3:340,1,143.999995605469,2|2,0:0|0:0,0:0:0:0:
150,355,105202,5,12,0:0:0:0:
81,291,105402,1,2,0:0:0:0:
34,209,105602,1,4,0:0:0:0:
243,53,106002,1,0,0:0:0:0:
229,145,106202,1,2,0:0:0:0:
182,226,106402,1,8,0:0:0:0:
409,364,106802,5,0,0:0:0:0:
356,286,107002,1,0,0:0:0:0:
340,193,107202,1,2,0:0:0:0:
496,48,107602,1,0,0:0:0:0:
480,144,107802,1,2,0:0:0:0:
448,232,108002,1,8,0:0:0:0:
361,26,108402,1,0,0:0:0:0:
390,115,108602,1,0,0:0:0:0:
307,0,108802,6,0,P|364:63|397:135,1,143.999995605469,4|0,0:0|0:0,0:0:0:0:
358,203,109402,1,2,0:0:0:0:
243,108,109602,2,0,P|203:100|87:116,1,143.999995605469,8|0,0:0|0:0,0:0:0:0:
14,338,110402,6,0,P|60:340|170:357,1,143.999995605469,2|0,0:0|0:0,0:0:0:0:
230,287,111002,2,0,P|248:342|252:377,1,71.9999978027344,2|10,0:0|0:0,0:0:0:0:
340,246,111402,1,2,0:0:0:0:
335,339,111602,1,10,0:0:0:0:
446,222,111802,1,2,0:0:0:0:
413,318,112002,5,4,0:0:0:0:
269,65,124202,5,8,0:2:0:0:
254,212,124402,1,8,0:2:0:0:
237,358,124602,1,8,0:2:0:0:
39,314,124802,6,0,P|77:264|201:290,1,191.999994140625,4|8,0:0|0:0,0:0:0:0:
137,148,125402,1,0,0:0:0:0:
304,242,125602,2,0,P|306:303|297:346,1,95.9999970703126,2|0,0:2|0:0,0:0:0:0:
445,220,126002,2,0,P|433:269|410:319,1,95.9999970703126,8|0,0:0|0:0,0:0:0:0:
347,126,126402,6,0,P|365:90|501:62,1,191.999994140625,2|8,0:2|0:0,0:0:0:0:
354,189,127002,2,0,P|305:154|165:154,1,191.999994140625,2|0,0:2|0:0,0:0:0:0:
83,258,127602,1,8,0:0:0:0:
83,258,127802,1,0,0:0:0:0:
222,361,128002,6,0,P|273:371|316:365,1,95.9999970703126,2|0,0:2|0:0,0:0:0:0:
498,213,128402,2,0,P|447:203|404:209,1,95.9999970703126,8|0,0:0|0:0,0:0:0:0:
272,269,128802,1,2,0:2:0:0:
154,186,129002,1,0,0:0:0:0:
113,47,129202,1,8,0:0:0:0:
113,47,129402,1,0,0:0:0:0:
307,19,129602,6,0,P|281:72|254:106,1,95.9999970703126,2|0,0:2|0:0,0:0:0:0:
154,186,130002,1,8,0:0:0:0:
297,191,130202,1,2,0:2:0:0:
420,265,130402,1,0,0:0:0:0:
505,380,130602,1,0,0:0:0:0:
266,356,130802,2,0,P|337:343|400:347,1,95.9999970703126,8|0,0:0|0:0,0:0:0:0:
141,369,131202,6,0,P|109:280|26:221,1,191.999994140625,2|8,0:2|0:0,0:0:0:0:
178,184,131802,1,0,0:0:0:0:
25,29,132002,2,0,P|50:74|84:114,1,95.9999970703126,2|0,0:2|0:0,0:0:0:0:
281,9,132402,2,0,P|252:52|229:99,1,95.9999970703126,8|0,0:0|0:0,0:0:0:0:
430,231,132802,6,0,P|383:222|317:217,1,95.9999970703126,2|0,0:2|0:0,0:0:0:0:
221,365,133202,1,8,0:0:0:0:
358,323,133402,1,2,0:2:0:0:
217,354,133602,2,0,P|161:343|110:338,1,95.9999970703126,0|0,0:0|0:0,0:0:0:0:
41,218,134002,2,0,P|97:211|157:213,1,95.9999970703126,8|0,0:0|0:0,0:0:0:0:
310,297,134402,5,2,0:2:0:0:
296,153,134602,1,0,0:0:0:0:
310,297,134802,1,8,0:0:0:0:
438,159,135002,2,0,P|445:111|453:64,2,95.9999970703126,0|2|0,0:0|0:2|0:0,0:0:0:0:
321,275,135602,2,0,P|378:298|420:304,1,95.9999970703126,8|0,0:0|0:0,0:0:0:0:
222,363,136002,5,2,0:0:0:0:
142,242,136202,1,2,0:0:0:0:
6,191,136402,1,8,0:0:0:0:
14,218,136802,1,2,0:0:0:0:
115,155,137002,1,2,0:0:0:0:
159,58,137202,1,2,0:0:0:0:
412,141,137602,6,0,P|381:234|379:360,1,215.999993408203,4|2,0:0|0:0,0:0:0:0:
255,216,138402,2,0,P|275:336|288:362,1,143.999995605469,8|0,0:0|0:0,0:0:0:0:
284,355,139202,5,2,0:0:0:0:
355,293,139402,1,2,0:2:0:0:
453,292,139602,1,0,0:0:0:0:
404,212,139802,1,2,0:0:0:0:
316,177,140002,2,0,P|293:176|233:183,1,71.9999978027344,8|2,0:0|0:0,0:0:0:0:
173,119,140402,2,0,P|183:62|194:31,1,71.9999978027344,12|0,0:0|0:0,0:0:0:0:
25,135,140802,6,0,P|66:195|99:338,1,215.999993408203,4|2,0:0|0:0,0:0:0:0:
232,205,141602,2,0,P|228:282|197:368,1,143.999995605469,8|0,0:0|0:0,0:0:0:0:
346,173,142402,5,2,0:0:0:0:
363,272,142602,1,2,0:2:0:0:
340,370,142802,1,0,0:0:0:0:
143,324,143202,1,8,0:0:0:0:
128,225,143402,1,2,0:0:0:0:
226,209,143602,1,10,0:0:0:0:
242,308,143802,1,2,0:0:0:0:
164,139,144002,6,0,P|218:121|388:109,1,215.999993408203,4|2,0:0|0:0,0:0:0:0:
457,268,144802,2,0,P|377:269|227:231,1,215.999993408203,8|0,0:0|0:0,0:0:0:0:
93,246,145602,6,0,P|101:294|111:333,1,71.9999978027344,2|2,0:0|0:2,0:0:0:0:
106,175,146002,2,0,P|98:223|88:262,1,71.9999978027344,0|2,0:0|0:0,0:0:0:0:
92,104,146402,2,0,P|100:152|110:191,1,71.9999978027344,8|2,0:0|0:0,0:0:0:0:
105,33,146802,2,0,P|97:81|87:120,1,71.9999978027344,12|0,0:0|0:0,0:0:0:0:
222,199,147202,6,0,P|275:151|435:164,1,215.999993408203,4|2,0:0|0:0,0:0:0:0:
308,318,148002,2,0,P|314:282|334:233,1,71.9999978027344,8|0,0:0|0:0,0:0:0:0:
160,280,148402,2,0,P|175:327|181:370,1,71.9999978027344,0|0,0:0|0:0,0:0:0:0:
16,285,148802,5,2,0:0:0:0:
32,192,149002,1,2,0:2:0:0:
32,98,149202,1,0,0:0:0:0:
249,40,149602,1,8,0:0:0:0:
216,127,149802,1,0,0:0:0:0:
250,214,150002,1,8,0:0:0:0:
198,292,150202,1,0,0:0:0:0:
301,369,150402,6,0,P|345:368|389:373,1,71.9999978027344,6|0,0:0|0:0,0:0:0:0:
466,374,150802,1,0,0:0:0:0:
389,247,151002,1,8,0:0:0:0:
487,116,151202,1,8,0:0:0:0:
476,208,151402,1,0,0:0:0:0:
389,247,151602,5,6,0:0:0:0:
406,154,151802,1,0,0:0:0:0:
487,116,152002,1,0,0:0:0:0:
479,252,152202,1,8,0:0:0:0:
365,339,152402,1,8,0:0:0:0:
316,259,152602,1,0,0:0:0:0:
232,216,152802,1,12,0:0:0:0:
106,310,153002,1,8,0:0:0:0:
81,144,153202,1,12,0:0:0:0:
149,219,153402,5,8,0:0:0:0:
149,219,153602,1,12,0:0:0:0:
256,192,153702,12,0,156802,2:0:0:0:
