osu file format v14

[General]
AudioFilename: audio.mp3
AudioLeadIn: 0
PreviewTime: 60902
Countdown: 0
SampleSet: Normal
StackLeniency: 0.4
Mode: 0
LetterboxInBreaks: 0
WidescreenStoryboard: 0

[Editor]
Bookmarks: 41602,44802,48002,60802,72202,73602,86402,99202,112002,124802,137602,153602
DistanceSpacing: 0.9
BeatDivisor: 2
GridSize: 8
TimelineZoom: 2

[Metadata]
Title:Here Comes Vi
TitleUnicode:Here Comes Vi
Artist:Nicki Taylor
ArtistUnicode:Nicki Taylor
Creator:TheMefisto
Version:Normal
Source:League of Legends
Tags:riffy bakari riot games lol intro login screen
BeatmapID:1929141
BeatmapSetID:922887

[Difficulty]
HPDrainRate:3.5
CircleSize:3.3
OverallDifficulty:4.5
ApproachRate:5
SliderMultiplier:1.1
SliderTickRate:1

[Events]
//Background and Video events
0,0,"bgwp.jpg",0,0
//Break Periods
2,73805,85202
//Storyboard Layer 0 (Background)
//Storyboard Layer 1 (Fail)
//Storyboard Layer 2 (Pass)
//Storyboard Layer 3 (Foreground)
//Storyboard Sound Samples

[TimingPoints]
3202,400,4,1,1,30,1,0
3202,-100,4,1,1,30,0,0
16002,-100,4,1,1,50,0,0
28802,-100,4,1,1,50,0,0
41602,-100,4,1,1,35,0,0
43202,-100,4,1,1,40,0,0
44802,-100,4,1,1,40,0,0
45602,-100,4,1,1,45,0,0
46402,-100,4,1,1,50,0,0
47202,-100,4,1,1,60,0,0
48002,-100,4,1,1,65,0,0
48202,-100,4,1,1,40,0,0
60202,-100,4,1,1,65,0,0
60802,-100,4,1,1,75,0,1
73175,400,4,1,1,55,1,1
73175,-100,4,1,1,55,0,1
73605,400,4,2,1,30,1,0
73605,-100,4,2,1,30,0,0
75178,400,4,2,1,30,1,0
75178,-100,4,2,1,30,0,0
86402,400,4,1,1,60,1,0
86402,-100,4,1,1,60,0,0
98202,-100,4,1,1,62,0,0
98402,-100,4,1,1,64,0,0
98602,-100,4,1,1,66,0,0
98802,-100,4,1,1,68,0,0
99002,-100,4,1,1,70,0,0
99202,-100,4,1,1,60,0,0
112002,-100,4,1,1,40,0,0
124202,-100,4,1,1,65,0,0
124802,-100,4,1,1,75,0,1
137202,-100,4,1,1,55,0,1
137602,-100,4,1,1,60,0,0
156802,-100,4,1,1,20,0,0

[Colours]
Combo1 : 247,236,100
Combo2 : 232,126,250
Combo3 : 111,175,255
Combo4 : 181,11,36

[HitObjects]
116,51,3202,6,0,P|99:101|107:167,1,110,2|2,0:0|0:0,0:0:0:0:
175,225,4002,2,0,P|226:207|281:212,1,110,2|2,0:0|0:0,0:0:0:0:
369,258,4802,2,0,L|376:320,2,55,2|0|2,0:0|0:0|0:0,0:0:0:0:
397,217,5402,1,0,0:0:0:0:
422,174,5602,2,0,L|428:119,2,55,2|0|2,0:0|0:0|0:0,0:0:0:0:
509,220,6402,6,0,P|492:286|415:329,1,110,2|2,0:2|0:0,0:0:0:0:
371,280,7202,2,0,P|322:255|262:259,1,110,2|2,0:0|0:0,0:0:0:0:
199,328,8002,2,0,L|201:383,2,55,2|0|2,0:0|0:0|0:0,0:0:0:0:
162,294,8602,1,0,0:0:0:0:
135,251,8802,2,0,L|137:196,2,55,2|0|2,0:0|0:0|0:0,0:0:0:0:
40,221,9602,6,0,L|46:106,1,110,2|2,0:2|0:0,0:0:0:0:
114,39,10402,2,0,P|183:31|260:41,1,110,2|2,0:2|0:0,0:0:0:0:
264,123,11202,2,0,P|258:147|264:189,2,55,2|0|2,0:2|0:0|0:2,0:0:0:0:
308,101,11802,1,0,0:0:0:0:
343,66,12002,2,0,P|345:38|339:12,2,55,2|0|2,0:2|0:0|0:2,0:0:0:0:
431,111,12802,6,0,B|450:162|450:162|434:217,1,110,2|2,0:2|0:0,0:0:0:0:
350,163,13602,2,0,B|331:214|331:214|345:267,1,110,2|2,0:2|0:0,0:0:0:0:
428,321,14402,2,0,L|501:310,2,55,2|0|2,0:2|0:0|0:2,0:0:0:0:
390,353,15002,1,0,0:0:0:0:
343,368,15202,2,0,L|231:355,1,110,2|10,0:2|0:2,0:0:0:0:
185,346,15802,1,10,0:2:0:0:
138,329,16002,6,0,P|85:345|18:329,1,110,4|2,0:0|0:0,0:0:0:0:
5,240,16802,1,2,0:2:0:0:
79,172,17202,2,0,P|81:144|76:117,1,55,2|0,0:0|0:0,0:0:0:0:
40,83,17602,2,0,P|101:88|157:61,1,110,2|2,0:2|0:0,0:0:0:0:
178,32,18202,2,0,P|238:11|304:28,1,110,2|0,0:2|0:0,0:0:0:0:
313,56,18802,1,2,0:0:0:0:
245,128,19202,6,0,L|251:255,1,110,2|2,0:2|0:0,0:0:0:0:
317,310,20002,1,2,0:2:0:0:
390,371,20402,2,0,L|460:362,1,55,2|0,0:0|0:0,0:0:0:0:
490,344,20802,2,0,P|471:293|486:219,1,110,2|2,0:2|0:0,0:0:0:0:
506,198,21402,2,0,P|511:143|492:92,1,110,2|0,0:2|0:0,0:0:0:0:
456,59,22002,1,2,0:0:0:0:
357,50,22402,6,0,L|235:71,1,110,2|2,0:2|0:0,0:0:0:0:
160,114,23202,1,2,0:2:0:0:
75,62,23602,2,0,P|61:93|64:133,1,55,2|0,0:0|0:0,0:0:0:0:
75,160,24002,2,0,P|99:214|67:272,1,110,2|2,0:2|0:0,0:0:0:0:
51,298,24602,2,0,L|162:303,1,110,2|0,0:2|0:0,0:0:0:0:
204,326,25202,1,2,0:0:0:0:
257,242,25602,6,0,B|273:188|273:188|257:126,1,110,2|2,0:2|0:0,0:0:0:0:
173,185,26402,1,2,0:2:0:0:
103,114,26802,2,0,P|102:77|107:53,1,55,2|0,0:0|0:0,0:0:0:0:
146,31,27202,2,0,L|278:25,1,110,2|2,0:2|0:0,0:0:0:0:
302,42,27802,2,0,P|353:57|424:31,1,110,2|2,0:2|0:0,0:0:0:0:
456,46,28402,2,0,L|454:108,1,55,10|10,0:2|0:2,0:0:0:0:
470,147,28802,6,0,P|414:139|360:156,1,110,4|8,0:0|0:0,0:0:0:0:
301,230,29602,1,2,0:2:0:0:
342,320,30002,1,8,0:0:0:0:
440,324,30402,2,0,P|479:287|494:235,2,110,2|8|0,0:2|0:0|0:0,0:0:0:0:
396,234,31602,2,0,P|394:204|398:179,1,55,8|0,0:0|0:0,0:0:0:0:
422,136,32002,6,0,P|366:152|315:141,1,110,2|8,0:2|0:0,0:0:0:0:
362,53,32802,2,0,P|418:37|468:47,1,110,2|8,0:2|0:0,0:0:0:0:
422,136,33602,2,0,L|419:213,1,55,2|0,0:2|0:0,0:0:0:0:
464,212,34002,2,0,L|461:289,1,55,8|2,0:0|0:2,0:0:0:0:
496,302,34402,1,0,0:0:0:0:
422,368,34802,1,8,0:0:0:0:
340,312,35202,6,0,P|287:300|236:320,1,110,2|8,0:2|0:0,0:0:0:0:
152,372,36002,1,2,0:2:0:0:
61,332,36402,2,0,L|69:257,1,55,8|0,0:0|0:0,0:0:0:0:
90,233,36802,2,0,L|78:123,2,110,2|8|0,0:2|0:0|0:0,0:0:0:0:
187,252,38002,1,8,0:0:0:0:
230,163,38402,6,0,P|255:151|305:154,1,55,2|0,0:2|0:0,0:0:0:0:
329,163,38802,2,0,P|356:163|402:142,1,55,8|0,0:0|0:0,0:0:0:0:
409,113,39202,1,2,0:2:0:0:
337,44,39602,1,8,0:0:0:0:
238,53,40002,2,0,P|196:67|127:50,1,110,2|8,0:2|0:0,0:0:0:0:
88,32,40602,2,0,P|98:86|59:166,1,110,2|8,0:2|3:0,0:0:0:0:
40,164,41202,2,0,L|42:229,1,55,8|8,3:0|3:0,0:0:0:0:
256,192,41602,12,2,44402,0:2:0:0:
256,192,44802,12,12,48002,0:0:0:0:
97,348,49602,6,0,P|86:322|85:295,1,55,2|0,0:2|0:0,0:0:0:0:
105,250,50002,1,0,0:0:0:0:
147,225,50202,2,0,P|204:246|267:217,1,110,2|0,0:2|0:0,0:0:0:0:
286,200,50802,1,0,0:0:0:0:
353,272,51202,6,0,P|344:300|351:344,1,55,2|0,0:2|0:0,0:0:0:0:
384,355,51602,2,0,L|438:351,1,55,0|0,0:0|0:0,0:0:0:0:
484,332,52002,1,2,0:2:0:0:
460,235,52402,2,0,L|463:179,1,55,0|0,0:0|0:0,0:0:0:0:
440,136,52802,1,2,0:2:0:0:
396,111,53002,2,0,P|334:117|280:93,2,110,0|2|0,0:0|0:2|0:0,0:0:0:0:
406,62,54002,2,0,P|427:46|466:34,1,55,0|2,0:0|0:0,0:0:0:0:
503,36,54402,5,2,0:2:0:0:
510,134,54802,2,0,P|506:188|475:232,2,110,0|2|0,0:0|0:2|0:0,0:0:0:0:
413,155,56002,2,0,L|328:162,1,55,2|0,0:2|0:0,0:0:0:0:
319,190,56402,1,0,0:0:0:0:
305,237,56602,2,0,P|308:311|281:365,1,110,2|0,0:2|0:0,0:0:0:0:
251,367,57202,1,0,0:0:0:0:
167,314,57602,5,2,0:2:0:0:
75,350,58002,1,0,0:0:0:0:
9,275,58402,1,2,0:2:0:0:
43,182,58802,2,0,L|36:119,1,55,0|0,0:0|0:0,0:0:0:0:
33,77,59202,1,2,0:2:0:0:
36,27,59402,2,0,P|93:14|148:33,1,110,0|2,0:0|0:2,0:0:0:0:
210,100,60202,1,8,0:2:0:0:
232,144,60402,2,0,L|225:217,1,55,8|8,0:2|0:2,0:0:0:0:
192,234,60802,5,4,0:0:0:0:
246,316,61202,2,0,P|277:312|314:324,1,55,8|0,0:0|0:0,0:0:0:0:
334,352,61602,2,0,P|360:357|387:353,1,55,2|0,0:2|0:0,0:0:0:0:
434,336,62002,1,8,0:0:0:0:
491,255,62402,2,0,L|494:200,1,55,2|0,2:0|0:0,0:0:0:0:
473,155,62802,1,8,0:0:0:0:
424,163,63002,2,0,P|376:172|314:159,1,110,2|0,2:0|0:0,0:0:0:0:
300,113,63602,2,0,P|307:83|287:34,1,55,8|0,0:0|0:0,0:0:0:0:
258,36,64002,5,2,0:2:0:0:
173,87,64402,2,0,L|179:142,1,55,8|0,0:0|0:0,0:0:0:0:
219,170,64802,2,0,L|213:225,1,55,2|0,0:2|0:0,0:0:0:0:
176,258,65202,1,8,0:0:0:0:
210,350,65602,2,0,P|240:354|264:344,1,55,2|0,0:2|0:0,0:0:0:0:
303,316,66002,1,8,0:0:0:0:
332,276,66202,2,0,P|320:217|333:161,1,110,2|0,0:2|0:0,0:0:0:0:
370,140,66802,1,8,0:0:0:0:
434,65,67202,5,4,0:0:0:0:
342,28,67602,2,0,B|311:24|311:24|274:36,1,55,8|0,0:0|0:0,0:0:0:0:
253,65,68002,2,0,L|246:136,1,55,2|0,0:2|0:0,0:0:0:0:
209,151,68402,1,8,0:0:0:0:
117,114,68802,2,0,L|122:59,1,55,2|0,0:2|0:0,0:0:0:0:
98,15,69202,1,8,0:0:0:0:
48,8,69402,2,0,P|14:52|9:106,1,110,2|0,0:2|0:0,0:0:0:0:
36,147,70002,2,0,P|39:174|32:200,1,55,8|0,0:0|0:0,0:0:0:0:
21,248,70402,6,0,L|79:268,1,55,2|0,0:2|0:0,0:0:0:0:
120,252,70802,1,8,0:0:0:0:
209,294,71202,1,2,0:2:0:0:
292,241,71602,2,0,L|369:250,1,55,8|0,0:0|0:0,0:0:0:0:
385,278,72002,2,0,P|400:303|394:352,2,55,2|2|8,0:0|0:0|0:0,0:0:0:0:
305,338,72802,2,0,L|221:348,1,55,2|2,0:0|0:0,0:0:0:0:
209,364,73175,2,0,L|154:357,1,55,2|2,0:0|0:0,0:0:0:0:
115,325,73605,5,4,0:1:0:0:
154,148,86402,6,0,P|203:165|234:234,1,110,4|0,0:0|0:0,0:0:0:0:
213,258,87002,1,2,0:0:0:0:
174,289,87202,2,0,L|36:306,1,110,8|0,0:0|0:0,0:0:0:0:
15,216,88002,2,0,P|7:164|12:84,1,110,2|0,0:0|0:0,0:0:0:0:
33,63,88602,1,2,0:0:0:0:
82,65,88802,2,0,P|111:76|148:70,1,55,8|2,0:0|0:0,0:0:0:0:
183,63,89202,1,12,0:0:0:0:
277,33,89602,6,0,B|333:22|333:22|401:41,1,110,4|0,0:0|0:0,0:0:0:0:
423,66,90202,1,2,0:0:0:0:
414,114,90402,2,0,P|402:180|423:247,1,110,8|0,0:0|0:0,0:0:0:0:
440,315,91202,2,0,L|309:307,1,110,2|0,0:0|0:0,0:0:0:0:
295,272,91802,1,2,0:0:0:0:
267,230,92002,2,0,L|278:168,2,55,12|4|4,0:0|0:3|0:3,0:0:0:0:
218,237,92602,1,8,0:0:0:0:
170,251,92802,6,0,P|125:219|106:168,1,110,4|0,0:0|0:0,0:0:0:0:
118,120,93402,1,2,0:0:0:0:
135,74,93602,2,0,L|-3:91,1,110,8|0,0:0|0:0,0:0:0:0:
10,185,94402,2,0,L|4:300,1,110,2|0,0:0|0:0,0:0:0:0:
13,343,95002,1,2,0:0:0:0:
58,361,95202,2,0,L|126:364,1,55,8|2,0:0|0:0,0:0:0:0:
159,346,95602,1,12,0:0:0:0:
150,247,96002,6,0,B|138:195|138:195|176:132,1,110,4|0,0:0|0:0,0:0:0:0:
216,136,96602,1,2,0:0:0:0:
262,151,96802,2,0,P|318:158|371:122,1,110,8|0,0:0|0:0,0:0:0:0:
298,57,97602,2,0,P|345:30|398:38,1,110,2|0,0:0|0:0,0:0:0:0:
463,113,98402,2,0,L|459:192,1,55,10|2,0:0|0:0,0:0:0:0:
425,203,98802,2,0,L|421:282,1,55,10|2,0:0|0:0,0:0:0:0:
451,298,99202,6,0,P|397:289|307:326,1,110,4|0,0:0|0:0,0:0:0:0:
310,337,99802,1,2,0:0:0:0:
269,365,100002,2,0,P|215:377|161:368,1,110,8|0,0:0|0:0,0:0:0:0:
76,317,100802,2,0,P|71:285|85:243,1,55,2|2,0:0|0:2,0:0:0:0:
104,223,101202,2,0,L|179:212,2,55,0|0|8,0:0|0:0|0:0,0:0:0:0:
72,184,101802,1,2,0:0:0:0:
46,141,102002,1,8,0:0:0:0:
49,42,102402,6,0,P|78:31|111:35,1,55,4|0,0:0|0:0,0:0:0:0:
146,66,102802,2,0,P|175:77|208:73,1,55,0|2,0:0|0:0,0:0:0:0:
242,38,103202,1,8,0:0:0:0:
335,64,103602,2,0,L|415:58,1,55
428,28,104002,2,0,P|421:90|450:165,1,110,2|0,0:0|0:0,0:0:0:0:
464,173,104602,1,2,0:0:0:0:
502,203,104802,1,8,0:0:0:0:
438,278,105202,2,0,P|411:276|383:282,1,55,12|2,0:0|0:0,0:0:0:0:
350,317,105602,6,0,P|300:341|245:340,1,110,4|0,0:0|0:0,0:0:0:0:
206,311,106202,1,2,0:0:0:0:
192,263,106402,2,0,L|189:185,1,55,8|0,0:0|0:0,0:0:0:0:
170,162,106802,1,0,0:0:0:0:
104,87,107202,2,0,L|106:32,2,55,2|2|0,0:0|0:2|0:0,0:0:0:0:
85,133,107802,1,2,0:0:0:0:
66,179,108002,1,8,0:0:0:0:
98,272,108402,2,0,P|105:310|95:346,1,55,0|0,0:0|0:0,0:0:0:0:
68,362,108802,6,0,L|180:358,1,110,4|0,0:0|0:0,0:0:0:0:
222,337,109402,1,2,0:0:0:0:
244,292,109602,2,0,L|237:219,2,55,8|0|0,0:0|0:0|0:0,0:0:0:0:
332,336,110402,2,0,P|388:345|457:314,1,110,2|0,0:0|0:0,0:0:0:0:
483,242,111202,2,0,P|490:206|485:174,1,55,10|2,0:0|0:0,0:0:0:0:
441,171,111602,2,0,P|434:135|439:103,1,55,10|2,0:0|0:0,0:0:0:0:
469,80,112002,5,4,0:0:0:0:
387,24,112402,2,0,P|336:11|276:29,2,110,0|2|0,0:0|0:2|0:0,0:0:0:0:
337,109,113602,2,0,P|325:135|324:161,1,55,2|0,0:2|0:0,0:0:0:0:
357,198,114002,1,0,0:0:0:0:
384,239,114202,2,0,P|324:244|265:263,1,110,2|0,0:2|0:0,0:0:0:0:
249,299,114802,1,0,0:0:0:0:
177,367,115202,6,0,L|113:374,1,55,2|0,0:2|0:0,0:0:0:0:
88,337,115602,2,0,L|33:331,1,55,0|0,0:0|0:0,0:0:0:0:
17,284,116002,1,2,0:2:0:0:
71,201,116402,2,0,L|76:138,1,55,0|0,0:0|0:0,0:0:0:0:
110,111,116802,1,2,0:2:0:0:
158,120,117002,2,0,P|196:162|272:187,2,110,0|2|0,0:0|0:2|0:0,0:0:0:0:
182,77,118002,2,0,L|237:40,1,55,0|2,0:0|0:0,0:0:0:0:
277,43,118402,5,2,0:2:0:0:
355,102,118802,2,0,L|346:245,2,110,0|2|0,0:0|0:2|0:0,0:0:0:0:
414,22,120002,2,0,P|446:13|468:17,1,55,2|0,0:2|0:0,0:0:0:0:
493,59,120402,1,0,0:0:0:0:
475,105,120602,2,0,P|461:152|472:235,1,110,2|0,0:2|0:0,0:0:0:0:
484,257,121202,1,0,0:0:0:0:
438,344,121602,5,2,0:2:0:0:
341,320,122002,1,0,0:0:0:0:
315,224,122402,1,2,0:2:0:0:
355,133,122802,2,0,P|325:125|286:129,1,55,0|0,0:0|0:0,0:0:0:0:
253,139,123202,1,2,0:2:0:0:
213,169,123402,2,0,P|156:182|101:163,1,110,0|2,0:0|0:2,0:0:0:0:
38,96,124202,1,8,0:2:0:0:
11,137,124402,2,0,L|7:191,1,55,8|8,0:2|0:2,0:0:0:0:
29,236,124802,5,4,0:0:0:0:
3,331,125202,2,0,P|34:335|71:323,1,55,8|0,0:0|0:0,0:0:0:0:
101,307,125602,2,0,P|128:302|154:307,1,55,2|0,0:2|0:0,0:0:0:0:
198,331,126002,1,8,0:0:0:0:
278,273,126402,2,0,P|275:243|281:218,1,55,2|0,0:2|0:0,0:0:0:0:
322,192,126802,1,8,0:0:0:0:
365,168,127002,2,0,P|374:120|361:58,1,110,2|0,0:2|0:0,0:0:0:0:
321,33,127602,2,0,L|251:31,1,55,8|0,0:0|0:0,0:0:0:0:
217,21,128002,5,2,0:2:0:0:
155,98,128402,2,0,P|150:133|156:154,1,55,8|0,0:0|0:0,0:0:0:0:
200,172,128802,2,0,L|254:173,1,55,2|0,0:2|0:0,0:0:0:0:
297,147,129202,1,8,0:0:0:0:
393,124,129602,2,0,P|397:150|391:179,1,55,2|0,0:2|0:0,0:0:0:0:
365,220,130002,1,8,0:0:0:0:
333,258,130202,2,0,L|451:262,1,110,2|0,0:2|0:0,0:0:0:0:
485,286,130802,1,8,0:0:0:0:
440,374,131202,5,2,0:2:0:0:
344,346,131602,2,0,B|275:350,1,55,8|0,0:0|0:0,0:0:0:0:
256,311,132002,2,0,B|201:314,1,55,2|0,0:2|0:0,0:0:0:0:
162,282,132402,1,8,0:0:0:0:
225,205,132802,2,0,B|279:201,1,55,2|0,0:2|0:0,0:0:0:0:
316,168,133202,1,8,0:0:0:0:
347,129,133402,2,0,B|338:73|338:73|301:33,1,110,2|0,0:2|0:0,0:0:0:0:
256,53,134002,2,0,P|229:56|203:49,1,55,8|0,0:0|0:0,0:0:0:0:
159,23,134402,6,0,L|90:22,1,55,2|0,0:2|0:0,0:0:0:0:
56,34,134802,1,8,0:0:0:0:
22,127,135202,1,2,0:2:0:0:
68,214,135602,2,0,L|64:292,1,55,8|0,0:0|0:0,0:0:0:0:
27,301,136002,2,0,L|29:355,2,55,2|2|8,0:0|0:0|0:0,0:0:0:0:
118,339,136802,2,0,P|144:348|202:339,1,55,2|2,0:0|0:0,0:0:0:0:
197,306,137202,2,0,P|224:305|250:296,1,55,2|2,0:0|0:0,0:0:0:0:
267,249,137602,6,0,P|325:225|374:185,1,110,4|0,0:0|0:0,0:0:0:0:
365,148,138202,1,2,0:0:0:0:
373,99,138402,2,0,P|403:57|485:39,1,110,8|0,0:0|0:0,0:0:0:0:
464,135,139202,2,0,L|470:246,1,110,2|0,0:0|0:0,0:0:0:0:
454,291,139802,1,2,0:0:0:0:
434,336,140002,2,0,P|406:352|373:350,1,55,8|2,0:0|0:0,0:0:0:0:
336,338,140402,1,12,0:0:0:0:
247,294,140802,6,0,B|220:235|258:186,1,110,4|0,0:0|0:0,0:0:0:0:
296,161,141402,1,2,0:0:0:0:
334,130,141602,2,0,B|360:71|323:22,1,110,8|0,0:0|0:0,0:0:0:0:
247,86,142402,2,0,L|116:78,1,110,2|0,0:0|0:0,0:0:0:0:
92,100,143002,1,2,0:0:0:0:
59,132,143202,2,0,P|31:130|4:135,2,55,8|2|10,0:0|0:0|0:0,0:0:0:0:
79,177,143802,1,2,0:0:0:0:
103,220,144002,6,0,P|149:251|214:258,1,110,4|0,0:0|0:0,0:0:0:0:
246,237,144602,1,2,0:0:0:0:
291,257,144802,2,0,P|292:323|304:366,1,110,8|0,0:0|0:0,0:0:0:0:
402,361,145602,2,0,P|450:379|507:364,1,110,2|0,0:0|0:0,0:0:0:0:
505,315,146202,1,2,0:0:0:0:
478,273,146402,2,0,P|474:241|481:205,1,55,8|2,0:0|0:0,0:0:0:0:
503,176,146802,1,12,0:0:0:0:
448,93,147202,6,0,B|384:113|324:58,1,110,4|0,0:0|0:0,0:0:0:0:
303,45,147802,1,2,0:0:0:0:
259,20,148002,2,0,B|196:0|156:39,1,110,8|0,0:0|0:0,0:0:0:0:
151,137,148802,2,0,B|140:192|140:192|155:272,1,110,2|0,0:0|0:0,0:0:0:0:
248,256,149602,2,0,L|239:202,1,55,8|0,0:0|0:0,0:0:0:0:
275,167,150002,2,0,L|266:113,1,55,8|0,0:0|0:0,0:0:0:0:
251,65,150402,6,0,P|203:46|120:47,1,110,6|0,0:0|0:0,0:0:0:0:
99,61,151002,1,8,0:0:0:0:
66,98,151202,1,8,0:0:0:0:
130,172,151602,6,0,P|149:220|148:303,1,110,6|0,0:0|0:0,0:0:0:0:
134,324,152202,1,8,0:0:0:0:
97,357,152402,1,8,0:0:0:0:
25,289,152802,6,0,P|16:256|24:216,1,55,12|8,0:0|0:0,0:0:0:0:
33,188,153202,2,0,P|41:161|40:134,1,55,12|8,0:0|0:0,0:0:0:0:
25,87,153602,5,12,0:0:0:0:
256,192,153802,12,0,156802,2:0:0:0:
