osu file format v14

[General]
AudioFilename: audio.mp3
AudioLeadIn: 0
PreviewTime: 60902
Countdown: 0
SampleSet: Normal
StackLeniency: 0.4
Mode: 0
LetterboxInBreaks: 0
WidescreenStoryboard: 0

[Editor]
Bookmarks: 41602,44802,48002,60802,73602,86402,99202,112002,124802,137602,153602
DistanceSpacing: 0.2
BeatDivisor: 4
GridSize: 8
TimelineZoom: 3.599998

[Metadata]
Title:Here Comes Vi
TitleUnicode:Here Comes Vi
Artist:Nicki Taylor
ArtistUnicode:Nicki Taylor
Creator:TheMefisto
Version:Insane
Source:League of Legends
Tags:riffy bakari riot games lol intro login screen
BeatmapID:1927245
BeatmapSetID:922887

[Difficulty]
HPDrainRate:6
CircleSize:4.2
OverallDifficulty:8.6
ApproachRate:9
SliderMultiplier:1.9
SliderTickRate:1

[Events]
//Background and Video events
0,0,"bgwp.jpg",0,0
//Break Periods
//Storyboard Layer 0 (Background)
//Storyboard Layer 1 (Fail)
//Storyboard Layer 2 (Pass)
//Storyboard Layer 3 (Foreground)
//Storyboard Sound Samples

[TimingPoints]
3202,400,4,1,1,30,1,0
3202,-133.333333333333,4,1,1,30,0,0
16002,-117.647058823529,4,1,1,50,0,0
28802,-111.111111111111,4,1,1,50,0,0
41602,-111.111111111111,4,1,1,35,0,0
43202,-111.111111111111,4,1,1,40,0,0
44802,-111.111111111111,4,1,1,40,0,0
45602,-111.111111111111,4,1,1,45,0,0
46402,-111.111111111111,4,1,1,50,0,0
47202,-111.111111111111,4,1,1,60,0,0
48002,-111.111111111111,4,1,1,65,0,0
48202,-125,4,1,1,40,0,0
60202,-125,4,1,1,65,0,0
60802,-100,4,1,1,75,0,1
73175,400,4,1,1,55,1,1
73175,-100,4,1,1,55,0,1
73605,400,4,2,1,30,1,0
73605,-142.857142857143,4,2,1,30,0,0
75178,400,4,2,1,30,1,0
75178,-142.857142857143,4,2,1,30,0,0
86402,400,4,1,1,60,1,0
86402,-111.111111111111,4,1,1,60,0,0
98202,-111.111111111111,4,1,1,62,0,0
98402,-111.111111111111,4,1,1,64,0,0
98602,-111.111111111111,4,1,1,66,0,0
98802,-111.111111111111,4,1,1,68,0,0
99002,-111.111111111111,4,1,1,70,0,0
99202,-111.111111111111,4,1,1,60,0,0
112002,-125,4,1,1,40,0,0
124202,-125,4,1,1,65,0,0
124802,-100,4,1,1,75,0,1
136802,-100,4,1,1,65,0,1
137202,-100,4,1,1,55,0,1
137602,-111.111111111111,4,1,1,60,0,0
156802,-111.111111111111,4,1,1,20,0,0

[Colours]
Combo1 : 247,236,100
Combo2 : 232,126,250
Combo3 : 111,175,255
Combo4 : 181,11,36

[HitObjects]
215,272,3202,6,0,P|181:282|154:306,1,71.2500027179719,2|0,0:0|0:0,0:0:0:0:
246,192,3602,2,0,P|211:184|176:191,1,71.2500027179719,2|0,0:0|0:0,0:0:0:0:
312,138,4002,2,0,P|286:113|252:103,1,71.2500027179719,2|0,0:0|0:0,0:0:0:0:
396,124,4402,2,0,P|385:90|361:63,1,71.2500027179719,2|0,0:0|0:0,0:0:0:0:
364,211,4802,5,2,0:0:0:0:
488,132,5002,1,0,0:0:0:0:
361,63,5202,2,0,L|272:75,1,71.2500027179719,2|0,0:0|0:0,0:0:0:0:
181,167,5602,2,0,L|270:179,1,71.2500027179719,2|0,0:0|0:0,0:0:0:0:
361,271,6002,1,2,0:0:0:0:
232,315,6202,1,0,0:0:0:0:
441,343,6402,6,0,B|472:277|472:277|443:200,1,142.500005435944,2|2,0:2|0:0,0:0:0:0:
351,164,7002,1,0,0:0:0:0:
246,251,7202,2,0,L|237:324,1,71.2500027179719,2|0,0:0|0:0,0:0:0:0:
147,185,7602,2,0,L|155:258,1,71.2500027179719,2|0,0:0|0:0,0:0:0:0:
42,145,8002,5,2,0:0:0:0:
170,73,8202,1,0,0:0:0:0:
8,28,8402,1,2,0:0:0:0:
178,69,8602,1,0,0:0:0:0:
35,152,8802,2,0,L|40:236,1,71.2500027179719,2|0,0:0|0:0,0:0:0:0:
121,337,9202,2,0,L|125:265,1,71.2500027179719,2|0,0:0|0:0,0:0:0:0:
246,153,9602,6,0,B|318:126|318:181|384:156,1,142.500005435944,2|2,0:2|0:0,0:0:0:0:
279,245,10202,1,0,0:0:0:0:
330,362,10402,2,0,L|412:356,1,71.2500027179719,2|0,0:2|0:0,0:0:0:0:
495,272,10802,2,0,L|413:266,1,71.2500027179719,2|0,0:0|0:0,0:0:0:0:
279,245,11202,5,2,0:2:0:0:
432,181,11402,1,0,0:0:0:0:
315,317,11602,1,2,0:2:0:0:
473,344,11802,1,0,0:0:0:0:
347,193,12002,2,0,P|350:154|380:113,1,71.2500027179719,2|0,0:2|0:0,0:0:0:0:
454,277,12402,2,0,P|470:308|472:343,1,71.2500027179719,2|0,0:2|0:0,0:0:0:0:
255,357,12802,6,0,B|231:289|231:289|260:225,1,142.500005435944,2|2,0:2|0:0,0:0:0:0:
351,295,13402,1,0,0:0:0:0:
427,183,13602,2,0,L|357:189,1,71.2500027179719,2|0,0:2|0:0,0:0:0:0:
211,125,14002,2,0,L|282:131,1,71.2500027179719,2|0,0:0|0:0,0:0:0:0:
427,183,14402,5,2,0:2:0:0:
333,39,14602,1,0,0:0:0:0:
260,225,14802,2,0,L|263:296,1,71.2500027179719,2|0,0:2|0:0,0:0:0:0:
380,111,15202,1,2,0:2:0:0:
176,211,15402,1,10,0:2:0:0:
421,274,15602,1,10,0:2:0:0:
251,53,15802,1,10,0:2:0:0:
496,98,16002,6,0,L|490:181,1,80.750001540184,4|0,0:0|0:0,0:0:0:0:
344,288,16402,2,0,L|338:207,1,80.750001540184,2|0,0:0|0:0,0:0:0:0:
251,53,16802,1,2,0:2:0:0:
110,350,17202,1,2,0:0:0:0:
227,319,17402,1,0,0:0:0:0:
38,281,17602,6,0,P|13:326|13:367,1,80.750001540184,2|0,0:2|0:0,0:0:0:0:
150,259,18002,1,2,0:0:0:0:
26,110,18202,2,0,B|106:80|107:142|182:111,1,161.500003080368,2|0,0:2|0:0,0:0:0:0:
316,19,18802,1,2,0:0:0:0:
148,40,19002,1,0,0:0:0:0:
352,122,19202,6,0,L|456:114,1,80.750001540184,2|0,0:2|0:0,0:0:0:0:
271,234,19602,2,0,L|190:227,1,80.750001540184,2|0,0:0|0:0,0:0:0:0:
360,344,20002,1,2,0:2:0:0:
410,233,20202,1,0,0:0:0:0:
239,336,20402,1,2,0:0:0:0:
360,344,20602,1,0,0:0:0:0:
191,228,20802,6,0,P|156:227|113:248,1,80.750001540184,2|0,0:2|0:0,0:0:0:0:
239,336,21202,1,2,0:0:0:0:
252,158,21402,2,0,P|222:139|174:136,1,80.750001540184,2|2,0:2|0:0,0:0:0:0:
173,309,21802,1,0,0:0:0:0:
348,223,22002,1,2,0:0:0:0:
177,135,22202,1,0,0:0:0:0:
342,29,22402,6,0,L|337:109,1,80.750001540184,2|0,0:2|0:0,0:0:0:0:
181,215,22802,2,0,L|176:134,1,80.750001540184,2|0,0:0|0:0,0:0:0:0:
20,29,23202,1,2,0:2:0:0:
64,153,23402,1,0,0:0:0:0:
210,23,23602,1,2,0:0:0:0:
181,215,23802,1,0,0:0:0:0:
380,103,24002,6,0,L|479:112,1,80.750001540184,2|0,0:2|0:0,0:0:0:0:
511,253,24402,1,2,0:0:0:0:
286,192,24602,2,0,P|251:120|283:21,1,161.500003080368,2|0,0:2|0:0,0:0:0:0:
380,103,25202,1,2,0:0:0:0:
398,222,25402,1,0,0:0:0:0:
210,293,25602,6,0,L|128:286,1,80.750001540184,2|0,0:2|0:0,0:0:0:0:
6,185,26002,2,0,L|86:178,1,80.750001540184,2|0,0:0|0:0,0:0:0:0:
210,293,26402,1,2,0:2:0:0:
18,328,26602,1,0,0:0:0:0:
168,211,26802,2,0,P|175:182|162:130,1,80.750001540184,2|0,0:0|0:0,0:0:0:0:
14,11,27202,6,0,P|2:49|9:88,1,80.750001540184,2|0,0:2|0:0,0:0:0:0:
86,177,27602,1,2,0:0:0:0:
230,28,27802,2,0,L|318:36,1,80.750001540184,2|2,0:2|0:0,0:0:0:0:
411,223,28202,1,2,0:0:0:0:
174,345,28402,1,10,0:2:0:0:
136,80,28602,1,10,0:2:0:0:
77,362,28802,5,4,0:0:0:0:
213,141,29002,1,0,0:0:0:0:
353,298,29202,2,0,P|417:318|503:243,1,170.999994781494,8|2,0:0|0:2,0:0:0:0:
218,52,30002,1,8,0:0:0:0:
124,140,30202,1,0,0:0:0:0:
300,85,30402,6,0,P|305:42|291:2,1,85.4999973907472,2|0,0:2|0:0,0:0:0:0:
120,40,30802,1,8,0:0:0:0:
273,179,31002,2,0,P|355:166|396:94,1,170.999994781494,2|0,0:2|0:0,0:0:0:0:
218,52,31602,1,8,0:0:0:0:
128,240,31802,1,0,0:0:0:0:
140,75,32002,5,2,0:2:0:0:
199,286,32202,1,0,0:0:0:0:
23,150,32402,2,0,L|19:243,1,85.4999973907472,8|0,0:0|0:0,0:0:0:0:
200,171,32802,1,2,0:2:0:0:
141,382,33002,1,0,0:0:0:0:
308,235,33202,2,0,L|311:320,1,85.4999973907472,8|0,0:0|0:0,0:0:0:0:
485,236,33602,6,0,L|481:150,1,85.4999973907472,2|0,0:2|0:0,0:0:0:0:
442,27,34002,1,8,0:0:0:0:
277,139,34202,2,0,L|361:129,1,85.4999973907472,2|0,0:2|0:0,0:0:0:0:
442,27,34602,1,0,0:0:0:0:
402,213,34802,1,8,0:0:0:0:
325,42,35002,1,0,0:0:0:0:
225,253,35202,5,2,0:2:0:0:
361,129,35402,1,0,0:0:0:0:
161,198,35602,2,0,P|141:242|149:293,1,85.4999973907472,8|0,0:0|0:0,0:0:0:0:
226,377,36002,1,2,0:2:0:0:
454,230,36402,1,8,0:0:0:0:
503,348,36602,1,0,0:0:0:0:
315,242,36802,6,0,L|323:141,1,85.4999973907472,2|0,0:2|0:0,0:0:0:0:
455,80,37202,1,8,0:0:0:0:
399,294,37402,2,0,P|311:341|232:293,1,170.999994781494,2|0,0:2|0:0,0:0:0:0:
184,206,38002,2,0,P|143:195|88:213,1,85.4999973907472,8|0,0:0|0:0,0:0:0:0:
133,365,38402,6,0,L|140:279,1,85.4999973907472,2|0,0:2|0:0,0:0:0:0:
36,142,38802,1,8,0:0:0:0:
184,206,39002,1,0,0:0:0:0:
62,319,39202,1,2,0:2:0:0:
222,355,39402,1,0,0:0:0:0:
269,189,39602,2,0,P|253:149|219:124,1,85.4999973907472,8|0,0:0|0:0,0:0:0:0:
58,233,40002,6,0,L|61:327,1,85.4999973907472,2|0,0:2|0:0,0:0:0:0:
184,206,40402,1,8,0:0:0:0:
304,361,40602,2,0,L|391:353,1,85.4999973907472,2|0,0:2|0:0,0:0:0:0:
492,213,41002,1,8,3:0:0:0:
496,174,41102,1,8,3:0:0:0:
475,141,41202,1,8,3:0:0:0:
308,113,41402,1,8,3:0:0:0:
304,152,41502,1,8,3:0:0:0:
326,188,41602,6,0,L|411:195,1,85.4999973907472,6|0,0:3|0:0,0:0:0:0:
415,194,41902,1,0,0:0:0:0:
419,192,42002,1,0,0:0:0:0:
485,52,42202,2,0,L|442:57,1,42.7499986953736
308,113,42402,1,0,0:0:0:0:
291,115,42502,1,0,0:0:0:0:
274,117,42602,1,0,0:0:0:0:
257,120,42702,1,0,0:0:0:0:
240,122,42802,2,0,L|237:232,1,85.4999973907472,2|0,0:2|0:0,0:0:0:0:
109,367,43202,6,0,L|106:281,1,85.4999973907472
105,277,43502,1,0,0:0:0:0:
103,273,43602,1,0,0:0:0:0:
25,137,43802,2,0,L|23:205,1,42.7499986953736
170,198,44002,1,0,0:0:0:0:
187,200,44102,1,0,0:0:0:0:
204,202,44202,1,0,0:0:0:0:
221,205,44302,1,0,0:0:0:0:
238,207,44402,2,0,L|240:121,1,85.4999973907472,2|0,0:2|0:0,0:0:0:0:
115,43,44802,5,8,0:2:0:0:
90,45,44902,1,0,0:0:0:0:
71,60,45002,1,0,0:0:0:0:
66,83,45102,1,0,0:0:0:0:
69,107,45202,1,8,0:2:0:0:
85,124,45302,1,0,0:0:0:0:
108,127,45402,1,0,0:0:0:0:
130,118,45502,1,0,0:0:0:0:
154,92,45602,5,8,0:2:0:0:
187,77,45702,1,0,0:0:0:0:
223,78,45802,1,0,0:0:0:0:
256,92,45902,1,0,0:0:0:0:
279,119,46002,1,8,0:2:0:0:
288,154,46102,1,0,0:0:0:0:
278,189,46202,1,0,0:0:0:0:
250,212,46302,1,0,0:0:0:0:
202,200,46402,5,8,0:2:0:0:
176,158,46502,1,0,0:0:0:0:
186,110,46602,1,8,0:2:0:0:
223,78,46702,1,0,0:0:0:0:
271,73,46802,1,8,0:2:0:0:
312,97,46902,1,0,0:0:0:0:
330,141,47002,1,8,0:2:0:0:
333,189,47102,1,0,0:0:0:0:
308,230,47202,5,8,0:2:0:0:
277,282,47302,1,0,0:0:0:0:
295,339,47402,1,8,0:2:0:0:
350,362,47502,1,0,0:0:0:0:
406,341,47602,1,8,0:2:0:0:
424,283,47702,1,0,0:0:0:0:
392,231,47802,1,8,0:2:0:0:
406,172,47902,1,0,0:0:0:0:
460,144,48002,5,12,0:0:0:0:
350,290,48202,1,0,0:0:0:0:
335,112,48402,1,0,0:0:0:0:
469,220,48602,1,0,0:0:0:0:
300,205,48802,1,2,0:2:0:0:
422,74,49002,1,0,0:0:0:0:
301,218,49202,1,0,0:0:0:0:
220,66,49402,1,0,0:0:0:0:
154,226,49602,6,0,L|158:322,1,76,2|0,0:2|0:0,0:0:0:0:
223,143,50002,1,0,0:0:0:0:
14,53,50202,2,0,L|21:222,1,152,2|0,0:2|0:0,0:0:0:0:
129,304,50802,1,0,0:0:0:0:
144,147,51002,1,0,0:0:0:0:
212,306,51202,6,0,L|131:315,1,76,2|0,0:2|0:0,0:0:0:0:
226,198,51602,1,0,0:0:0:0:
309,350,51802,1,0,0:0:0:0:
395,213,52002,1,2,0:2:0:0:
315,358,52202,1,0,0:0:0:0:
231,207,52402,1,0,0:0:0:0:
383,303,52602,1,0,0:0:0:0:
454,133,52802,6,0,P|420:115|380:115,1,76,2|0,0:2|0:0,0:0:0:0:
312,220,53202,1,0,0:0:0:0:
483,354,53402,2,0,B|461:283|519:277|493:207,1,152,2|0,0:2|0:0,0:0:0:0:
411,239,54002,1,0,0:0:0:0:
323,141,54202,2,0,L|328:99,1,38,2|0,0:0|0:0,0:0:0:0:
422,18,54402,6,0,L|413:93,1,76,2|0,0:2|0:0,0:0:0:0:
286,19,54802,1,0,0:0:0:0:
328,156,55002,1,0,0:0:0:0:
196,46,55202,1,2,0:2:0:0:
151,188,55402,1,0,0:0:0:0:
98,38,55602,1,0,0:0:0:0:
233,139,55802,1,0,0:0:0:0:
53,161,56002,6,0,P|48:202|61:243,1,76,2|0,0:2|0:0,0:0:0:0:
174,291,56402,1,0,0:0:0:0:
74,356,56602,2,0,P|156:334|246:368,1,152,2|0,0:2|0:0,0:0:0:0:
325,375,57202,2,0,P|366:385|412:372,1,76
371,217,57602,6,0,L|365:293,1,76,2|0,0:2|0:0,0:0:0:0:
260,192,58002,2,0,L|253:116,1,76
149,217,58402,2,0,L|142:292,1,76,2|0,0:2|0:0,0:0:0:0:
57,162,58802,1,0,0:0:0:0:
164,69,59002,1,0,0:0:0:0:
156,214,59202,5,2,0:2:0:0:
81,80,59402,2,0,P|87:33|117:0,1,76
216,155,59802,2,0,P|236:187|239:225,1,76,2|0,0:2|0:0,0:0:0:0:
50,358,60202,1,8,0:2:0:0:
26,98,60402,1,8,0:2:0:0:
220,339,60602,1,8,0:2:0:0:
387,124,60802,6,0,P|337:119|267:143,1,95,4|0,0:0|0:0,0:0:0:0:
384,316,61202,1,8,0:0:0:0:
472,85,61402,1,0,0:0:0:0:
504,312,61602,1,2,0:2:0:0:
465,77,61802,1,0,0:0:0:0:
386,329,62002,1,8,0:0:0:0:
288,113,62202,1,0,0:0:0:0:
296,346,62402,6,0,L|408:340,1,95,2|0,2:0|0:0,0:0:0:0:
500,178,62802,1,8,0:0:0:0:
282,100,63002,2,0,P|197:140|104:125,1,190,2|0,2:0|0:0,0:0:0:0:
249,1,63602,1,8,0:0:0:0:
238,218,63802,1,0,0:0:0:0:
107,22,64002,6,0,L|101:117,1,95,2|0,0:2|0:0,0:0:0:0:
151,304,64402,1,8,0:0:0:0:
5,116,64602,1,0,0:0:0:0:
238,107,64802,1,2,0:2:0:0:
49,230,65002,1,0,0:0:0:0:
255,358,65202,2,0,P|297:363|358:355,1,95,8|0,0:0|0:0,0:0:0:0:
450,181,65602,5,2,0:2:0:0:
491,367,65802,1,0,0:0:0:0:
300,242,66002,1,8,0:0:0:0:
510,109,66202,2,0,P|425:68|331:72,1,190,2|0,0:2|0:0,0:0:0:0:
303,232,66802,2,0,P|345:208|391:200,1,95,8|0,0:0|0:0,0:0:0:0:
272,372,67202,6,0,P|225:364|184:340,1,95,4|0,0:0|0:0,0:0:0:0:
267,142,67602,1,8,0:0:0:0:
362,330,67802,1,0,0:0:0:0:
417,125,68002,1,2,0:2:0:0:
250,278,68202,1,0,0:0:0:0:
459,259,68402,1,8,0:0:0:0:
267,132,68602,1,0,0:0:0:0:
368,336,68802,6,0,P|412:350|481:340,1,95,2|0,0:2|0:0,0:0:0:0:
359,203,69202,1,8,0:0:0:0:
206,359,69402,2,0,B|117:385|117:311|20:338,1,190,2|0,0:2|0:0,0:0:0:0:
173,267,70002,2,0,P|187:222|178:176,1,95,8|0,0:0|0:0,0:0:0:0:
66,20,70402,5,2,0:2:0:0:
100,219,70602,1,0,0:0:0:0:
256,47,70802,1,8,0:0:0:0:
91,225,71002,1,0,0:0:0:0:
162,3,71202,1,2,0:2:0:0:
281,207,71402,1,0,0:0:0:0:
417,21,71602,2,0,L|411:128,1,95,8|0,0:0|0:0,0:0:0:0:
497,330,72002,5,2,0:0:0:0:
229,225,72202,1,2,0:0:0:0:
512,67,72402,1,8,0:0:0:0:
512,67,72802,5,2,0:0:0:0:
422,230,73002,1,2,0:0:0:0:
352,199,73175,1,2,0:0:0:0:
317,214,73375,1,2,0:0:0:0:
309,232,73605,6,0,P|306:268|314:298,1,66.4999979705811,4|0,0:1|0:0,0:0:0:0:
247,352,74005,2,0,P|211:349|180:357,1,66.4999979705811
127,290,74405,2,0,P|130:254|121:223,1,66.4999979705811,2|0,0:0|0:0,0:0:0:0:
189,170,74805,2,0,P|225:173|255:164,1,66.4999979705811
217,27,75178,6,0,P|208:59|214:91,1,66.4999979705811,2|0,0:0|0:0,0:0:0:0:
288,62,75578,1,0,0:0:0:0:
354,106,75778,1,0,0:0:0:0:
343,185,75978,1,2,0:0:0:0:
280,234,76178,1,0,0:0:0:0:
288,308,76378,1,0,0:0:0:0:
351,357,76578,1,0,0:0:0:0:
431,262,76778,6,0,L|365:269,1,66.4999979705811,2|0,0:0|0:0,0:0:0:0:
446,178,77178,2,0,L|512:184,1,66.4999979705811
431,93,77578,2,0,L|364:99,1,66.4999979705811,2|0,0:0|0:0,0:0:0:0:
445,8,77978,2,0,L|511:14,1,66.4999979705811
512,171,78378,6,0,L|446:177,1,66.4999979705811,2|0,0:0|0:0,0:0:0:0:
396,240,78778,1,0,0:0:0:0:
416,317,78978,1,0,0:0:0:0:
353,366,79178,1,2,0:0:0:0:
279,335,79378,1,0,0:0:0:0:
204,364,79578,2,0,L|151:370,1,33.2499989852906,0|0,3:0|3:0,0:0:0:0:
103,328,79778,2,0,L|69:324,1,33.2499989852906,0|0,3:0|3:0,0:0:0:0:
8,245,79978,6,0,P|41:237|91:238,1,66.4999979705811,2|0,0:0|0:0,0:0:0:0:
143,152,80378,2,0,P|110:144|60:145,1,66.4999979705811
174,237,80778,2,0,P|207:229|257:230,1,66.4999979705811,2|0,0:0|0:0,0:0:0:0:
309,144,81178,2,0,P|276:136|226:137,1,66.4999979705811
340,229,81578,6,0,P|373:227|405:219,1,66.4999979705811,2|0,0:0|0:0,0:0:0:0:
449,153,81978,1,0,0:0:0:0:
432,74,82178,1,0,0:0:0:0:
358,42,82378,1,2,0:0:0:0:
289,82,82578,1,0,3:0:0:0:
289,88,82678,1,0,3:0:0:0:
289,94,82778,2,0,P|289:113|286:127,1,33.2499989852906,0|0,3:0|3:0,0:0:0:0:
215,50,82978,2,0,P|211:33|212:17,1,33.2499989852906,0|0,3:0|3:0,0:0:0:0:
146,90,83178,6,0,P|111:107|78:107,1,66.4999979705811,2|0,0:0|0:0,0:0:0:0:
29,175,83478,1,0,3:0:0:0:
29,175,83578,2,0,P|61:177|91:193,1,66.4999979705811,0|0,3:0|0:0,0:0:0:0:
148,260,83978,2,0,P|113:277|80:277,1,66.4999979705811,2|0,0:0|0:0,0:0:0:0:
29,345,84378,2,0,P|61:347|91:363,1,66.4999979705811,0|0,0:0|3:0,0:0:0:0:
95,367,84678,1,0,3:0:0:0:
98,372,84778,1,0,3:0:0:0:
22,182,84978,5,2,1:2:0:0:
45,49,86402,6,0,B|109:31|109:31|142:46|142:46|214:26,1,170.999994781494,4|0,0:0|0:0,0:0:0:0:
100,134,87002,1,2,0:0:0:0:
265,256,87202,2,0,B|290:205|290:205|266:88,1,170.999994781494,8|0,0:0|0:0,0:0:0:0:
186,188,87802,1,0,0:0:0:0:
376,275,88002,1,2,0:0:0:0:
258,93,88202,5,2,0:2:0:0:
186,280,88402,1,0,0:0:0:0:
144,86,88602,1,2,0:0:0:0:
195,292,88802,1,8,0:0:0:0:
356,182,89002,1,2,0:0:0:0:
144,192,89202,1,12,0:0:0:0:
318,301,89402,1,0,0:0:0:0:
401,109,89602,6,0,P|388:193|440:285,1,170.999994781494,4|0,0:0|0:0,0:0:0:0:
496,126,90202,1,2,0:0:0:0:
328,35,90402,2,0,B|271:16|271:16|159:42,1,170.999994781494,8|0,0:0|0:0,0:0:0:0:
270,113,91002,1,0,0:0:0:0:
431,18,91202,1,2,0:0:0:0:
382,225,91402,5,2,0:2:0:0:
334,28,91602,1,0,0:0:0:0:
270,241,91802,1,2,0:0:0:0:
241,11,92002,1,12,0:0:0:0:
419,157,92202,1,4,0:3:0:0:
209,182,92402,1,4,0:3:0:0:
399,77,92602,1,8,0:0:0:0:
253,267,92802,6,0,B|187:277|187:277|156:258|156:258|88:268,1,170.999994781494,4|0,0:0|0:0,0:0:0:0:
141,349,93402,1,2,0:0:0:0:
209,182,93602,2,0,B|241:98|185:102|212:14,1,170.999994781494,8|0,0:0|0:0,0:0:0:0:
127,133,94202,1,0,0:0:0:0:
297,59,94402,1,2,0:0:0:0:
92,20,94602,5,2,0:2:0:0:
209,182,94802,1,0,0:0:0:0:
6,273,95002,1,2,0:0:0:0:
131,124,95202,1,8,0:0:0:0:
166,320,95402,1,2,0:0:0:0:
273,151,95602,1,12,0:0:0:0:
231,366,95802,1,0,0:0:0:0:
374,216,96002,6,0,P|292:184|207:194,1,170.999994781494,4|0,0:0|0:0,0:0:0:0:
308,311,96602,1,2,0:0:0:0:
482,234,96802,2,0,B|510:180|510:180|487:72,1,170.999994781494,8|0,0:0|0:0,0:0:0:0:
397,16,97402,1,0,0:0:0:0:
323,189,97602,1,2,0:0:0:0:
492,65,97802,5,2,0:2:0:0:
289,39,98002,1,0,0:0:0:0:
429,172,98202,1,2,0:0:0:0:
277,34,98402,1,10,0:0:0:0:
292,236,98602,1,2,0:0:0:0:
391,32,98802,1,10,0:0:0:0:
436,258,99002,1,2,0:0:0:0:
250,127,99202,6,0,B|188:135|188:135|155:169|155:169|76:178,1,170.999994781494,4|0,0:0|0:0,0:0:0:0:
237,224,99802,1,2,0:0:0:0:
101,81,100002,1,8,0:0:0:0:
187,138,100202,1,0,0:0:0:0:
93,272,100402,2,0,L|98:365,1,85.4999973907472
235,237,100802,5,2,0:0:0:0:
107,183,101002,1,2,0:2:0:0:
190,327,101202,1,0,0:0:0:0:
22,235,101402,2,0,P|9:193|16:143,1,85.4999973907472,0|8,0:0|0:0,0:0:0:0:
53,38,101802,1,2,0:0:0:0:
107,183,102002,1,8,0:0:0:0:
400,38,102402,6,0,P|439:23|482:25,1,85.4999973907472,4|0,0:0|0:0,0:0:0:0:
345,185,102802,2,0,P|302:186|262:172,1,85.4999973907472,0|2,0:0|0:0,0:0:0:0:
453,108,103202,1,8,0:0:0:0:
323,97,103402,1,0,0:0:0:0:
478,223,103602,1,0,0:0:0:0:
335,281,103802,1,0,0:0:0:0:
428,116,104002,6,0,P|470:117|512:127,2,85.4999973907472,2|2|0,0:0|0:2|0:0,0:0:0:0:
321,267,104602,2,0,P|312:308|320:350,1,85.4999973907472,2|8,0:0|0:0,0:0:0:0:
423,373,105002,1,2,0:0:0:0:
376,187,105202,1,12,0:0:0:0:
502,293,105402,1,2,0:0:0:0:
297,368,105602,6,0,L|211:376,1,85.4999973907472,4|0,0:0|0:0,0:0:0:0:
136,317,106002,1,0,0:0:0:0:
271,227,106202,2,0,L|176:236,1,85.4999973907472,2|8,0:0|0:0,0:0:0:0:
55,360,106602,2,0,P|44:320|55:270,2,85.4999973907472
228,308,107202,5,2,0:0:0:0:
39,278,107402,1,2,0:2:0:0:
213,191,107602,1,0,0:0:0:0:
136,379,107802,2,0,P|130:336|133:294,1,85.4999973907472,2|8,0:0|0:0,0:0:0:0:
266,380,108202,1,2,0:0:0:0:
300,195,108402,2,0,L|294:106,1,85.4999973907472
153,18,108802,5,4,0:0:0:0:
199,175,109002,1,0,0:0:0:0:
269,28,109202,1,0,0:0:0:0:
112,127,109402,1,2,0:0:0:0:
303,205,109602,1,8,0:0:0:0:
201,76,109802,1,0,0:0:0:0:
130,258,110002,2,0,L|234:249,1,85.4999973907472
60,160,110402,5,2,0:0:0:0:
83,347,110602,2,0,P|123:357|164:346,1,85.4999973907472,2|0,2:0|0:0,0:0:0:0:
205,177,111002,1,2,0:0:0:0:
296,322,111202,1,10,0:0:0:0:
265,96,111402,1,2,0:0:0:0:
155,263,111602,1,10,0:0:0:0:
179,25,111802,1,2,0:0:0:0:
284,209,112002,6,0,L|366:215,1,76,4|0,0:0|0:0,0:0:0:0:
500,280,112402,1,0,0:0:0:0:
353,371,112602,1,0,0:0:0:0:
367,206,112802,1,2,0:2:0:0:
448,359,113002,1,0,0:0:0:0:
299,284,113202,1,0,0:0:0:0:
458,202,113402,1,0,0:0:0:0:
289,120,113602,6,0,P|251:119|214:128,1,76,2|0,0:2|0:0,0:0:0:0:
349,214,114002,1,0,0:0:0:0:
349,41,114202,2,0,P|434:20|507:21,1,152,2|0,0:2|0:0,0:0:0:0:
410,140,114802,1,0,0:0:0:0:
340,30,115002,1,0,0:0:0:0:
320,200,115202,6,0,P|322:243|317:292,1,76,2|0,0:2|0:0,0:0:0:0:
194,365,115602,1,0,0:0:0:0:
131,225,115802,1,0,0:0:0:0:
42,376,116002,1,2,0:2:0:0:
189,281,116202,1,0,0:0:0:0:
55,190,116402,1,0,0:0:0:0:
50,365,116602,1,0,0:0:0:0:
253,331,116802,6,0,P|269:293|264:252,1,76,2|0,0:2|0:0,0:0:0:0:
168,183,117202,1,0,0:0:0:0:
281,99,117402,2,0,B|210:121|204:63|134:89,1,152,2|0,0:2|0:0,0:0:0:0:
254,6,118002,1,0,0:0:0:0:
362,117,118202,2,0,P|365:140|362:162,1,38,2|0,0:0|0:0,0:0:0:0:
283,219,118402,6,0,P|276:181|281:143,1,76,2|0,0:2|0:0,0:0:0:0:
391,32,118802,1,0,0:0:0:0:
360,168,119002,1,0,0:0:0:0:
487,57,119202,1,2,0:2:0:0:
512,221,119402,1,0,0:0:0:0:
357,156,119602,1,0,0:0:0:0:
494,53,119802,1,0,0:0:0:0:
415,230,120002,6,0,P|410:271|423:312,1,76,2|0,0:2|0:0,0:0:0:0:
493,363,120402,1,0,0:0:0:0:
341,333,120602,2,0,B|264:319|282:365|193:353,1,152,2|0,0:2|0:0,0:0:0:0:
210,193,121202,2,0,P|222:229|224:267,1,76
41,183,121602,6,0,P|35:145|48:105,1,76,2|0,0:2|0:0,0:0:0:0:
121,260,122002,2,0,P|91:283|49:292,1,76
148,152,122402,2,0,P|182:166|212:197,1,76,2|0,0:2|0:0,0:0:0:0:
154,336,122802,1,0,0:0:0:0:
139,163,123002,1,0,0:0:0:0:
14,299,123202,5,2,0:2:0:0:
202,269,123402,2,0,L|291:274,1,76
427,356,123802,2,0,L|338:361,1,76,2|0,0:2|0:0,0:0:0:0:
282,177,124202,1,8,0:2:0:0:
501,277,124402,1,8,0:2:0:0:
259,359,124602,1,8,0:2:0:0:
434,157,124802,6,0,P|439:107|415:37,1,95,4|0,0:0|0:0,0:0:0:0:
322,267,125202,1,8,0:0:0:0:
189,114,125402,1,0,0:0:0:0:
252,345,125602,1,2,0:2:0:0:
316,125,125802,1,0,0:0:0:0:
96,206,126002,1,8,0:0:0:0:
258,50,126202,1,0,0:0:0:0:
38,136,126402,6,0,P|10:183|13:231,1,95,2|0,0:2|0:0,0:0:0:0:
137,368,126802,1,8,0:0:0:0:
253,167,127002,2,0,P|293:252|278:345,1,190,2|0,0:2|0:0,0:0:0:0:
122,259,127602,1,8,0:0:0:0:
282,353,127802,1,0,0:0:0:0:
40,331,128002,6,0,L|44:228,1,95,2|0,0:2|0:0,0:0:0:0:
189,98,128402,1,8,0:0:0:0:
215,291,128602,1,0,0:0:0:0:
94,87,128802,1,2,0:2:0:0:
277,211,129002,1,0,0:0:0:0:
362,12,129202,2,0,P|320:7|259:15,1,95,8|0,0:0|0:0,0:0:0:0:
167,192,129602,5,2,0:2:0:0:
376,127,129802,1,0,0:0:0:0:
152,81,130002,1,8,0:0:0:0:
329,212,130202,2,0,B|414:251|412:174|512:218,1,190,2|0,0:2|0:0,0:0:0:0:
461,382,130802,2,0,P|468:335|457:289,1,95,8|0,0:0|0:0,0:0:0:0:
376,127,131202,6,0,P|368:80|379:34,1,95,2|0,0:2|0:0,0:0:0:0:
509,202,131602,1,8,0:0:0:0:
287,193,131802,1,0,0:0:0:0:
466,85,132002,1,2,0:2:0:0:
277,183,132202,1,0,0:0:0:0:
440,317,132402,1,8,0:0:0:0:
471,77,132602,1,0,0:0:0:0:
440,328,132802,6,0,P|392:327|345:334,1,95,2|0,0:2|0:0,0:0:0:0:
236,265,133202,1,8,0:0:0:0:
39,351,133402,2,0,P|141:349|247:370,1,190,2|0,0:2|0:0,0:0:0:0:
355,316,134002,2,0,P|363:260|350:199,1,95,8|0,0:0|0:0,0:0:0:0:
209,120,134402,5,2,0:2:0:0:
142,317,134602,1,0,0:0:0:0:
24,148,134802,1,8,0:0:0:0:
244,242,135002,1,0,0:0:0:0:
187,26,135202,1,2,0:2:0:0:
18,158,135402,1,0,0:0:0:0:
268,117,135602,2,0,L|375:123,1,95,8|0,0:0|0:0,0:0:0:0:
503,299,136002,5,2,0:0:0:0:
205,346,136202,1,2,0:0:0:0:
345,47,136402,1,8,0:0:0:0:
345,47,136802,5,2,0:0:0:0:
419,223,137002,1,2,0:0:0:0:
417,85,137202,1,2,0:0:0:0:
344,154,137402,1,2,0:0:0:0:
511,311,137602,6,0,P|431:347|351:327,1,170.999994781494,4|0,0:0|0:0,0:0:0:0:
419,223,138202,1,2,0:0:0:0:
304,384,138402,2,0,P|311:301|271:220,1,170.999994781494,8|0,0:0|0:0,0:0:0:0:
162,198,139002,1,0,0:0:0:0:
185,329,139202,1,2,0:0:0:0:
247,106,139402,5,2,0:2:0:0:
96,281,139602,1,0,0:0:0:0:
291,225,139802,1,2,0:0:0:0:
68,201,140002,1,8,0:0:0:0:
194,347,140202,1,2,0:0:0:0:
239,119,140402,1,12,0:0:0:0:
271,315,140602,1,0,0:0:0:0:
380,161,140802,6,0,B|318:169|318:169|285:203|285:203|224:209,1,170.999994781494,4|0,0:0|0:0,0:0:0:0:
369,257,141402,1,2,0:0:0:0:
239,119,141602,2,0,B|274:83|274:83|405:67,1,170.999994781494,8|0,0:0|0:0,0:0:0:0:
468,179,142202,1,0,0:0:0:0:
319,169,142402,1,2,0:0:0:0:
495,57,142602,5,2,0:2:0:0:
455,262,142802,1,0,0:0:0:0:
395,82,143002,1,2,0:0:0:0:
398,321,143202,1,8,0:0:0:0:
502,142,143402,1,2,0:0:0:0:
306,111,143602,1,10,0:0:0:0:
471,262,143802,1,2,0:0:0:0:
262,362,144002,6,0,P|177:361|114:301,1,170.999994781494,4|0,0:0|0:0,0:0:0:0:
222,252,144602,1,2,0:0:0:0:
175,72,144802,2,0,B|87:52|96:121|13:106,1,170.999994781494,8|0,0:0|0:0,0:0:0:0:
148,152,145402,1,0,0:0:0:0:
34,19,145602,1,2,0:0:0:0:
43,241,145802,5,2,0:2:0:0:
183,68,146002,1,0,0:0:0:0:
193,295,146202,1,2,0:0:0:0:
77,112,146402,1,8,0:0:0:0:
119,360,146602,1,2,0:0:0:0:
156,154,146802,1,12,0:0:0:0:
29,351,147002,1,0,0:0:0:0:
15,127,147202,6,0,B|74:113|74:113|103:76|103:76|164:62,1,170.999994781494,4|0,0:0|0:0,0:0:0:0:
260,147,147802,1,2,0:0:0:0:
220,303,148002,2,0,B|206:242|206:242|169:213|169:213|156:154,1,170.999994781494,8|0,0:0|0:0,0:0:0:0:
126,307,148602,1,0,0:0:0:0:
284,366,148802,1,2,0:0:0:0:
260,147,149002,5,2,0:2:0:0:
189,369,149202,1,0,0:0:0:0:
339,250,149402,1,0,0:0:0:0:
140,161,149602,2,0,L|146:59,1,85.4999973907472,8|0,0:0|0:0,0:0:0:0:
346,255,150002,2,0,L|351:340,1,85.4999973907472,8|0,0:0|0:0,0:0:0:0:
117,324,150402,6,0,L|123:268,1,42.7499986953736,6|0,0:0|0:0,0:0:0:0:
91,155,150602,1,0,0:0:0:0:
91,155,150802,1,0,0:0:0:0:
194,347,151002,5,8,0:0:0:0:
232,107,151202,1,8,0:0:0:0:
42,260,151402,1,0,0:0:0:0:
293,234,151602,6,0,L|358:242,1,42.7499986953736,6|0,0:0|0:0,0:0:0:0:
422,365,151802,1,0,0:0:0:0:
422,365,152002,1,0,0:0:0:0:
478,130,152202,5,8,0:0:0:0:
283,226,152402,1,8,0:0:0:0:
505,345,152602,1,0,0:0:0:0:
378,64,152802,5,12,0:0:0:0:
301,336,153002,1,8,0:0:0:0:
130,130,153202,1,12,0:0:0:0:
220,356,153402,1,8,0:0:0:0:
265,20,153602,5,12,0:0:0:0:
256,192,153702,12,0,156802,2:0:0:0:
