osu file format v14

[General]
AudioFilename: audio.mp3
AudioLeadIn: 0
PreviewTime: 60902
Countdown: 0
SampleSet: Normal
StackLeniency: 0.4
Mode: 0
LetterboxInBreaks: 0
WidescreenStoryboard: 0

[Editor]
Bookmarks: 41602,44802,48002,60802,72202,73602,86402,99202,112002,124802,137602,153602
DistanceSpacing: 1.5
BeatDivisor: 4
GridSize: 8
TimelineZoom: 2

[Metadata]
Title:Here Comes Vi
TitleUnicode:Here Comes Vi
Artist:Nicki Taylor
ArtistUnicode:Nicki Taylor
Creator:TheMefisto
Version:Hard
Source:League of Legends
Tags:riffy bakari riot games lol intro login screen
BeatmapID:1928002
BeatmapSetID:922887

[Difficulty]
HPDrainRate:4.5
CircleSize:3.5
OverallDifficulty:6
ApproachRate:7
SliderMultiplier:1.4
SliderTickRate:1

[Events]
//Background and Video events
0,0,"bgwp.jpg",0,0
//Break Periods
2,75004,85502
//Storyboard Layer 0 (Background)
//Storyboard Layer 1 (Fail)
//Storyboard Layer 2 (Pass)
//Storyboard Layer 3 (Foreground)
//Storyboard Sound Samples

[TimingPoints]
3202,400,4,1,1,30,1,0
3202,-125,4,1,1,30,0,0
16002,-111.111111111111,4,1,1,50,0,0
28802,-111.111111111111,4,1,1,50,0,0
41602,-142.857142857143,4,1,1,35,0,0
43202,-142.857142857143,4,1,1,40,0,0
44802,-111.111111111111,4,1,1,40,0,0
45602,-111.111111111111,4,1,1,45,0,0
46402,-111.111111111111,4,1,1,50,0,0
47202,-111.111111111111,4,1,1,60,0,0
48002,-111.111111111111,4,1,1,65,0,0
48202,-125,4,1,1,40,0,0
60202,-125,4,1,1,65,0,0
60802,-100,4,1,1,75,0,1
73175,400,4,1,1,55,1,1
73175,-100,4,1,1,55,0,1
73605,400,4,2,1,30,1,0
73605,-142.857142857143,4,2,1,30,0,0
74805,-142.857142857143,4,2,1,10,0,0
75178,400,4,2,1,30,1,0
75178,-142.857142857143,4,2,1,30,0,0
86402,400,4,1,1,60,1,0
86402,-111.111111111111,4,1,1,60,0,0
98202,-111.111111111111,4,1,1,62,0,0
98402,-111.111111111111,4,1,1,64,0,0
98602,-111.111111111111,4,1,1,66,0,0
98802,-111.111111111111,4,1,1,68,0,0
99002,-111.111111111111,4,1,1,70,0,0
99202,-111.111111111111,4,1,1,60,0,0
112002,-125,4,1,1,40,0,0
124202,-125,4,1,1,65,0,0
124802,-100,4,1,1,75,0,1
137202,-100,4,1,1,55,0,1
137602,-111.111111111111,4,1,1,60,0,0
156802,-111.111111111111,4,1,1,20,0,0

[Colours]
Combo1 : 247,236,100
Combo2 : 232,126,250
Combo3 : 111,175,255
Combo4 : 181,11,36

[HitObjects]
108,47,3202,6,0,L|178:69,1,56,2|0,0:0|0:0,0:0:0:0:
190,142,3602,2,0,L|167:212,1,56,2|0,0:0|0:0,0:0:0:0:
94,224,4002,2,0,L|23:201,1,56,2|0,0:0|0:0,0:0:0:0:
12,129,4402,2,0,L|34:58,1,56,2|0,0:0|0:0,0:0:0:0:
98,27,4802,6,0,P|124:20|166:21,1,56,2|0,0:0|0:0,0:0:0:0:
227,74,5202,1,2,0:0:0:0:
227,74,5402,1,0,0:0:0:0:
302,36,5602,2,0,P|329:38|356:46,1,56,2|0,0:0|0:0,0:0:0:0:
402,121,6002,2,0,P|374:123|347:131,1,56,2|0,0:0|0:0,0:0:0:0:
293,196,6402,6,0,B|272:241|272:241|287:272|287:272|272:305|272:305|287:336|287:336|295:325,1,168,2|0,0:2|0:0,0:0:0:0:
381,327,7202,2,0,L|455:334,1,56,2|0,0:0|0:0,0:0:0:0:
482,258,7602,2,0,L|426:252,1,56,2|0,0:0|0:0,0:0:0:0:
391,174,8002,6,0,P|384:139|392:108,1,56,2|0,0:0|0:0,0:0:0:0:
448,61,8402,1,2,0:0:0:0:
448,61,8602,1,0,0:0:0:0:
373,21,8802,2,0,P|342:13|297:23,1,56,2|0,0:0|0:0,0:0:0:0:
253,69,9202,2,0,P|226:76|198:75,1,56,2|0,0:0|0:0,0:0:0:0:
133,21,9602,6,0,P|150:75|121:139,1,112,2|2,0:2|0:0,0:0:0:0:
63,74,10202,1,0,0:0:0:0:
11,140,10402,2,0,P|6:167|12:194,2,56,2|0|2,0:2|0:0|0:0,0:0:0:0:
91,166,11002,1,0,0:0:0:0:
139,234,11202,6,0,P|138:258|118:294,1,56,2|0,0:2|0:0,0:0:0:0:
179,351,11602,2,0,P|203:351|239:371,1,56,2|0,0:2|0:0,0:0:0:0:
297,311,12002,2,0,P|297:286|317:250,1,56,2|0,0:2|0:0,0:0:0:0:
257,193,12402,2,0,P|232:192|196:172,1,56,2|0,0:2|0:0,0:0:0:0:
252,110,12802,6,0,B|297:89|297:89|328:104|328:104|361:89|361:89|392:104|392:104|381:112,1,168,2|0,0:2|0:0,0:0:0:0:
350,189,13602,2,0,L|345:253,1,56,2|0,0:2|0:0,0:0:0:0:
292,310,14002,2,0,L|297:374,1,56,2|0,0:0|0:0,0:0:0:0:
380,366,14402,6,0,P|413:366|440:352,1,56,2|0,0:2|0:0,0:0:0:0:
472,279,14802,2,0,P|444:280|418:269,1,56,2|0,0:2|0:0,0:0:0:0:
462,197,15202,1,2,0:2:0:0:
413,128,15402,2,0,L|422:58,2,56,10|10|10,0:2|0:2|0:2,0:0:0:0:
333,180,16002,6,0,P|304:191|270:181,1,62.9999980773926,4|0,0:0|0:0,0:0:0:0:
182,158,16402,2,0,B|166:218|208:218|188:281,1,125.999996154785,2|2,0:0|0:2,0:0:0:0:
21,369,17202,2,0,P|14:327|28:282,1,62.9999980773926,2|0,0:0|0:0,0:0:0:0:
76,233,17602,6,0,P|91:161|60:97,1,125.999996154785,2|2,0:2|0:0,0:0:0:0:
5,46,18202,2,0,P|71:64|139:48,1,125.999996154785,2|0,0:2|0:0,0:0:0:0:
211,11,18802,1,2,0:0:0:0:
211,11,19002,1,0,0:0:0:0:
272,82,19202,6,0,L|357:90,1,62.9999980773926,2|0,0:2|0:0,0:0:0:0:
369,175,19602,2,0,L|306:169,1,62.9999980773926,2|0,0:0|0:0,0:0:0:0:
341,256,20002,2,0,L|403:261,2,62.9999980773926,2|0|2,0:2|0:0|0:0,0:0:0:0:
272,320,20602,1,0,0:0:0:0:
356,361,20802,6,0,P|421:373|503:348,1,125.999996154785,2|2,0:2|0:0,0:0:0:0:
492,267,21402,2,0,P|469:208|470:146,1,125.999996154785,2|0,0:2|0:0,0:0:0:0:
487,55,22002,1,2,0:0:0:0:
487,55,22202,1,0,0:0:0:0:
399,19,22402,6,0,L|323:26,1,62.9999980773926,2|0,0:2|0:0,0:0:0:0:
261,82,22802,2,0,P|190:85|136:69,1,125.999996154785,2|2,0:0|0:2,0:0:0:0:
59,16,23402,1,0,0:0:0:0:
0,90,23602,2,0,L|1:152,1,62.9999980773926,2|0,0:0|0:0,0:0:0:0:
84,198,24002,6,0,P|144:180|227:190,1,125.999996154785,2|2,0:2|0:0,0:0:0:0:
169,270,24602,2,0,P|108:287|58:325,1,125.999996154785,2|0,0:2|0:0,0:0:0:0:
135,380,25202,2,0,P|163:363|198:358,1,62.9999980773926,2|0,0:0|0:0,0:0:0:0:
287,360,25602,6,0,L|375:368,1,62.9999980773926,2|0,0:2|0:0,0:0:0:0:
441,344,26002,2,0,L|448:255,1,62.9999980773926,2|0,0:0|0:0,0:0:0:0:
389,211,26402,1,2,0:2:0:0:
389,211,26602,1,0,0:0:0:0:
313,266,26802,2,0,L|250:260,1,62.9999980773926,2|0,0:0|0:0,0:0:0:0:
175,202,27202,6,0,P|194:141|173:61,1,125.999996154785,2|2,0:2|0:0,0:0:0:0:
277,85,27802,2,0,P|333:114|416:107,1,125.999996154785,2|2,0:2|0:0,0:0:0:0:
485,87,28402,1,10,0:2:0:0:
416,22,28602,1,10,0:2:0:0:
394,113,28802,6,0,L|402:188,2,62.9999980773926,4|0|8,0:0|0:0|0:0,0:0:0:0:
238,220,29602,2,0,P|244:293|220:348,1,125.999996154785,2|8,0:2|0:0,0:0:0:0:
131,355,30202,1,0,0:0:0:0:
52,298,30403,6,0,P|44:237|63:169,1,125.999996154785,2|8,0:2|0:0,0:0:0:0:
148,144,31002,2,0,P|156:83|137:15,1,125.999996154785,2|0,0:2|0:0,0:0:0:0:
46,11,31602,1,8,0:0:0:0:
3,95,31802,1,0,0:0:0:0:
59,175,32002,6,0,P|71:213|64:250,1,62.9999980773926,2|0,0:2|0:0,0:0:0:0:
16,314,32402,1,8,0:0:0:0:
16,314,32602,1,0,0:0:0:0:
99,355,32802,2,0,L|173:351,1,62.9999980773926,2|0,0:2|0:0,0:0:0:0:
239,296,33202,2,0,L|301:298,1,62.9999980773926,8|0,0:0|0:0,0:0:0:0:
370,364,33602,6,0,P|348:307|373:233,1,125.999996154785,2|8,0:2|0:0,0:0:0:0:
435,181,34202,2,0,P|457:239|442:300,1,125.999996154785,2|0,0:2|0:0,0:0:0:0:
363,245,34802,1,8,0:0:0:0:
341,153,35002,1,0,0:0:0:0:
413,89,35202,6,0,L|499:97,2,62.9999980773926,2|0|8,0:2|0:0|0:0,0:0:0:0:
237,18,36002,2,0,B|214:78|214:78|237:153,1,125.999996154785,2|8,0:2|0:0,0:0:0:0:
312,81,36602,1,0,0:0:0:0:
360,162,36802,6,0,L|357:289,1,125.999996154785,2|8,0:2|0:0,0:0:0:0:
274,335,37402,2,0,L|276:209,1,125.999996154785,2|0,0:2|0:0,0:0:0:0:
199,154,38002,1,8,0:0:0:0:
28,234,38402,6,0,L|36:309,1,62.9999980773926,2|0,0:2|0:0,0:0:0:0:
98,367,38802,1,8,0:0:0:0:
98,367,39002,1,0,0:0:0:0:
152,289,39202,2,0,L|214:281,1,62.9999980773926,2|0,0:2|0:0,0:0:0:0:
239,189,39602,2,0,L|176:196,1,62.9999980773926,8|0,0:0|0:0,0:0:0:0:
114,124,40002,6,0,P|108:90|118:53,1,62.9999980773926,2|0,0:2|0:0,0:0:0:0:
187,4,40402,1,8,0:0:0:0:
271,46,40602,2,0,P|309:52|338:44,1,62.9999980773926,2|0,0:2|0:0,0:0:0:0:
424,21,41002,2,0,L|467:9,2,31.4999990386963,8|8|8,3:0|3:0|3:0,0:0:0:0:
399,112,41402,1,8,3:0:0:0:
436,198,41602,6,0,B|396:222|340:190|340:190|300:222|284:262|284:262|268:222|228:190|228:190|164:222|126:199,2,391.99998803711,6|0|8,0:3|0:0|0:2,0:0:0:0:
485,15,45202,1,8,0:2:0:0:
304,70,45602,1,8,0:2:0:0:
486,119,46002,1,8,0:2:0:0:
333,230,46402,6,0,L|339:316,1,62.9999980773926,8|8,0:2|0:2,0:0:0:0:
245,270,46802,2,0,L|228:354,1,62.9999980773926,8|8,0:2|0:2,0:0:0:0:
149,285,47202,2,0,L|111:362,1,62.9999980773926,8|8,0:2|0:2,0:0:0:0:
52,274,47602,2,0,L|-4:339,1,62.9999980773926,8|8,0:2|0:2,0:0:0:0:
3,201,48002,5,12,0:0:0:0:
30,35,48402,2,0,P|61:25|109:26,1,56,0|0,0:0|0:0,0:0:0:0:
158,61,48802,2,0,P|184:70|212:72,1,56,2|0,0:2|0:0,0:0:0:0:
276,18,49202,2,0,P|307:8|355:9,1,56,0|0,0:0|0:0,0:0:0:0:
392,63,49602,6,0,P|399:90|384:134,2,56,2|0|0,0:2|0:0|0:0,0:0:0:0:
315,99,50202,2,0,B|291:150|291:150|306:215,1,112,2|0,0:2|0:0,0:0:0:0:
374,260,50802,1,0,0:0:0:0:
374,260,51002,1,0,0:0:0:0:
451,292,51202,6,0,L|506:286,1,56,2|0,0:2|0:0,0:0:0:0:
511,202,51602,2,0,L|455:207,1,56,0|0,0:0|0:0,0:0:0:0:
396,146,52002,2,0,P|388:109|399:76,1,56,2|0,0:2|0:0,0:0:0:0:
473,111,52402,2,0,P|481:74|470:41,1,56,0|0,0:0|0:0,0:0:0:0:
407,8,52802,5,2,0:2:0:0:
328,38,53002,2,0,B|275:23|278:63|219:50,1,112,0|2,0:0|0:2,0:0:0:0:
57,93,53802,2,0,P|49:62|53:26,2,56,0|0|2,0:0|0:0|0:0,0:0:0:0:
140,105,54402,6,0,B|161:150|161:150|146:181|146:181|161:214|161:214|146:245|146:245|138:234,1,168,2|0,0:2|0:0,0:0:0:0:
65,277,55202,2,0,P|38:271|11:272,1,56,2|0,0:2|0:0,0:0:0:0:
26,354,55602,2,0,P|53:357|79:369,1,56,0|0,0:0|0:0,0:0:0:0:
158,342,56002,6,0,P|185:338|211:326,2,56,2|0|0,0:2|0:0|0:0,0:0:0:0:
161,258,56602,2,0,P|209:224|270:223,1,112,2|0,0:2|0:0,0:0:0:0:
291,299,57202,1,0,0:0:0:0:
453,343,57602,6,0,B|462:314|462:314|457:288,1,56,2|0,0:2|0:0,0:0:0:0:
381,250,58002,2,0,B|372:221|372:221|376:195,1,56,0|0,0:0|0:0,0:0:0:0:
453,157,58402,2,0,B|462:128|462:128|457:102,1,56,2|0,0:2|0:0,0:0:0:0:
391,50,58802,2,0,P|360:59|315:45,1,56,0|0,0:0|0:0,0:0:0:0:
264,12,59202,5,2,0:2:0:0:
193,57,59402,2,0,B|180:114|180:114|195:167,1,112,0|2,0:0|0:2,0:0:0:0:
345,271,60202,5,8,0:2:0:0:
262,336,60402,1,8,0:2:0:0:
192,255,60602,1,8,0:2:0:0:
275,187,60802,6,0,P|335:162|417:189,1,140,4|8,0:0|0:0,0:0:0:0:
345,271,61402,1,0,0:0:0:0:
281,343,61602,2,0,L|211:346,1,70,2|0,0:2|0:0,0:0:0:0:
114,362,62002,1,8,0:0:0:0:
156,273,62202,1,0,0:0:0:0:
116,183,62402,6,0,P|154:174|194:182,2,70,2|0|8,2:0|0:0|0:0,0:0:0:0:
46,252,63002,2,0,P|68:196|33:107,1,140,2|0,2:0|0:0,0:0:0:0:
10,30,63602,1,8,0:0:0:0:
104,3,63802,1,0,0:0:0:0:
186,56,64002,6,0,B|258:70|258:70|332:55,1,140,2|8,0:2|0:0,0:0:0:0:
407,8,64602,1,0,0:0:0:0:
472,80,64802,2,0,L|460:149,1,70,2|0,0:2|0:0,0:0:0:0:
387,215,65202,1,8,0:0:0:0:
309,154,65402,1,0,0:0:0:0:
229,211,65602,6,0,L|237:301,1,70,2|0,0:2|0:0,0:0:0:0:
296,357,66002,1,8,0:0:0:0:
380,305,66202,2,0,P|446:323|495:377,1,140,2|0,0:2|0:0,0:0:0:0:
499,249,66802,2,0,P|483:215|486:173,1,70,8|0,0:0|0:0,0:0:0:0:
504,86,67202,6,0,P|435:96|369:72,1,140,4|8,0:0|0:0,0:0:0:0:
289,16,67802,1,0,0:0:0:0:
194,41,68002,2,0,P|188:71|195:113,1,70,2|0,0:2|0:0,0:0:0:0:
240,195,68402,1,8,0:0:0:0:
203,286,68602,1,0,0:0:0:0:
102,302,68802,6,0,P|64:304|24:285,2,70,2|0|8,0:2|0:0|0:0,0:0:0:0:
84,205,69402,2,0,B|100:135|52:132|72:69,1,140,2|0,0:2|0:0,0:0:0:0:
166,93,70001,1,8,0:0:0:0:
248,39,70202,1,0,0:0:0:0:
304,119,70402,6,0,L|293:201,1,70,2|0,0:2|0:0,0:0:0:0:
206,232,70802,1,8,0:0:0:0:
327,367,71202,1,2,0:2:0:0:
405,307,71402,1,0,0:0:0:0:
496,345,71603,2,0,P|503:307|497:267,1,70,8|0,0:0|0:0,0:0:0:0:
411,174,72002,5,2,0:0:0:0:
405,307,72202,1,2,0:0:0:0:
292,235,72402,1,8,0:0:0:0:
417,41,72802,5,2,0:0:0:0:
411,174,73002,1,2,0:0:0:0:
336,112,73175,2,0,P|303:108|260:118,1,70,2|2,0:0|0:0,0:0:0:0:
186,197,73605,6,0,B|146:338|146:338|66:211,1,293.999991027832,4|0,0:1|2:0,0:0:0:0:
96,121,86402,6,0,P|159:103|236:103,1,125.999996154785,4|0,0:0|0:0,0:0:0:0:
303,145,87002,1,2,0:0:0:0:
263,230,87202,2,0,P|250:304|256:367,1,125.999996154785,8|0,0:0|0:0,0:0:0:0:
347,365,87802,1,0,0:0:0:0:
426,313,88002,6,0,L|506:299,1,62.9999980773926,2|2,0:0|0:2,0:0:0:0:
435,223,88402,2,0,L|508:188,1,62.9999980773926,0|2,0:0|0:0,0:0:0:0:
420,133,88802,2,0,L|482:80,1,62.9999980773926,8|2,0:0|0:0,0:0:0:0:
431,11,89202,1,12,0:0:0:0:
431,11,89402,1,0,0:0:0:0:
344,49,89602,6,0,P|289:68|214:67,1,125.999996154785,4|0,0:0|0:0,0:0:0:0:
137,23,90202,1,2,0:0:0:0:
72,92,90402,2,0,P|88:147|80:238,1,125.999996154785,8|0,0:0|0:0,0:0:0:0:
22,285,91002,1,0,0:0:0:0:
88,351,91202,6,0,P|120:360|162:355,1,62.9999980773926,2|2,0:0|0:2,0:0:0:0:
216,291,91602,2,0,P|185:284|158:267,1,62.9999980773926,0|2,0:0|0:0,0:0:0:0:
135,175,92002,2,0,P|166:176|196:167,1,62.9999980773926,12|4,0:0|0:3,0:0:0:0:
233,83,92402,1,4,0:3:0:0:
233,83,92602,1,8,0:0:0:0:
150,37,92802,6,0,B|85:25|85:25|14:60,1,125.999996154785,4|0,0:0|0:0,0:0:0:0:
98,118,93402,1,2,0:0:0:0:
31,184,93602,2,0,B|85:211|85:211|150:199,1,125.999996154785,8|0,0:0|0:0,0:0:0:0:
205,118,94202,1,0,0:0:0:0:
289,75,94402,6,0,B|323:67|323:67|349:75,1,62.9999980773926,2|2,0:0|0:2,0:0:0:0:
318,164,94802,2,0,B|341:189|341:189|348:216,1,62.9999980773926,0|2,0:0|0:0,0:0:0:0:
256,236,95202,2,0,B|245:269|245:269|225:288,1,62.9999980773926,8|2,0:0|0:0,0:0:0:0:
153,354,95602,1,12,0:0:0:0:
153,354,95802,1,0,0:0:0:0:
245,371,96002,6,0,B|303:352|303:352|394:365,1,125.999996154785,4|0,0:0|0:0,0:0:0:0:
437,298,96602,1,2,0:0:0:0:
398,211,96802,2,0,L|406:65,1,125.999996154785,8|0,0:0|0:0,0:0:0:0:
344,12,97402,1,0,0:0:0:0:
251,32,97602,6,0,P|239:68|244:106,1,62.9999980773926,2|2,0:0|0:2,0:0:0:0:
309,163,98002,1,0,0:0:0:0:
309,163,98202,1,2,0:0:0:0:
240,227,98402,2,0,P|204:215|166:220,1,62.9999980773926,10|2,0:0|0:0,0:0:0:0:
109,285,98802,1,10,0:0:0:0:
109,285,99002,1,2,0:0:0:0:
31,230,99202,6,0,B|8:172|52:172|33:107,1,125.999996154785,4|0,0:0|0:0,0:0:0:0:
25,12,99802,1,2,0:0:0:0:
115,40,100002,2,0,P|146:51|181:48,1,62.9999980773926,8|0,0:0|0:0,0:0:0:0:
261,8,100402,1,0,0:0:0:0:
331,70,100602,1,0,0:0:0:0:
274,145,100802,6,0,B|264:186|264:186|275:217|275:217|265:267,1,125.999996154785,2|0,0:0|0:0,0:0:0:0:
181,225,101402,1,0,0:0:0:0:
106,282,101602,1,8,0:0:0:0:
143,368,101802,2,0,L|218:372,1,62.9999980773926,2|8,0:0|0:0,0:0:0:0:
384,307,102402,6,0,P|353:320|297:312,1,62.9999980773926,4|0,0:0|0:0,0:0:0:0:
334,226,102802,2,0,P|338:192|373:148,1,62.9999980773926,0|2,0:0|0:0,0:0:0:0:
429,223,103202,2,0,P|470:268|475:330,1,125.999996154785,8|0,0:0|0:0,0:0:0:0:
384,307,103802,1,0,0:0:0:0:
307,362,104002,6,0,L|226:369,1,62.9999980773926,2|2,0:0|0:2,0:0:0:0:
193,287,104402,2,0,L|255:281,1,62.9999980773926,0|2,0:0|0:0,0:0:0:0:
289,192,104802,2,0,L|226:197,1,62.9999980773926,8|2,0:0|0:0,0:0:0:0:
141,154,105202,1,12,0:0:0:0:
197,77,105402,1,2,0:0:0:0:
131,8,105602,6,0,P|188:27|258:13,1,125.999996154785,4|0,0:0|0:0,0:0:0:0:
346,9,106202,1,2,0:0:0:0:
410,77,106402,1,8,0:0:0:0:
498,43,106602,2,0,P|504:74|500:105,2,62.9999980773926,0|0|0,0:0|0:0|0:0,0:0:0:0:
410,77,107202,6,0,B|393:101|393:101|395:135,1,62.9999980773926,2|2,0:0|0:2,0:0:0:0:
477,181,107602,2,0,B|493:205|493:205|491:239,1,62.9999980773926,0|2,0:0|0:0,0:0:0:0:
410,285,108002,2,0,B|393:309|393:309|395:343,1,62.9999980773926,8|2,0:0|0:0,0:0:0:0:
489,337,108402,1,0,0:0:0:0:
491,239,108602,1,0,0:0:0:0:
409,190,108802,6,0,L|329:197,1,62.9999980773926,4|0,0:0|0:0,0:0:0:0:
277,260,109202,2,0,L|214:254,1,62.9999980773926,0|2,0:0|0:0,0:0:0:0:
137,197,109602,2,0,P|66:224|24:282,1,125.999996154785,8|0,0:0|0:0,0:0:0:0:
52,353,110202,1,0,0:0:0:0:
138,317,110402,5,2,0:0:0:0:
217,356,110602,2,0,P|249:358|284:351,1,62.9999980773926,2|0,2:0|0:0,0:0:0:0:
354,307,111002,1,2,0:0:0:0:
330,221,111202,2,0,L|344:146,1,62.9999980773926,10|2,0:0|0:0,0:0:0:0:
297,75,111602,1,10,0:0:0:0:
202,84,111802,1,2,0:0:0:0:
177,176,112002,5,4,0:0:0:0:
23,244,112402,2,0,L|18:179,1,56,0|0,0:0|0:0,0:0:0:0:
94,151,112802,2,0,L|99:86,1,56,2|0,0:2|0:0,0:0:0:0:
179,70,113202,2,0,L|195:6,1,56,0|0,0:0|0:0,0:0:0:0:
277,11,113602,6,0,L|347:4,2,56,2|0|0,0:2|0:0|0:0,0:0:0:0:
299,92,114202,2,0,B|341:137|336:217,1,112,2|0,0:2|0:0,0:0:0:0:
312,279,114802,1,0,0:0:0:0:
312,279,115002,1,0,0:0:0:0:
369,340,115202,6,0,P|401:330|428:333,1,56,2|0,0:2|0:0,0:0:0:0:
473,266,115602,2,0,P|463:234|466:207,1,56,0|0,0:0|0:0,0:0:0:0:
399,162,116002,2,0,P|367:172|340:169,1,56,2|0,0:2|0:0,0:0:0:0:
295,236,116402,2,0,P|305:268|302:295,1,56,0|0,0:0|0:0,0:0:0:0:
242,347,116802,5,2,0:2:0:0:
160,325,117002,2,0,B|98:323|30:360,1,112,0|2,0:0|0:2,0:0:0:0:
24,175,117802,2,0,P|16:144|23:109,2,56,0|0|2,0:0|0:0|0:0,0:0:0:0:
102,143,118402,6,0,B|147:122|147:122|178:137|178:137|211:122|211:122|242:137|242:137|231:145,1,168,2|0,0:2|0:0,0:0:0:0:
199,222,119202,2,0,P|193:249|194:276,1,56,2|0,0:2|0:0,0:0:0:0:
271,311,119602,2,0,P|277:284|276:257,1,56,0|0,0:0|0:0,0:0:0:0:
312,180,120002,6,0,L|385:167,2,56,2|0|0,0:2|0:0|0:0,0:0:0:0:
231,144,120602,2,0,B|221:89|221:89|249:24,1,112,2|0,0:2|0:0,0:0:0:0:
324,15,121202,1,0,0:0:0:0:
481,72,121602,6,0,B|485:127,1,56,2|0,0:2|0:0,0:0:0:0:
402,144,122002,2,0,B|398:199,1,56,0|0,0:0|0:0,0:0:0:0:
317,225,122402,2,0,B|321:280,1,56,2|0,0:2|0:0,0:0:0:0:
238,297,122802,2,0,B|234:352,1,56,0|0,0:0|0:0,0:0:0:0:
313,379,123202,5,2,0:2:0:0:
386,337,123402,2,0,B|441:327|441:327|506:355,1,112,0|2,0:0|0:2,0:0:0:0:
502,181,124202,5,8,0:2:0:0:
429,103,124402,1,8,0:2:0:0:
330,141,124602,1,8,0:2:0:0:
257,63,124802,6,0,P|194:43|121:82,1,140,4|8,0:0|0:0,0:0:0:0:
198,138,125402,1,0,0:0:0:0:
241,225,125602,2,0,L|236:313,1,70,2|0,0:2|0:0,0:0:0:0:
155,349,126002,1,8,0:0:0:0:
71,298,126202,1,0,0:0:0:0:
121,214,126402,6,0,P|126:179|117:145,2,70,2|0|8,0:2|0:0|0:0,0:0:0:0:
27,187,127002,2,0,B|0:115|48:116|22:49,1,140,2|0,0:2|0:0,0:0:0:0:
110,5,127602,1,8,0:0:0:0:
200,42,127802,1,0,0:0:0:0:
190,139,128002,6,0,P|175:197|190:276,1,140,2|8,0:2|0:0,0:0:0:0:
287,287,128602,1,0,0:0:0:0:
351,213,128802,2,0,L|349:136,1,70,2|0,0:2|0:0,0:0:0:0:
426,81,129202,1,8,0:0:0:0:
503,140,129402,1,0,0:0:0:0:
463,229,129602,6,0,P|459:273|471:319,1,70,2|0,0:2|0:0,0:0:0:0:
393,367,130002,1,8,0:0:0:0:
311,312,130202,2,0,P|321:234|311:156,1,140,2|0,0:2|0:0,0:0:0:0:
232,122,130802,2,0,P|195:129|151:123,1,70,8|0,0:0|0:0,0:0:0:0:
107,45,131202,6,0,P|117:114|81:171,1,140,2|8,0:2|0:0,0:0:0:0:
3,231,131802,1,0,0:0:0:0:
30,324,132002,2,0,P|61:336|114:328,1,70,2|0,0:2|0:0,0:0:0:0:
142,246,132402,1,8,0:0:0:0:
81,170,132602,1,0,0:0:0:0:
125,82,132802,6,0,L|118:12,2,70,2|0|8,0:2|0:0|0:0,0:0:0:0:
210,130,133402,2,0,B|280:146|283:98|346:118,1,140,2|0,0:2|0:0,0:0:0:0:
314,210,134001,1,8,0:0:0:0:
390,272,134202,1,0,0:0:0:0:
475,224,134402,6,0,B|483:192|483:192|475:152,1,70,2|0,0:2|0:0,0:0:0:0:
429,69,134802,1,8,0:0:0:0:
390,272,135202,1,2,0:2:0:0:
298,307,135402,1,0,0:0:0:0:
216,252,135603,2,0,P|181:242|136:252,1,70,8|0,0:0|0:0,0:0:0:0:
95,367,136002,5,2,0:0:0:0:
15,259,136202,1,2,0:0:0:0:
148,246,136402,1,8,0:0:0:0:
186,19,136802,5,2,0:0:0:0:
59,35,137002,1,2,0:0:0:0:
122,111,137202,2,0,P|127:146|117:190,1,70,2|2,0:0|0:0,0:0:0:0:
66,257,137602,6,0,P|127:230|206:239,1,125.999996154785,4|0,0:0|0:0,0:0:0:0:
264,283,138202,1,2,0:0:0:0:
333,347,138402,2,0,P|394:374|473:365,1,125.999996154785,8|0,0:0|0:0,0:0:0:0:
499,289,139002,1,0,0:0:0:0:
442,213,139202,6,0,P|438:173|451:135,1,62.9999980773926,2|2,0:0|0:2,0:0:0:0:
407,63,139602,2,0,P|374:86|334:94,1,62.9999980773926,0|2,0:0|0:0,0:0:0:0:
294,168,140002,2,0,P|330:184|357:214,1,62.9999980773926,8|2,0:0|0:0,0:0:0:0:
276,263,140402,1,12,0:0:0:0:
276,263,140602,1,0,0:0:0:0:
192,219,140802,6,0,B|167:161|167:161|178:88,1,125.999996154785,4|0,0:0|0:0,0:0:0:0:
229,21,141402,1,2,0:0:0:0:
134,12,141602,2,0,P|81:27|18:83,1,125.999996154785,8|0,0:0|0:0,0:0:0:0:
72,154,142202,1,0,0:0:0:0:
27,237,142402,6,0,B|15:266|15:266|20:297,1,62.9999980773926,2|2,0:0|0:2,0:0:0:0:
113,278,142802,2,0,B|142:290|142:290|173:284,1,62.9999980773926,0|2,0:0|0:0,0:0:0:0:
154,192,143202,2,0,B|166:163|166:163|160:131,1,62.9999980773926,8|2,0:0|0:0,0:0:0:0:
72,154,143602,1,10,0:0:0:0:
72,154,143802,1,2,0:0:0:0:
33,67,144002,6,0,B|89:21|171:28,1,125.999996154785,4|0,0:0|0:0,0:0:0:0:
240,54,144602,1,2,0:0:0:0:
295,130,144802,2,0,P|288:203|297:278,1,125.999996154785,8|0,0:0|0:0,0:0:0:0:
349,331,145402,1,0,0:0:0:0:
434,291,145602,6,0,L|496:297,1,62.9999980773926,2|2,0:0|0:2,0:0:0:0:
472,206,146002,2,0,L|409:199,1,62.9999980773926,0|2,0:0|0:0,0:0:0:0:
384,107,146402,2,0,L|447:114,1,62.9999980773926,8|2,0:0|0:0,0:0:0:0:
497,34,146802,1,12,0:0:0:0:
497,34,147002,1,0,0:0:0:0:
404,13,147202,6,0,B|339:6|339:6|282:27,1,125.999996154785,4|0,0:0|0:0,0:0:0:0:
212,91,147802,1,2,0:0:0:0:
232,183,148002,2,0,L|223:309,1,125.999996154785,8|0,0:0|0:0,0:0:0:0:
144,362,148602,1,0,0:0:0:0:
50,364,148802,6,0,P|36:335|35:304,1,62.9999980773926,2|2,0:0|0:2,0:0:0:0:
78,220,149202,1,0,0:0:0:0:
78,220,149402,1,0,0:0:0:0:
145,154,149602,2,0,P|158:125|159:94,1,62.9999980773926,8|0,0:0|0:0,0:0:0:0:
96,25,150002,1,8,0:0:0:0:
96,25,150202,1,0,0:0:0:0:
188,3,150402,6,0,P|220:-2|260:8,2,62.9999980773926,6|0|0,0:0|0:0|0:0,0:0:0:0:
159,94,151002,1,8,0:0:0:0:
220,166,151202,1,8,0:0:0:0:
294,107,151402,1,0,0:0:0:0:
354,179,151602,6,0,P|375:155|385:125,2,62.9999980773926,6|0|0,0:0|0:0|0:0,0:0:0:0:
294,107,152202,1,8,0:0:0:0:
356,36,152402,1,8,0:0:0:0:
448,55,152602,1,0,0:0:0:0:
491,138,152802,6,0,L|483:215,1,62.9999980773926,12|8,0:0|0:0,0:0:0:0:
396,235,153202,2,0,L|404:312,1,62.9999980773926,12|8,0:0|0:0,0:0:0:0:
335,364,153602,5,12,0:0:0:0:
256,192,153802,12,0,156802,2:0:0:0:
