osu file format v14

[General]
AudioFilename: audio.mp3
AudioLeadIn: 0
PreviewTime: 48485
Countdown: 0
SampleSet: Normal
StackLeniency: 0.7
Mode: 0
LetterboxInBreaks: 0
WidescreenStoryboard: 1

[Editor]
DistanceSpacing: 0.4
BeatDivisor: 2
GridSize: 4
TimelineZoom: 2.1

[Metadata]
Title:Here Comes Vi
TitleUnicode:Here Comes Vi
Artist:Nicki Taylor
ArtistUnicode:Nicki Taylor
Creator:-Slashy
Version:Hard
Source:League of Legends
Tags:Vi Theme Login
BeatmapID:1644984
BeatmapSetID:782025

[Difficulty]
HPDrainRate:6
CircleSize:3.5
OverallDifficulty:6
ApproachRate:8
SliderMultiplier:1.8
SliderTickRate:1

[Events]
//Background and Video events
0,0,"vi_bg.jpg",0,0
//Break Periods
2,41885,45735
//Storyboard Layer 0 (Background)
//Storyboard Layer 1 (Fail)
//Storyboard Layer 2 (Pass)
//Storyboard Layer 3 (Foreground)
//Storyboard Sound Samples

[TimingPoints]
3285,400,4,1,0,100,1,0
3285,-133.333333333333,4,1,0,100,0,0
16085,-100,4,1,0,100,0,0
29085,-66.6666666666667,4,1,0,100,0,0
29285,-100,4,1,0,100,0,0
32085,-100,4,1,0,100,0,0
32285,-100,4,1,0,100,0,0
48085,-66.6666666666667,4,1,0,100,0,0
48285,-100,4,1,0,100,0,1
57685,-66.6666666666667,4,1,0,100,0,1
58285,-100,4,1,0,100,0,1
60285,-66.6666666666667,4,1,0,100,0,1
60785,-100,4,1,0,100,0,1
64085,-66.6666666666667,4,1,0,100,0,1
65085,-100,4,1,0,100,0,1
66885,-66.6666666666667,4,1,0,100,0,1
67085,-100,4,1,0,100,0,1
72285,-100,4,1,0,100,0,0
72885,-133.333333333333,4,1,0,100,0,0
85085,-100,4,1,0,100,0,0
88085,-66.6666666666667,4,1,0,100,0,0
89685,-100,4,1,0,100,0,0
91285,-66.6666666666667,4,1,0,100,0,0
92785,-100,4,1,0,100,0,0
94485,-66.6666666666667,4,1,0,100,0,0
95985,-100,4,1,0,100,0,0
97685,-100,4,1,0,100,0,0
99185,-100,4,1,0,100,0,0
112485,-100,4,1,0,100,0,1
124485,-100,4,1,0,100,0,1
124885,-100,4,1,0,100,0,1
130885,-100,4,1,0,100,0,1
131085,-100,4,1,0,100,0,1
137685,-100,4,1,0,100,0,0

[Colours]
Combo1 : 179,179,255
Combo2 : 255,128,192

[HitObjects]
40,332,3285,6,0,P|80:348|112:340,1,67.5000025749208,4|0,0:0|0:0,0:0:0:0:
176,308,3685,1,8,0:0:0:0:
108,264,3885,1,8,0:0:0:0:
176,220,4085,2,0,P|212:228|236:264,1,67.5000025749208,4|0,0:0|0:0,0:0:0:0:
280,316,4485,2,0,P|312:332|364:328,1,67.5000025749208,8|8,0:0|0:0,0:0:0:0:
424,328,4885,6,0,L|424:252,1,67.5000025749208,4|8,0:0|0:0,0:0:0:0:
348,232,5285,2,0,L|348:304,1,67.5000025749208,4|8,0:0|0:0,0:0:0:0:
424,260,5685,2,0,L|424:188,1,67.5000025749208,4|8,0:0|0:0,0:0:0:0:
348,164,6085,2,0,L|348:236,1,67.5000025749208,4|8,0:0|0:0,0:0:0:0:
240,172,6485,2,0,B|236:208|236:208|256:232|256:232|240:272|252:312,1,135.000005149842,2|2,0:0|0:0,0:0:0:0:
320,336,7085,5,2,0:0:0:0:
396,368,7285,2,0,P|429:372|460:361,1,67.5000025749208,4|8,0:0|0:0,0:0:0:0:
416,292,7685,2,0,P|384:280|360:256,1,67.5000025749208,4|8,0:0|0:0,0:0:0:0:
424,204,8085,1,8,0:0:0:0:
352,168,8285,2,0,P|371:140|408:124,1,67.5000025749208,0|8,0:0|0:0,0:0:0:0:
424,204,8685,1,0,0:0:0:0:
412,284,8885,6,0,P|376:296|344:284,1,67.5000025749208,8|0,0:0|0:0,0:0:0:0:
276,252,9285,1,8,0:0:0:0:
208,208,9485,1,0,0:0:0:0:
280,172,9685,2,0,B|288:128|288:128|264:76|264:76|272:32,2,135.000005149842,4|4|4,0:0|0:0|0:0,0:0:0:0:
272,252,10685,1,0,0:0:0:0:
200,288,10885,1,4,0:0:0:0:
132,244,11085,1,0,0:0:0:0:
200,200,11285,6,0,P|184:160|148:136,1,67.5000025749208,4|8,0:0|0:0,0:0:0:0:
108,88,11685,1,4,0:0:0:0:
56,152,11885,1,8,0:0:0:0:
56,232,12085,2,0,P|66:263|89:287,1,67.5000025749208,4|8,0:0|0:0,0:0:0:0:
164,320,12485,1,4,0:0:0:0:
224,268,12685,1,0,0:0:0:0:
268,200,12885,6,0,B|324:148|324:148|388:152,1,135.000005149842,2|2,0:0|0:0,0:0:0:0:
356,228,13485,1,0,0:0:0:0:
424,276,13685,2,0,B|456:256|456:256|460:216,2,67.5000025749208,2|0|4,0:0|0:0|0:0,0:0:0:0:
360,324,14285,1,8,0:0:0:0:
268,308,14485,2,0,B|244:260|244:260|228:324|152:344|72:300|96:228,1,270.000010299683,4|4,0:0|0:0,0:0:0:0:
168,224,15485,6,0,L|168:156,1,67.5000025749208,8|4,0:0|0:0,0:0:0:0:
124,88,15885,1,8,0:0:0:0:
40,16,16085,2,0,B|-8:44|-8:44|48:76|32:180,2,180,12|4|4,0:0|0:0|0:0,0:0:0:0:
124,84,17085,1,0,0:0:0:0:
208,16,17285,2,0,B|232:48|232:48|263:44|292:64,1,90,8|8,0:0|0:0,0:0:0:0:
376,112,17685,5,4,0:0:0:0:
448,192,17885,1,8,0:0:0:0:
368,264,18085,2,0,B|408:300|408:300|452:304,1,90,4|8,0:0|0:0,0:0:0:0:
448,192,18485,1,12,0:0:0:0:
448,84,18685,1,8,0:0:0:0:
360,144,18885,2,0,L|268:144,1,90,4|8,0:0|0:0,0:0:0:0:
192,68,19285,2,0,P|114:49|106:128,1,180,4|4,0:0|0:0,0:0:0:0:
136,232,19885,1,8,0:0:0:0:
52,300,20085,5,0,0:0:0:0:
52,300,20285,1,8,0:0:0:0:
52,300,20485,2,0,P|34:244|-10:240,1,90,4|8,0:0|0:0,0:0:0:0:
116,156,20885,1,4,0:0:0:0:
116,156,21085,1,8,0:0:0:0:
116,156,21285,2,0,P|128:232|208:204,1,180,6|2,0:0|0:0,0:0:0:0:
192,80,21885,5,0,0:0:0:0:
276,148,22085,2,0,P|292:100|292:52,1,90,2|2,0:0|0:0,0:0:0:0:
192,80,22485,2,0,P|180:136|188:172,1,90,8|10,0:0|0:0,0:0:0:0:
240,264,22885,2,0,B|272:252|272:252|276:296|304:308,1,90,8|10,0:0|0:0,0:0:0:0:
380,240,23285,1,8,0:0:0:0:
460,312,23485,1,0,0:0:0:0:
380,384,23685,2,0,B|352:360|352:360|316:388|272:376,1,90,4|0,0:0|0:0,0:0:0:0:
196,376,24085,2,0,B|152:376|152:376|116:344|116:344|80:376|80:376|36:376,2,180,6|4|4,0:0|0:0|0:0,0:0:0:0:
388,312,25285,6,0,B|420:276|420:276|420:232,1,90,4|0,0:0|0:0,0:0:0:0:
416,124,25685,2,0,P|360:56|260:104,1,180,4|4,0:0|0:0,0:0:0:0:
328,172,26285,1,0,0:0:0:0:
236,232,26485,1,4,0:0:0:0:
236,232,26685,1,0,0:0:0:0:
236,232,26885,2,0,P|272:265|317:270,1,90,4|0,0:0|0:0,0:0:0:0:
448,216,27285,6,0,P|412:264|384:284,1,90,4|0,0:0|0:0,0:0:0:0:
300,344,27685,2,0,B|254:347|224:355|224:355|192:290|139:293,1,180,4|4,0:0|0:0,0:0:0:0:
260,259,28285,1,8,0:0:0:0:
332,196,28485,2,0,B|364:160|364:160|364:116,2,90,0|10|4,0:0|0:0|0:0,0:0:0:0:
144,192,29085,1,8,0:0:0:0:
240,124,29285,2,0,P|232:168|248:228,1,90,0|8,0:0|0:0,0:0:0:0:
332,196,29685,1,4,0:0:0:0:
448,168,29885,6,0,P|440:100|400:68,1,90,8|4,0:0|0:0,0:0:0:0:
340,156,30285,1,8,0:0:0:0:
232,168,30485,2,0,P|240:100|280:68,1,90,6|10,0:0|0:0,0:0:0:0:
340,20,30885,1,6,0:0:0:0:
442,53,31085,1,10,0:0:0:0:
442,161,31285,2,0,L|444:256,1,90,2|10,0:0|0:0,0:0:0:0:
364,324,31685,6,0,L|364:224,1,90,8|10,0:0|0:0,0:0:0:0:
442,161,32085,2,0,L|444:256,1,90,6|4,0:0|0:0,0:0:0:0:
364,324,32485,2,0,L|364:224,1,90,4|8,0:0|0:0,0:0:0:0:
356,128,32885,1,4,0:0:0:0:
288,44,33085,1,8,0:0:0:0:
216,124,33285,6,0,B|232:160|232:160|236:236,1,90,4|8,0:0|0:0,0:0:0:0:
164,292,33685,2,0,B|148:256|148:256|144:180,1,90,4|0,0:0|0:0,0:0:0:0:
160,100,34085,1,6,0:0:0:0:
247,37,34285,2,0,B|260:75|260:75|260:132,1,90,2|6,0:0|0:0,0:0:0:0:
160,100,34685,1,2,0:0:0:0:
70,38,34885,2,0,B|57:76|57:76|57:133,1,90,6|4,0:0|0:0,0:0:0:0:
131,203,35285,1,4,0:0:0:0:
160,100,35485,1,0,0:0:0:0:
115,1,35685,6,0,B|75:21|75:21|-1:1,2,90,4|0|4,0:0|0:0|0:0,0:0:0:0:
204,64,36285,1,0,0:0:0:0:
296,4,36485,2,0,L|396:16,1,90,4|0,0:0|0:0,0:0:0:0:
448,104,36885,2,0,L|358:93,1,90,4|2,0:0|0:0,0:0:0:0:
252,72,37285,1,2,0:0:0:0:
160,128,37485,2,0,P|112:144|108:36,1,180,2|2,0:0|0:0,0:0:0:0:
192,24,38085,1,2,0:0:0:0:
260,108,38285,1,0,0:0:0:0:
212,204,38485,6,0,P|163:225|120:196,1,90,6|8,0:0|0:0,0:0:0:0:
180,115,38885,2,0,P|229:94|272:123,1,90,4|8,0:0|0:0,0:0:0:0:
328,256,39285,1,4,0:0:0:0:
256,336,39485,1,8,0:0:0:0:
360,372,39685,1,4,0:0:0:0:
432,292,39885,1,8,0:0:0:0:
328,256,40085,6,0,P|284:236|180:308,1,180,4|4,0:0|0:0,0:0:0:0:
92,252,40685,2,0,P|68:204|116:96,1,180,8|8,0:0|0:0,0:0:0:0:
156,192,41285,1,8,0:0:0:0:
220,64,41485,1,8,0:0:0:0:
72,28,41685,1,4,0:0:0:0:
256,132,46485,5,8,0:0:0:0:
256,132,46585,1,0,0:0:0:0:
256,132,46685,2,0,L|256:87,1,45,0|0,0:0|0:0,0:0:0:0:
332,192,46885,1,8,0:0:0:0:
332,192,46985,1,0,0:0:0:0:
332,192,47085,2,0,L|377:192,1,45,0|0,0:0|0:0,0:0:0:0:
256,284,47285,5,8,0:0:0:0:
256,284,47385,1,0,0:0:0:0:
256,284,47485,2,0,L|256:329,1,45,0|0,0:0|0:0,0:0:0:0:
180,192,47685,1,8,0:0:0:0:
180,192,47785,1,0,0:0:0:0:
180,192,47885,2,0,L|135:192,1,45,0|0,0:0|0:0,0:0:0:0:
60,268,48085,5,4,0:0:0:0:
152,324,48285,1,0,0:0:0:0:
236,256,48485,2,0,P|204:188|176:172,1,90,8|0,0:0|0:0,0:0:0:0:
112,112,48885,1,8,0:0:0:0:
20,56,49085,1,0,0:0:0:0:
116,4,49285,2,0,L|224:32,1,90,8|0,0:0|0:0,0:0:0:0:
308,60,49685,2,0,B|360:84|360:84|368:144,1,90,8|0,0:0|0:0,0:0:0:0:
384,224,50085,6,0,B|436:200|436:200|440:167,1,90,8|0,0:0|0:0,0:0:0:0:
384,76,50485,1,8,0:0:0:0:
284,36,50685,1,0,0:0:0:0:
184,72,50885,2,0,L|100:132,1,90,8|0,0:0|0:0,0:0:0:0:
224,264,51285,2,0,L|304:212,1,90,8|4,0:0|0:0,0:0:0:0:
104,184,51685,2,0,L|164:268,1,90,8|4,0:0|0:0,0:0:0:0:
296,144,52085,2,0,L|244:64,1,90,8|4,0:0|0:0,0:0:0:0:
176,148,52485,2,0,P|156:176|96:180,1,90,8|0,0:0|0:0,0:0:0:0:
24,256,52885,6,0,P|36:292|96:320,2,90,8|0|8,0:0|0:0|0:0,0:0:0:0:
16,148,53485,2,0,B|48:96|48:96|100:144|88:204,1,180,2|2,0:0|0:0,0:0:0:0:
28,280,54085,1,8,0:0:0:0:
84,360,54285,1,0,0:0:0:0:
184,356,54485,2,0,B|216:380|216:380|236:368|236:368|264:380|288:372,1,90,8|0,0:0|0:0,0:0:0:0:
368,360,54885,5,4,0:0:0:0:
432,272,55085,1,8,0:0:0:0:
324,280,55285,2,0,P|280:288|236:280,1,90,4|8,0:0|0:0,0:0:0:0:
160,200,55685,2,0,P|204:192|248:200,1,90,4|8,0:0|0:0,0:0:0:0:
148,304,56085,2,0,P|80:228|96:124,1,180,4|4,0:0|0:0,0:0:0:0:
8,112,56685,2,0,P|92:72|164:128,1,180,4|8,0:0|0:0,0:0:0:0:
276,64,57285,5,8,0:0:0:0:
168,68,57485,1,8,0:0:0:0:
400,172,57685,1,4,0:0:0:0:
76,164,58085,1,4,0:0:0:0:
256,284,58485,1,4,0:0:0:0:
200,44,58885,5,4,0:0:0:0:
264,184,59085,1,8,0:0:0:0:
280,32,59285,1,4,0:0:0:0:
196,160,59485,1,8,0:0:0:0:
336,96,59685,1,8,0:0:0:0:
184,88,59885,1,8,0:0:0:0:
336,96,60085,2,0,P|376:52|384:16,1,90,8|2,0:0|0:0,0:0:0:0:
400,156,60485,2,0,P|448:116|460:28,1,135.000005149842,2|2,0:0|0:0,0:0:0:0:
304,28,60885,5,4,0:0:0:0:
304,28,61085,1,0,0:0:0:0:
232,108,61285,1,8,0:0:0:0:
232,108,61485,1,8,0:0:0:0:
156,28,61685,1,8,0:0:0:0:
156,28,61885,1,8,0:0:0:0:
48,32,62085,5,8,0:0:0:0:
108,120,62285,1,8,0:0:0:0:
156,28,62485,2,0,P|184:64|196:108,1,90,4|8,0:0|0:0,0:0:0:0:
148,204,62885,2,0,P|208:216|244:196,1,90,4|8,0:0|0:0,0:0:0:0:
312,164,63285,1,4,0:0:0:0:
288,252,63485,1,8,0:0:0:0:
360,304,63685,2,0,P|416:236|416:220,1,90,4|8,0:0|0:0,0:0:0:0:
416,104,64085,5,8,0:0:0:0:
256,320,64485,1,8,0:0:0:0:
96,104,64885,1,8,0:0:0:0:
256,24,65285,2,0,B|292:56|292:56|344:56,1,90,4|8,0:0|0:0,0:0:0:0:
424,44,65685,2,0,P|472:120|444:208,1,180,4|4,0:0|0:0,0:0:0:0:
376,268,66285,1,8,0:0:0:0:
492,264,66485,1,8,0:0:0:0:
436,336,66685,1,8,0:0:0:0:
340,336,66885,6,0,L|196:332,1,135.000005149842,2|2,0:0|0:0,0:0:0:0:
120,300,67285,1,8,0:0:0:0:
188,240,67485,1,0,0:0:0:0:
112,192,67685,1,8,0:0:0:0:
256,304,68085,1,8,0:0:0:0:
396,192,68485,1,8,0:0:0:0:
256,80,68885,5,8,0:0:0:0:
184,132,69085,1,0,0:0:0:0:
112,76,69285,2,0,L|16:56,1,90,8|0,0:0|0:0,0:0:0:0:
8,148,69685,2,0,L|96:166,1,90,8|0,0:0|0:0,0:0:0:0:
184,188,70085,1,8,0:0:0:0:
364,192,70485,5,8,0:0:0:0:
364,192,70685,1,8,0:0:0:0:
364,192,70885,1,8,0:0:0:0:
300,128,71085,1,8,0:0:0:0:
228,184,71285,1,8,0:0:0:0:
148,140,71485,1,8,0:0:0:0:
144,52,71685,1,2,0:0:0:0:
144,52,71885,1,8,0:0:0:0:
144,52,72085,2,0,B|124:12|124:12|64:20,2,90,2|2|0,0:0|0:0|0:0,0:0:0:0:
136,188,72885,5,2,0:0:0:0:
192,264,73085,1,8,0:0:0:0:
252,192,73285,1,2,0:0:0:0:
204,112,73485,1,8,0:0:0:0:
284,120,73685,2,0,B|316:124|348:164|340:208|324:228|324:228|360:252|380:292|380:292|468:204|436:128,1,405.000015449525,2|2,0:0|0:0,0:0:0:0:
384,64,75085,5,0,0:0:0:0:
300,32,75285,2,0,P|266:28|235:39,1,67.5000025749208,2|0,0:0|0:0,0:0:0:0:
136,64,75685,1,2,0:0:0:0:
68,16,75885,2,0,P|52:56|60:80,1,67.5000025749208,0|2,0:0|0:0,0:0:0:0:
108,152,76285,1,0,0:0:0:0:
56,220,76485,2,0,P|104:236|128:228,1,67.5000025749208,0|0,0:0|0:0,0:0:0:0:
170,164,76885,2,0,P|122:148|98:156,1,67.5000025749208,2|0,0:0|0:0,0:0:0:0:
56,220,77285,6,0,P|104:236|128:228,1,67.5000025749208,2|0,0:0|0:0,0:0:0:0:
170,164,77685,2,0,P|122:148|98:156,1,67.5000025749208,2|0,0:0|0:0,0:0:0:0:
56,220,78085,1,2,0:0:0:0:
120,280,78285,1,0,0:0:0:0:
52,336,78485,2,0,B|68:364|68:364|108:368,1,67.5000025749208,2|0,0:0|0:0,0:0:0:0:
184,336,78885,1,2,0:0:0:0:
228,252,79085,2,0,P|228:208|196:168,1,67.5000025749208,0|2,0:0|0:0,0:0:0:0:
228,52,79685,5,4,0:0:0:0:
300,104,79885,1,8,0:0:0:0:
364,44,80085,2,0,P|396:28|436:32,1,67.5000025749208,2|0,0:0|0:0,0:0:0:0:
412,116,80485,1,4,0:0:0:0:
452,192,80685,2,0,P|420:208|380:204,1,67.5000025749208,8|2,0:0|0:0,0:0:0:0:
304,168,81085,1,0,0:0:0:0:
268,256,81285,1,4,0:0:0:0:
344,312,81485,1,8,0:0:0:0:
440,320,81685,6,0,B|456:292|456:292|456:256,2,67.5000025749208,2|0|4,0:0|0:0|0:0,0:0:0:0:
360,368,82285,2,0,P|306:353|292:338,1,67.5000025749208,8|2,0:0|0:0,0:0:0:0:
188,316,82685,1,0,0:0:0:0:
80,340,82885,2,0,P|72:296|92:248,1,67.5000025749208,4|8,0:0|0:0,0:0:0:0:
100,188,83285,2,0,L|112:104,1,67.5000025749208,4|4,0:0|0:0,0:0:0:0:
216,60,83685,2,0,L|206:126,1,67.5000025749208,8|4,0:0|0:0,0:0:0:0:
100,188,84085,2,0,L|112:104,1,67.5000025749208,4|8,0:0|0:0,0:0:0:0:
216,60,84485,2,0,L|206:126,1,67.5000025749208,4|4,0:0|0:0,0:0:0:0:
256,236,84885,1,8,0:0:0:0:
308,64,85085,1,8,0:0:0:0:
80,32,86485,6,0,B|79:99|79:99|56:135|56:135|104:186|104:186|64:232|64:232|80:280|80:280|80:352,2,360,2|0|8,0:0|0:0|0:0,0:0:0:0:
204,272,88485,1,8,0:0:0:0:
302,105,88685,1,8,0:0:0:0:
155,189,88885,1,8,0:0:0:0:
350,189,89085,1,8,0:0:0:0:
204,105,89285,1,8,0:0:0:0:
302,273,89485,1,8,0:0:0:0:
432,352,89685,2,0,B|433:285|433:285|456:249|456:249|408:198|408:198|448:152|448:152|432:104|432:104|432:35,2,360,4|0|8,0:0|0:0|0:0,0:0:0:0:
128,128,91685,5,8,0:0:0:0:
172,324,91885,1,8,0:0:0:0:
220,128,92085,1,8,0:0:0:0:
268,324,92285,1,8,0:0:0:0:
312,128,92485,1,8,0:0:0:0:
356,324,92685,1,8,0:0:0:0:
444,224,92885,2,0,B|400:164|340:156|312:160|288:252|236:268|156:224|148:136,2,360,4|0|8,0:0|0:0|0:0,0:0:0:0:
352,328,94885,5,8,0:0:0:0:
156,308,95085,1,8,0:0:0:0:
344,236,95285,1,8,0:0:0:0:
144,216,95485,1,8,0:0:0:0:
336,152,95685,1,8,0:0:0:0:
136,136,95885,1,8,0:0:0:0:
256,88,96085,2,0,P|300:-21|245:83,2,360,4|0|8,0:0|0:0|0:0,0:0:0:0:
84,12,98085,5,8,0:0:0:0:
32,108,98285,1,8,0:0:0:0:
112,180,98485,1,8,0:0:0:0:
192,108,98685,1,8,0:0:0:0:
272,36,98885,2,0,P|315:46|350:74,1,90,8|8,0:0|0:0,0:0:0:0:
420,156,99285,2,0,B|372:216|372:216|348:196|348:196|324:216|324:216|300:196|300:196|276:216|276:216|252:196|252:196|228:216|228:216|204:196|204:196|164:224|92:212|76:140|108:104,1,450,4|0,0:0|0:0,0:0:0:0:
148,44,100485,5,8,0:0:0:0:
228,116,100685,1,0,0:0:0:0:
164,200,100885,2,0,L|76:184,1,90,8|8,0:0|0:0,0:0:0:0:
52,288,101285,2,0,L|144:304,1,90,8|8,0:0|0:0,0:0:0:0:
248,280,101685,1,8,0:0:0:0:
308,372,101885,1,8,0:0:0:0:
364,292,102085,6,0,L|308:208,1,90,8|8,0:0|0:0,0:0:0:0:
388,132,102485,2,0,P|443:190|440:288,1,180,4|4,0:0|0:0,0:0:0:0:
372,356,103085,1,0,0:0:0:0:
288,304,103285,2,0,P|233:232|268:108,2,180,4|8|8,0:0|0:0|0:0,0:0:0:0:
320,320,104285,1,0,0:0:0:0:
348,300,104485,1,8,0:0:0:0:
368,268,104685,2,0,P|382:238|374:182,1,90,0|8,0:0|0:0,0:0:0:0:
352,48,105285,5,8,0:0:0:0:
256,180,105485,1,0,0:0:0:0:
160,48,105685,1,8,0:0:0:0:
160,48,106085,1,8,0:0:0:0:
256,180,106285,1,0,0:0:0:0:
256,180,106685,5,0,0:0:0:0:
144,272,106885,1,8,0:0:0:0:
24,192,107085,1,0,0:0:0:0:
140,104,107285,2,0,P|184:80|248:104,1,90,8|0,0:0|0:0,0:0:0:0:
344,60,107685,2,0,P|396:48|428:12,2,90,8|0|8,0:0|0:0|0:0,0:0:0:0:
128,188,108485,5,8,0:0:0:0:
64,272,108685,1,0,0:0:0:0:
160,324,108885,2,0,B|196:296|196:296|196:244,1,90,4|0,0:0|0:0,0:0:0:0:
192,144,109285,1,8,0:0:0:0:
256,60,109485,1,0,0:0:0:0:
336,144,109685,2,0,B|336:192|336:192|300:232,2,90,4|0|4,0:0|0:0|0:0,0:0:0:0:
256,60,110285,2,0,B|208:60|208:60|176:32,2,90,0|4|0,0:0|0:0|0:0,0:0:0:0:
340,128,110885,5,4,0:0:0:0:
256,196,111085,1,0,0:0:0:0:
172,128,111285,1,0,0:0:0:0:
80,184,111485,1,0,0:0:0:0:
108,288,111685,1,0,0:0:0:0:
216,296,111885,1,0,0:0:0:0:
256,196,112085,1,4,0:0:0:0:
400,36,112485,6,0,P|392:96|412:124,1,90,0|8,0:0|0:0,0:0:0:0:
504,164,112885,1,0,0:0:0:0:
500,272,113085,2,0,P|456:292|408:264,1,90,8|0,0:0|0:0,0:0:0:0:
348,196,113485,1,8,0:0:0:0:
308,296,113685,2,0,P|320:356|356:376,1,90,8|8,0:0|0:0,0:0:0:0:
448,376,114085,1,8,0:0:0:0:
376,296,114285,2,0,P|320:280|276:284,1,90,8|0,0:0|0:0,0:0:0:0:
208,352,114685,1,4,0:0:0:0:
100,360,114885,6,0,P|48:360|32:268,1,90,4|4,0:0|0:0,0:0:0:0:
96,260,115285,2,0,P|44:192|76:108,1,180,4|0,0:0|0:0,0:0:0:0:
156,184,115885,1,8,0:0:0:0:
232,108,116085,2,0,P|184:84|132:84,1,90,0|8,0:0|0:0,0:0:0:0:
68,160,116485,1,0,0:0:0:0:
168,204,116685,1,8,0:0:0:0:
244,128,116885,2,0,B|292:124|292:124|328:108|328:108|372:128|372:128|404:104|404:104|444:112|444:112|500:100,2,270,0|2|4,0:0|0:0|0:0,0:0:0:0:
152,68,118285,1,4,0:0:0:0:
44,68,118485,6,0,P|28:116|140:176,1,180,6|8,0:0|0:0,0:0:0:0:
188,264,119085,1,0,0:0:0:0:
112,340,119285,2,0,P|148:365|192:364,1,90,8|0,0:0|0:0,0:0:0:0:
292,320,119685,2,0,P|340:320|372:344,1,90,8|8,0:0|0:0,0:0:0:0:
480,352,120085,2,0,P|504:268|432:224,1,180,0|0,0:0|0:0,0:0:0:0:
396,304,120685,2,0,B|365:299|365:299|366:197|308:171,1,180,8|8,0:0|0:0,0:0:0:0:
220,64,121285,6,0,B|260:44|260:44|320:64,1,90,8|0,0:0|0:0,0:0:0:0:
400,108,121685,2,0,B|448:116|448:116|488:88,1,90,8|0,0:0|0:0,0:0:0:0:
396,24,122085,2,0,B|352:40|352:40|324:80,1,90,8|0,0:0|0:0,0:0:0:0:
304,180,122485,2,0,B|288:224|288:224|248:248,1,90,8|0,0:0|0:0,0:0:0:0:
144,232,122885,2,0,B|100:216|100:216|76:176,1,90,8|0,0:0|0:0,0:0:0:0:
80,72,123285,2,0,B|96:28|96:28|136:4,2,90,8|8|8,0:0|0:0|0:0,0:0:0:0:
77,178,123885,2,0,B|61:222|61:222|21:246,2,90,8|6|2,0:0|0:0|0:0,0:0:0:0:
128,84,124485,6,0,B|140:64|140:64|176:72|224:28,1,90,2|0,0:0|0:0,0:0:0:0:
280,120,124885,1,4,0:0:0:0:
240,220,125085,1,8,0:0:0:0:
292,316,125285,2,0,P|316:360|352:368,1,90,0|8,0:0|0:0,0:0:0:0:
460,352,125685,1,0,0:0:0:0:
508,256,125885,1,8,0:0:0:0:
500,148,126085,2,0,B|500:116|500:116|512:92|512:92|512:44,1,90,0|8,0:0|0:0,0:0:0:0:
428,28,126485,6,0,B|432:80|432:80|412:136|412:136|416:208,1,180,0|0,0:0|0:0,0:0:0:0:
508,308,127085,2,0,P|528:360|436:360,1,180,8|8,0:0|0:0,0:0:0:0:
364,284,127685,2,0,P|316:320|304:364,1,90,0|8,0:0|0:0,0:0:0:0:
196,348,128085,6,0,P|160:300|116:288,1,90,4|8,0:0|0:0,0:0:0:0:
56,332,128485,2,0,P|44:264|60:240,1,90,4|8,0:0|0:0,0:0:0:0:
100,152,128885,2,0,P|116:110|103:68,1,90,4|8,0:0|0:0,0:0:0:0:
24,96,129285,2,0,B|20:48|20:48|56:4,1,90,4|8,0:0|0:0,0:0:0:0:
156,12,129685,2,0,P|212:36|272:24,1,90,8|0,0:0|0:0,0:0:0:0:
300,104,130085,2,0,P|244:128|184:116,2,90,8|0|8,0:0|0:0|0:0,0:0:0:0:
376,28,130685,1,0,0:0:0:0:
468,88,130885,6,0,B|468:140|468:140|420:188,2,90,8|2|8,0:0|0:0|0:0,0:0:0:0:
376,28,131485,1,0,0:0:0:0:
292,96,131685,2,0,P|268:160|144:160,1,180,8|8,0:0|0:0,0:0:0:0:
204,76,132285,1,0,0:0:0:0:
124,4,132485,1,8,0:0:0:0:
32,60,132685,1,0,0:0:0:0:
78,156,132885,2,0,P|163:151|203:75,2,180,8|8|8,0:0|0:0|0:0,0:0:0:0:
256,276,134085,5,8,0:0:0:0:
256,60,134485,1,8,0:0:0:0:
256,276,134685,1,0,0:0:0:0:
256,60,134885,1,8,0:0:0:0:
308,156,135085,1,0,0:0:0:0:
208,200,135285,1,8,0:0:0:0:
172,100,135485,1,0,0:0:0:0:
272,56,135685,5,8,0:0:0:0:
216,148,135885,1,4,0:0:0:0:
88,196,136085,2,0,B|64:176|64:176|44:196|8:188,2,90,8|4|0,0:0|0:0|0:0,0:0:0:0:
424,196,136885,2,0,B|448:176|448:176|468:196|504:188,2,90,8|4|8,0:0|0:0|0:0,0:0:0:0:
256,192,137685,1,8,0:0:0:0:
256,192,137785,12,4,144085,0:0:0:0:
492,12,144485,5,0,0:0:0:0:
404,76,144685,2,0,P|356:96|308:68,1,90,0|4,0:0|0:0,0:0:0:0:
224,44,145085,1,0,0:0:0:0:
128,92,145285,2,0,P|155:126|198:133,1,90,0|0,0:0|0:0,0:0:0:0:
304,116,145685,6,0,P|328:168|324:204,1,90,4|0,0:0|0:0,0:0:0:0:
208,116,146085,2,0,P|184:168|188:204,1,90,8|0,0:0|0:0,0:0:0:0:
304,116,146485,2,0,P|328:168|324:204,1,90,4|0,0:0|0:0,0:0:0:0:
208,116,146885,2,0,P|184:168|188:204,1,90,4|0,0:0|0:0,0:0:0:0:
224,300,147285,6,0,P|172:328|168:128,2,360,4|8|4,0:0|0:0|0:0,0:0:0:0:
276,224,149085,1,0,0:0:0:0:
208,164,149285,1,4,0:0:0:0:
140,224,149485,1,0,0:0:0:0:
204,300,149685,2,0,P|244:336|312:344,1,90,0|0,0:0|0:0,0:0:0:0:
272,248,150085,2,0,P|232:212|164:204,1,90,0|0,0:0|0:0,0:0:0:0:
104,232,150485,6,0,B|84:196|84:196|84:148,1,90,8|0,0:0|0:0,0:0:0:0:
136,64,150885,1,4,0:0:0:0:
184,152,151085,6,0,B|220:132|220:132|268:132,1,90,0|8,0:0|0:0,0:0:0:0:
352,184,151485,1,0,0:0:0:0:
420,256,151685,6,0,B|384:276|384:276|336:276,1,90,4|0,0:0|0:0,0:0:0:0:
252,224,152085,1,8,0:0:0:0:
172,284,152285,6,0,B|140:260|140:260|140:200,1,90,0|4,0:0|0:0,0:0:0:0:
163,121,152685,1,0,0:0:0:0:
257,52,152885,5,8,0:0:0:0:
313,229,153085,1,0,0:0:0:0:
163,121,153285,1,4,0:0:0:0:
349,119,153485,1,8,0:0:0:0:
198,229,153685,1,4,0:0:0:0:
