osu file format v14

[General]
AudioFilename: Nicki Minaj - Starships (Nightcore Mix).mp3
AudioLeadIn: 0
PreviewTime: 57775
Countdown: 0
SampleSet: Soft
StackLeniency: 0.3
Mode: 0
LetterboxInBreaks: 0
WidescreenStoryboard: 0

[Editor]
DistanceSpacing: 0.9
BeatDivisor: 4
GridSize: 4
TimelineZoom: 1.4

[Metadata]
Title:Starships (Speed Up Ver.)
TitleUnicode:Starships (Speed Up Ver.)
Artist:Nicki Minaj
ArtistUnicode:Nicki Minaj
Creator:Lally
Version:Normal
Source:
Tags:alacat gero andrea osuplayer111 collaboration single hip hop nsfw explicit
BeatmapID:385461
BeatmapSetID:155266

[Difficulty]
HPDrainRate:4
CircleSize:3
OverallDifficulty:4
ApproachRate:5
SliderMultiplier:1.4
SliderTickRate:1

[Events]
//Background and Video events
0,0,"one more time.jpg",0,0
//Break Periods
2,134575,143373
//Storyboard Layer 0 (Background)
//Storyboard Layer 1 (Fail)
//Storyboard Layer 2 (Pass)
//Storyboard Layer 3 (Foreground)
//Storyboard Sound Samples

[TimingPoints]
173,400,4,2,2,60,1,0
12973,-100,4,2,1,60,0,0
18573,-100,4,2,4,40,0,0
18973,-100,4,2,4,60,0,0
19373,-100,4,2,1,60,0,0
32573,-100,4,2,2,60,0,0
44373,-100,4,2,2,50,0,0
44973,-100,4,2,1,60,0,0
47773,-100,4,2,2,40,0,0
47973,-100,4,2,2,50,0,0
48173,-100,4,2,1,60,0,0
50773,-100,4,2,2,40,0,0
51373,-100,4,2,1,60,0,0
54573,-100,4,2,3,40,0,0
57173,-100,4,2,4,50,0,0
57373,-100,4,2,4,60,0,0
57773,-100,4,2,3,100,0,1
63773,-100,4,2,4,60,0,1
64173,-100,4,2,3,100,0,1
70173,-100,4,2,4,60,0,0
70573,-100,4,2,1,70,0,0
80173,-100,4,2,2,50,0,0
82573,-100,4,2,4,40,0,0
82773,-100,4,2,4,50,0,0
82973,-100,4,2,4,70,0,0
83173,-100,4,2,4,90,0,0
83373,-100,4,2,1,70,0,0
88973,-100,4,2,4,70,0,0
89173,-100,4,2,1,70,0,0
89373,-100,4,2,4,70,0,0
89773,-100,4,2,1,70,0,0
96573,-100,4,2,2,70,0,0
108373,-100,4,2,2,40,0,0
108573,-100,4,2,2,50,0,0
108773,-100,4,2,2,60,0,0
108973,-100,4,2,1,70,0,0
111773,-100,4,2,2,40,0,0
111973,-100,4,2,2,60,0,0
112173,-100,4,2,1,70,0,0
114773,-100,4,2,2,50,0,0
115373,-100,4,2,1,70,0,0
118573,-100,4,2,3,40,0,0
119973,-100,4,2,2,50,0,0
121173,-100,4,2,4,50,0,0
121373,-100,4,2,4,50,0,0
121773,-100,4,2,3,90,0,1
127773,-100,4,2,4,90,0,1
128173,-100,4,2,3,90,0,1
134173,-100,4,2,4,80,0,0
144573,-100,4,2,3,40,0,0
147373,-100,4,2,1,60,0,0
150173,-100,4,2,2,50,0,0
150573,-100,4,2,1,60,0,0
153173,-100,4,2,2,50,0,0
153773,-100,4,2,1,60,0,0
158373,-100,4,2,2,50,0,0
159573,-100,4,2,4,60,0,0
159773,-100,4,2,4,60,0,0
160173,-100,4,2,3,90,0,1
162973,-100,4,2,2,50,0,1
163173,-100,4,2,2,70,0,1
163373,-100,4,2,3,90,0,1
166173,-100,4,2,4,90,0,1
166573,-100,4,2,3,90,0,1
172573,-100,4,2,4,90,0,0

[Colours]
Combo1 : 169,130,242
Combo2 : 130,205,234
Combo3 : 118,225,113
Combo4 : 201,228,105
Combo5 : 242,247,74
Combo6 : 245,179,54
Combo7 : 250,80,80
Combo8 : 244,83,184

[HitObjects]
192,136,5973,6,0,P|172:92|136:64,2,70
208,196,6573,2,0,P|244:240|336:252,1,140,2|0,0:0|0:0,0:0:0:0:
412,168,7373,2,0,L|416:84,2,70,0|0|0,0:0|0:0|0:0,0:0:0:0:
420,292,8173,6,0,P|380:344|288:352,1,140,2|0,0:0|0:0,0:0:0:0:
192,312,8973,2,0,P|136:284|112:288,1,70
88,328,9373,2,0,L|44:184,2,140,0|2|0,0:0|0:0|0:0,0:0:0:0:
148,216,10573,2,0,L|104:72,1,140
92,20,11173,1,0,0:0:0:0:
156,24,11373,6,0,B|208:40|232:80|232:80|304:68,1,140,2|0,0:0|0:0,0:0:0:0:
400,52,12173,1,0,0:0:0:0:
492,136,12573,1,0,0:0:0:0:
372,172,12973,6,0,L|312:212,1,70,2|0,0:0|0:0,0:0:0:0:
256,240,13373,2,0,B|256:328|316:332|316:332|348:312,2,140,2|2|2,0:0|0:0|0:0,0:0:0:0:
176,144,14573,2,0,L|120:88,1,70,2|0,0:0|0:0,0:0:0:0:
92,41,14973,2,0,B|163:-10|201:35|201:35|204:73,2,140,2|2|2,0:0|0:0|0:0,0:0:0:0:
50,156,16173,6,0,P|113:176|187:130,1,140,2|2,0:0|0:0,0:0:0:0:
300,128,16973,2,0,L|372:176,2,70,2|0|2,0:0|0:0|0:0,0:0:0:0:
232,24,17773,2,0,B|156:24|156:24|128:40|116:88,1,140,2|0,0:0|0:0,0:0:0:0:
96,200,18573,2,0,L|72:284,2,70,4|0|8,0:0|0:0|0:0,0:0:0:0:
188,108,19373,6,0,P|236:76|328:84,1,140,2|8,0:0|0:0,0:0:0:0:
360,124,19973,2,0,P|452:128|496:84,1,140
504,40,20573,2,0,B|460:8|388:24|388:24|344:12,2,140,8|2|8,0:0|0:0|0:0,0:0:0:0:
496,104,21573,2,0,L|496:192,1,70
476,296,22173,2,0,P|448:336|412:352,1,70,8|0,0:0|0:0,0:0:0:0:
368,344,22573,6,0,L|312:192,1,140,2|8,0:0|0:0,0:0:0:0:
296,152,23173,2,0,P|264:128|172:164,1,140,0|0,0:0|0:0,0:0:0:0:
140,208,23773,2,0,P|84:240|0:220,2,140,8|2|8,0:0|0:0|0:0,0:0:0:0:
140,144,24773,2,0,L|112:64,1,70,0|0,0:0|0:0,0:0:0:0:
228,136,25373,2,0,L|256:216,1,70,8|0,0:0|0:0,0:0:0:0:
272,260,25773,6,0,B|348:256|388:264|388:264|404:304,1,140,2|8,0:0|0:0,0:0:0:0:
416,348,26373,2,0,B|472:336|484:292|484:292|484:224,1,140,0|0,0:0|0:0,0:0:0:0:
476,184,26973,1,8,0:0:0:0:
416,72,27373,1,2,0:0:0:0:
292,92,27773,2,0,L|196:96,1,70,8|0,0:0|0:0,0:0:0:0:
163,120,28173,6,0,B|195:188|159:224|159:224|191:268,2,140,0|8|2,0:0|0:0|0:0,0:0:0:0:
64,40,29373,1,8,0:0:0:0:
64,40,29573,2,0,B|116:52|116:52|160:20|228:56,1,140
240,92,30173,2,0,L|336:204,2,140,8|2|0,0:0|0:0|0:0,0:0:0:0:
196,44,31173,2,0,P|152:48|120:72,1,70,0|0,0:0|0:0,0:0:0:0:
256,280,32173,5,2,0:0:0:0:
304,164,32573,2,0,B|340:128|372:128|372:128|416:116|428:64,1,140,4|8,0:0|0:0,0:0:0:0:
432,216,33373,2,0,L|432:308,1,70,4|0,0:0|0:0,0:0:0:0:
428,348,33773,2,0,P|364:352|308:316,2,105,4|0|2,0:0|0:0|0:0,0:0:0:0:
260,264,34973,2,0,P|236:296|232:352,2,70,4|4|4,0:0|0:0|0:0,0:0:0:0:
204,152,35773,5,4,0:0:0:0:
80,124,36173,1,8,0:0:0:0:
120,244,36573,2,0,L|80:304,1,70
48,356,36973,2,0,P|116:364|160:320,2,105,4|4|4,0:0|0:0|0:0,0:0:0:0:
12,236,37973,1,2,0:0:0:0:
12,236,38173,2,0,P|64:256|104:244,1,70,2|2,0:0|0:0,0:0:0:0:
128,216,38573,6,0,P|200:188|268:232,1,140,6|8,0:0|0:0,0:0:0:0:
304,336,39373,1,4,0:0:0:0:
384,240,39773,2,0,P|412:200|412:168,1,70
404,120,40173,2,0,P|432:60|480:32,2,105,4|4|2,0:0|0:0|0:0,0:0:0:0:
480,220,41173,1,0,0:0:0:0:
480,220,41373,2,0,P|468:272|452:292,2,70,4|4|6,0:0|0:0|0:0,0:0:0:0:
352,216,42173,5,8,0:0:0:0:
240,156,42573,1,4,0:0:0:0:
348,88,42973,1,8,0:0:0:0:
352,216,43373,2,0,B|340:288|280:316,2,105,6|6|6,0:0|0:0|0:0,0:0:0:0:
456,144,44373,2,0,L|468:68,2,70,2|2|2,0:0|0:0|0:0,0:0:0:0:
464,208,44973,6,0,B|412:220|376:176|376:176|348:152|316:152,1,140,0|8,0:0|0:0,0:0:0:0:
216,128,45773,1,2,0:0:0:0:
120,212,46173,2,0,L|60:260,1,70,8|2,0:0|0:0,0:0:0:0:
64,320,46573,2,0,B|120:344|192:328,2,105,2|2|2,0:0|0:0|0:0,0:0:0:0:
32,132,47773,2,0,P|44:68|56:56,2,70,2|2|2,0:0|0:0|0:0,0:0:0:0:
104,236,48573,5,8,0:0:0:0:
192,144,48973,1,2,0:0:0:0:
264,248,49373,2,0,P|296:272|344:272,1,70,0|2,0:0|0:0,0:0:0:0:
380,244,49773,2,0,L|356:368,2,105,2|2|2,0:0|0:0|0:0,0:0:0:0:
444,136,50773,2,0,L|488:56,2,70,2|0|2,0:0|0:0|0:0,0:0:0:0:
388,164,51373,6,0,B|336:152|319:178|288:204|240:180,1,140,2|8,0:0|0:0,0:0:0:0:
176,96,52173,2,0,P|124:68|104:68,2,70,2|0|8,0:0|0:0|0:0,0:0:0:0:
256,192,52973,2,0,P|254:248|204:308,2,105,2|2|2,0:0|0:0|0:0,0:0:0:0:
100,300,54173,2,0,P|48:320|32:352,2,70,2|2|0,0:0|0:0|0:0,0:0:0:0:
256,192,54773,12,0,56173,0:0:0:0:
256,192,57173,6,0,L|256:96,2,70,4|8|8,0:0|0:0|0:0,0:0:0:0:
232,252,57773,6,2,P|196:292|96:292,1,140,8|8,0:0|0:0,0:0:0:0:
40,200,58573,1,8,0:0:0:0:
112,96,58973,1,8,0:0:0:0:
168,64,59173,1,0,0:0:0:0:
216,104,59373,6,2,B|280:188|280:188|316:200|328:164,1,140,8|8,0:0|0:0,0:0:0:0:
376,76,60173,2,0,P|404:40|436:40,2,70,8|0|8,0:0|0:0|0:0,0:0:0:0:
432,188,60973,6,2,P|408:252|320:296,1,140,8|8,0:0|0:0,0:0:0:0:
240,232,61773,2,0,L|172:200,1,70,8|0,0:0|0:0,0:0:0:0:
152,260,62173,2,0,L|88:289,1,70,8|0,0:0|0:0,0:0:0:0:
28,268,62573,6,0,B|-8:200|80:176|44:112,1,140,8|8,0:0|0:0,0:0:0:0:
24,80,63173,1,0,0:0:0:0:
52,24,63373,2,0,P|104:32|172:100,1,140,8|8,0:0|0:0,0:0:0:0:
260,172,64173,6,2,L|336:136,2,70,8|0|8,0:0|0:0|0:0,0:0:0:0:
152,236,64973,1,8,0:0:0:0:
256,304,65373,1,8,0:0:0:0:
312,280,65573,1,0,0:0:0:0:
340,224,65773,6,2,P|352:168|288:88,1,140,8|8,0:0|0:0,0:0:0:0:
196,52,66573,2,0,L|100:48,1,70,8|0,0:0|0:0,0:0:0:0:
68,68,66973,2,0,P|104:104|108:140,1,70,8|0,0:0|0:0,0:0:0:0:
84,180,67373,6,2,P|60:240|80:316,1,140,8|8,0:0|0:0,0:0:0:0:
200,340,68173,2,0,P|240:336|276:352,1,70,8|0,0:0|0:0,0:0:0:0:
332,352,68573,2,0,P|365:362|399:358,1,70,8|0,0:0|0:0,0:0:0:0:
456,332,68973,6,0,P|476:240|452:192,2,140,8|8|8,0:0|0:0|0:0,0:0:0:0:
348,264,70173,1,8,0:0:0:0:
272,164,70573,6,0,B|264:112|216:108|216:108|184:132|140:112,1,140,2|8,0:0|0:0,0:0:0:0:
108,92,71173,2,0,L|40:48,2,70,0|0|2,0:0|0:0|0:0,0:0:0:0:
120,216,71973,1,0,0:0:0:0:
120,216,72173,2,0,P|144:272|244:288,1,140,2|8,0:0|0:0,0:0:0:0:
336,264,72973,1,0,0:0:0:0:
336,264,73773,6,0,B|360:196|332:192|344:120,2,140,2|8|0,0:0|0:0|0:0,0:0:0:0:
312,324,74773,2,0,P|264:344|216:336,1,70,2|8,0:0|0:0,0:0:0:0:
192,316,75173,1,0,0:0:0:0:
140,280,75373,2,0,P|80:252|0:288,2,140,2|8|2,0:0|0:0|0:0,0:0:0:0:
256,132,76773,1,0,0:0:0:0:
256,132,76973,6,0,P|312:88|388:92,1,140,2|8,0:0|0:0,0:0:0:0:
316,200,77773,2,0,P|264:224|176:172,2,140,0|8|2,0:0|0:0|0:0,0:0:0:0:
372,172,78773,2,0,P|420:152|452:160,1,70,0|8,0:0|0:0,0:0:0:0:
500,264,79373,2,0,P|456:304|360:280,1,140,0|8,0:0|0:0,0:0:0:0:
272,232,80173,6,0,L|196:192,2,70,2|2|2,0:0|0:0|0:0,0:0:0:0:
296,288,80773,2,0,L|204:324,2,70,2|0|0,0:0|0:0|0:0,0:0:0:0:
332,236,81373,1,8,0:0:0:0:
416,144,81773,6,0,P|384:92|352:80,1,70
320,68,82173,2,0,B|272:88|236:36|160:68,1,140,0|2,0:0|0:0,0:0:0:0:
72,120,82973,2,0,P|60:152|64:192,1,70,2|2,0:0|0:0,0:0:0:0:
100,240,83373,6,0,B|144:252|164:316|164:316|224:328,1,140,2|8,0:0|0:0,0:0:0:0:
264,332,83973,2,0,L|332:304,1,70,8|2,0:0|0:0,0:0:0:0:
432,232,84573,2,0,P|452:184|444:144,1,70,8|2,0:0|0:0,0:0:0:0:
428,108,84973,2,0,P|356:112|284:68,1,140,2|8,0:0|0:0,0:0:0:0:
260,32,85573,2,0,L|176:44,1,70,8|2,0:0|0:0,0:0:0:0:
72,88,86173,2,0,P|60:120|72:168,1,70,8|2,0:0|0:0,0:0:0:0:
120,188,86573,6,0,L|52:296,2,105,2|0|8,0:0|0:0|0:0,0:0:0:0:
172,152,87373,1,2,0:0:0:0:
264,68,87773,2,0,P|304:56|348:64,1,70,8|2,0:0|0:0,0:0:0:0:
368,112,88173,2,0,L|444:232,1,140,2|0,0:0|0:0,0:0:0:0:
472,288,88773,2,0,P|440:300|400:344,1,70,2|4,0:0|0:0,0:0:0:0:
364,364,89173,2,0,P|272:320|256:284,1,140,0|8,0:0|0:0,0:0:0:0:
228,232,89773,6,0,P|184:188|84:180,1,140,2|8,0:0|0:0,0:0:0:0:
48,188,90373,2,0,L|20:112,1,70,2|2,0:0|0:0,0:0:0:0:
96,20,90973,2,0,L|120:85,1,70,8|0,0:0|0:0,0:0:0:0:
144,144,91373,2,0,P|156:200|96:280,2,140,2|8|2,0:0|0:0|0:0,0:0:0:0:
212,36,92573,2,0,P|240:64|248:112,1,70,8|0,0:0|0:0,0:0:0:0:
264,152,92973,6,0,P|300:224|368:252,2,140,2|8|2,0:0|0:0|0:0,0:0:0:0:
388,132,94173,2,0,L|448:84,1,70,8|0,0:0|0:0,0:0:0:0:
488,44,94573,2,0,L|464:196,2,140,2|8|2,0:0|0:0|0:0,0:0:0:0:
432,304,96173,6,0,B|400:352|348:340|348:340|284:340,1,140,2|4,0:0|0:0,0:0:0:0:
200,272,96973,1,8,0:0:0:0:
120,176,97373,2,0,P|100:136|56:112,1,70,4|0,0:0|0:0,0:0:0:0:
28,84,97773,2,0,P|104:88|180:48,1,140,4|0,0:0|0:0,0:0:0:0:
220,36,98373,2,0,P|244:112|224:176,2,140,2|0|4,0:0|0:0|0:0,0:0:0:0:
160,12,99373,1,4,0:0:0:0:
72,100,99773,6,0,P|44:144|52:236,1,140,4|8,0:0|0:0,0:0:0:0:
116,336,100573,2,0,P|156:304|168:264,1,70,0|4,0:0|0:0,0:0:0:0:
188,228,100973,2,0,P|240:176|320:184,1,140,4|0,0:0|0:0,0:0:0:0:
360,204,101573,1,4,0:0:0:0:
444,300,101973,2,0,L|500:248,2,70,6|4|4,0:0|0:0|0:0,0:0:0:0:
388,332,102573,6,0,B|336:320|308:336|308:336|276:352|232:324,1,140,6|8,0:0|0:0,0:0:0:0:
168,240,103373,1,4,0:0:0:0:
76,152,103773,1,8,0:0:0:0:
160,56,104173,2,0,B|212:40|244:56|244:56|272:88|324:72,1,140,4|0,0:0|0:0,0:0:0:0:
352,64,104773,1,2,0:0:0:0:
412,176,105173,2,0,P|448:176|488:160,2,70,4|4|4,0:0|0:0|0:0,0:0:0:0:
352,160,105773,6,0,P|312:152|208:200,1,140,6|8,0:0|0:0,0:0:0:0:
200,244,106373,2,0,P|192:292|172:320,1,70,0|4,0:0|0:0,0:0:0:0:
64,356,106973,1,8,0:0:0:0:
16,240,107373,2,0,P|64:264|112:252,2,105,2|2|2,0:0|0:0|0:0,0:0:0:0:
52,120,108373,2,0,L|32:48,2,70,2|0|2,0:0|0:0|0:0,0:0:0:0:
76,180,108973,6,0,B|124:144|164:148|164:148|200:152|224:124,1,140,2|8,0:0|0:0,0:0:0:0:
328,100,109773,1,2,0:0:0:0:
392,212,110173,2,0,L|452:260,1,70,8|2,0:0|0:0,0:0:0:0:
448,320,110573,2,0,B|400:328|368:340|368:340|316:328,2,105,2|2|2,0:0|0:0|0:0,0:0:0:0:
480,264,111373,1,2,0:0:0:0:
480,132,111773,2,0,P|468:68|456:56,2,70,2|2|2,0:0|0:0|0:0,0:0:0:0:
408,236,112573,5,8,0:0:0:0:
320,144,112973,1,2,0:0:0:0:
248,248,113373,2,0,P|216:272|168:272,1,70,0|2,0:0|0:0,0:0:0:0:
132,244,113773,2,0,L|160:368,2,105,2|2|0,0:0|0:0|0:0,0:0:0:0:
68,136,114773,2,2,L|32:72,2,70
120,172,115373,6,0,B|168:164|187:187|216:212|268:180,1,140,2|8,0:0|0:0,0:0:0:0:
336,96,116173,2,0,P|388:68|408:68,2,70,2|0|8,0:0|0:0|0:0,0:0:0:0:
256,192,116973,2,0,P|258:248|300:304,2,105,2|2|0,0:0|0:0|0:0,0:0:0:0:
412,300,118173,2,0,P|464:320|480:352,2,70,8|2|0,0:0|0:0|0:0,0:0:0:0:
256,192,118773,12,0,120173,0:0:0:0:
256,192,121173,6,0,L|256:96,2,70,4|8|8,0:0|0:0|0:0,0:0:0:0:
232,252,121773,6,2,P|196:292|96:292,1,140,8|8,0:0|0:0,0:0:0:0:
40,200,122573,1,8,0:0:0:0:
112,96,122973,1,8,0:0:0:0:
168,64,123173,1,0,0:0:0:0:
216,104,123373,6,2,B|280:188|280:188|316:200|328:164,1,140,8|8,0:0|0:0,0:0:0:0:
376,76,124173,2,0,P|404:40|436:40,2,70,8|0|8,0:0|0:0|0:0,0:0:0:0:
432,188,124973,6,2,P|408:252|320:296,1,140,8|8,0:0|0:0,0:0:0:0:
240,232,125773,2,0,L|172:200,1,70,8|0,0:0|0:0,0:0:0:0:
152,260,126173,2,0,L|88:289,1,70,8|0,0:0|0:0,0:0:0:0:
28,268,126573,6,0,B|-8:200|80:176|44:112,1,140,8|8,0:0|0:0,0:0:0:0:
24,80,127173,1,0,0:0:0:0:
52,24,127373,2,0,P|104:32|172:100,1,140,8|8,0:0|0:0,0:0:0:0:
260,172,128173,6,2,L|336:136,2,70,8|0|8,0:0|0:0|0:0,0:0:0:0:
152,236,128973,1,8,0:0:0:0:
256,304,129373,1,8,0:0:0:0:
312,280,129573,1,0,0:0:0:0:
340,224,129773,6,2,P|352:168|288:88,1,140,8|8,0:0|0:0,0:0:0:0:
196,52,130573,2,0,L|100:48,1,70,8|0,0:0|0:0,0:0:0:0:
68,68,130973,2,0,P|104:104|108:140,1,70,8|0,0:0|0:0,0:0:0:0:
84,180,131373,6,2,P|60:240|80:316,1,140,8|8,0:0|0:0,0:0:0:0:
188,252,132173,2,0,L|184:152,2,70,0|0|8,0:0|0:0|0:0,0:0:0:0:
236,292,132773,1,0,0:0:0:0:
292,324,132973,6,0,P|364:232|364:200,1,140,8|8,0:0|0:0,0:0:0:0:
352,152,133573,1,0,0:0:0:0:
328,92,133773,2,0,P|344:72|412:68,2,70,8|0|8,0:0|0:0|0:0,0:0:0:0:
256,192,144573,12,0,146373,0:0:0:0:
272,240,147373,6,0,L|160:352,2,140,2|8|2,0:0|0:0|0:0,0:0:0:0:
364,152,148573,2,0,P|384:112|372:64,1,70,0|2,0:0|0:0,0:0:0:0:
340,40,148973,2,0,L|472:36,2,105,2|2|0,0:0|0:0|0:0,0:0:0:0:
280,64,149773,2,0,B|236:72|228:112|224:140|172:152,2,140,2|2|2,0:0|0:0|0:0,0:0:0:0:
308,188,150973,6,0,P|272:228|176:244,1,140,8|2,0:0|0:0,0:0:0:0:
68,212,151773,2,0,P|56:176|64:120,1,70,0|2,0:0|0:0,0:0:0:0:
68,84,152173,2,0,L|200:100,2,105,2|2|2,0:0|0:0|0:0,0:0:0:0:
176,16,153173,2,0,L|256:24,2,70,0|2|2,0:0|0:0|0:0,0:0:0:0:
112,12,153773,1,2,0:0:0:0:
164,128,154173,6,0,L|172:288,1,140,8|2,0:0|0:0,0:0:0:0:
268,348,154973,1,8,0:0:0:0:
288,224,155373,2,0,L|280:92,2,105,2|2|2,0:0|0:0|0:0,0:0:0:0:
128,324,156573,2,0,P|60:340|32:332,2,70,2|2|0,0:0|0:0|0:0,0:0:0:0:
256,192,157173,12,0,158573,0:0:0:0:
224,176,159573,6,0,P|212:144|176:116,2,70,4|8|8,0:0|0:0|0:0,0:0:0:0:
244,236,160173,6,2,P|288:304|384:304,1,140,8|8,0:0|0:0,0:0:0:0:
420,216,160973,2,0,L|492:136,1,70,8|0,0:0|0:0,0:0:0:0:
452,104,161373,2,0,P|416:100|380:112,1,70,8|0,0:0|0:0,0:0:0:0:
336,152,161773,6,0,B|296:180|260:148|260:148|216:152,2,105,10|10|10,0:0|0:0|0:0,0:0:0:0:
236,72,162773,1,10,0:0:0:0:
236,72,162973,2,0,P|196:84|164:136,1,70,2|2,0:0|0:0,0:0:0:0:
148,160,163373,6,2,L|76:320,1,140,8|8,0:0|0:0,0:0:0:0:
208,240,164173,2,0,L|256:128,2,70,8|0|8,0:0|0:0|0:0,0:0:0:0:
236,296,164773,1,0,0:0:0:0:
296,316,164973,6,0,B|344:296|376:328|428:348|468:308,1,140,8|8,0:0|0:0,0:0:0:0:
476,280,165573,1,0,0:0:0:0:
468,216,165773,2,0,P|436:168|312:136,1,140,8|8,0:0|0:0,0:0:0:0:
248,88,166573,6,0,P|196:88|156:116,1,70,8|0,0:0|0:0,0:0:0:0:
132,136,166973,2,0,L|176:220,1,70,8|0,0:0|0:0,0:0:0:0:
192,256,167373,2,0,P|224:312|268:316,1,70,8|0,0:0|0:0,0:0:0:0:
288,308,167773,2,0,L|364:260,1,70,8|0,0:0|0:0,0:0:0:0:
392,228,168173,6,0,P|416:152|400:112,2,105,10|10|10,0:0|0:0|0:0,0:0:0:0:
284,160,169173,1,10,0:0:0:0:
232,124,169373,2,0,P|184:100|148:96,1,70
112,124,169773,6,0,P|88:200|132:272,2,140,8|8|8,0:0|0:0|0:0,0:0:0:0:
124,60,170773,2,0,P|92:32|28:40,1,70,0|8,0:0|0:0,0:0:0:0:
256,192,171173,12,8,172573,0:0:0:0:
