osu file format v14

[General]
AudioFilename: audio.ogg
AudioLeadIn: 0
PreviewTime: 33944
Countdown: 0
SampleSet: Normal
StackLeniency: 0.7
Mode: 1
LetterboxInBreaks: 0
EpilepsyWarning: 1
WidescreenStoryboard: 1

[Editor]
Bookmarks: 164394
DistanceSpacing: 0.2
BeatDivisor: 4
GridSize: 32
TimelineZoom: 0.5

[Metadata]
Title:Starships (Nightcore & Cut Ver.)
TitleUnicode:Starships (Nightcore & Cut Ver.)
Artist:Nicki Minaj
ArtistUnicode:Nicki Minaj
Creator:Toofu
Version:Kantan
Source:
Tags:Tachibana_ Froskya Revialink marianna english pop electronic sped up
BeatmapID:3615040
BeatmapSetID:1766063

[Difficulty]
HPDrainRate:10
CircleSize:5
OverallDifficulty:2
ApproachRate:5
SliderMultiplier:1.4
SliderTickRate:1

[Events]
//Background and Video events
0,0,"mari.jpg",0,0
//Break Periods
//Storyboard Layer 0 (Background)
//Storyboard Layer 1 (Fail)
//Storyboard Layer 2 (Pass)
//Storyboard Layer 3 (Foreground)
Sprite,Foreground,Centre,"sb\dbt.png",320,240 M,0,3601,3704,498.6182,400.5818,436.3637,401.1637 F,0,3601,3704,0,1 M,0,3704,6078,436.3637,401.1637,410.7637,402.3273 F,0,3704,6078,1 S,0,5976,,0.2261819 M,0,6078,6181,410.7637,402.3273,398.5455,402.3273 F,0,6078,6181,1,0
//Storyboard Layer 4 (Overlay)
//Storyboard Sound Samples

[TimingPoints]
980,412.825099766066,4,1,0,75,1,0
6965,-100,4,1,0,55,0,0
14190,-100,4,1,0,65,0,0
20795,-100,4,1,0,75,0,0
34006,-100,4,1,0,65,0,0
47216,-100,4,1,0,70,0,0
53821,-100,4,1,0,75,0,0
58775,-100,4,1,0,55,0,0
60426,-100,4,1,0,90,0,1
71985,-100,4,1,0,60,0,0

[HitObjects]
264,111,14190,5,8,1:0:0:0:
264,111,14603,1,8,1:0:0:0:
267,103,15428,1,0,0:0:0:0:
268,107,15841,1,8,0:0:0:0:
276,101,16254,1,8,1:0:0:0:
268,107,17080,1,8,0:0:0:0:
276,101,17493,1,0,1:0:0:0:
283,101,17905,1,8,1:0:0:0:
283,101,18731,1,0,1:0:0:0:
295,81,20382,1,0,1:0:0:0:
295,81,20795,1,12,1:0:0:0:
256,57,21621,1,8,0:0:0:0:
346,68,22446,1,0,1:0:0:0:
291,62,23066,1,8,1:0:0:0:
295,81,24098,1,0,1:0:0:0:
256,57,24924,1,8,0:0:0:0:
346,68,25749,1,8,1:0:0:0:
291,62,26368,1,0,1:0:0:0:
295,81,27400,1,8,1:0:0:0:
256,57,28226,1,0,0:0:0:0:
346,68,29051,1,8,1:0:0:0:
291,62,29671,1,8,1:0:0:0:
295,81,30703,1,8,1:0:0:0:
256,57,31529,1,0,0:0:0:0:
346,68,32354,1,0,1:0:0:0:
291,62,32974,5,8,1:0:0:0:
314,53,34006,5,12,1:0:0:0:
314,53,34831,1,0,1:0:0:0:
312,47,35657,1,8,1:0:0:0:
312,47,36276,1,0,1:0:0:0:
313,45,36895,1,0,1:0:0:0:
314,53,37308,5,8,1:0:0:0:
314,53,38133,1,0,1:0:0:0:
312,47,38959,1,8,1:0:0:0:
312,47,39579,1,0,1:0:0:0:
314,53,40611,5,8,1:0:0:0:
314,53,41436,1,0,1:0:0:0:
312,47,42262,1,0,1:0:0:0:
312,47,42881,1,8,1:0:0:0:
313,45,43500,1,8,1:0:0:0:
314,53,43913,5,0,1:0:0:0:
314,53,44739,1,8,1:0:0:0:
312,47,45564,1,0,1:0:0:0:
312,47,46183,1,0,1:0:0:0:
323,43,47216,5,12,1:0:0:0:
323,43,48042,1,0,1:0:0:0:
323,43,48454,1,0,1:0:0:0:
323,43,48867,1,8,1:0:0:0:
323,43,49486,1,0,1:0:0:0:
314,29,50106,1,8,0:0:0:0:
323,43,50519,5,0,1:0:0:0:
323,43,51345,1,8,1:0:0:0:
323,43,52170,1,8,1:0:0:0:
323,43,52789,1,0,1:0:0:0:
323,43,53821,5,8,1:0:0:0:
323,43,54647,1,0,1:0:0:0:
331,43,55060,1,8,0:0:0:0:
323,43,55472,1,8,1:0:0:0:
323,43,56092,1,0,1:0:0:0:
329,46,57124,1,8,0:0:0:0:
298,128,57537,1,0,0:0:0:0:
329,46,57949,1,8,0:0:0:0:
329,46,58775,1,0,0:0:0:0:
310,110,60427,5,12,1:0:0:0:
310,110,60839,1,8,1:0:0:0:
320,106,61252,1,0,1:0:0:0:
320,106,61665,1,0,1:0:0:0:
320,106,62078,1,8,1:0:0:0:
324,110,63316,1,0,1:0:0:0:
245,27,63729,1,8,1:0:0:0:
248,43,64142,5,0,0:0:0:0:
245,27,64555,1,8,1:0:0:0:
320,106,65380,1,0,1:0:0:0:
248,43,65793,1,0,0:0:0:0:
311,59,66206,1,8,0:0:0:0:
310,110,67032,5,12,1:0:0:0:
310,110,67444,1,0,1:0:0:0:
320,106,67857,1,0,1:0:0:0:
320,106,68270,1,8,1:0:0:0:
320,106,68683,1,8,1:0:0:0:
324,110,69921,1,0,1:0:0:0:
245,27,70334,1,8,1:0:0:0:
248,43,70747,5,8,0:0:0:0:
245,27,71160,5,0,1:0:0:0:
320,106,71985,1,0,1:0:0:0:
306,84,72398,1,8,0:0:0:0:
311,59,72811,1,0,0:0:0:0:
306,57,73224,1,8,1:0:0:0:
